
//----- song ID: hakk -----//
#TITLE:Is this dance a Hakken?;
#ARTIST:RoughSketch;
#TITLETRANSLIT:Is this dance a Hakken;
#BANNER:Is this dance a Hakken.png;
#BACKGROUND:Is this dance a Hakken-bg.png;
#CDTITLE:./CDTitles/DDR WORLD.png;
#MUSIC:Is this dance a Hakken.ogg;
#SAMPLESTART:17.681;
#SAMPLELENGTH:15;
#BPMS:0=102.5,12=205,44=102.5,48=205,144=102.5,148=205,212=102.5,220=205,252=68.333,256=102.5,280=205;
#NOTES:
     dance-single:
     :
     Beginner:
     3:
     :
0000
0000
0000
0000
,
0000
0000
0000
0000
,
0000
0000
0000
0000
,
0001
0000
0000
0000
,
0000
0000
0000
0000
,
0001
0000
0000
0000
,
0000
0000
0000
0000
,
0010
0000
0000
0000
,
0010
0000
0000
0000
,
0010
0000
0000
0000
,
0000
0000
0000
0000
,
1000
0000
0000
0000
,
0000
0000
0000
0000
,
1000
0000
0000
0000
,
1000
0000
0000
0000
,
0000
0000
0000
0000
,
0010
0000
0000
0000
,
0010
0000
0000
0000
,
0100
0000
0000
0000
,
0000
0000
0000
0000
,
0010
0000
0000
0000
,
0001
0000
0000
0000
,
0010
0000
0000
0000
,
0000
0000
0000
0000
,
0001
0000
0000
0000
,
0001
0000
0000
0000
,
0100
0000
0000
0000
,
0000
0000
0000
0000
,
1001
0000
0000
0000
,
0000
0000
0000
0000
,
1001
0000
0000
0000
,
0000
0000
0000
0000
,
0001
0000
0000
0000
,
0001
0000
0000
0000
,
0010
0000
0000
0000
,
0000
0000
0000
0000
,
0010
0000
0000
0000
,
0010
0000
0000
0000
,
0000
0000
0000
0000
,
0100
0000
0000
0000
,
0000
0000
0000
0000
,
1000
0000
0000
0000
,
0000
0000
0000
0000
,
1000
0000
0000
0000
,
0000
0000
0000
0000
,
1000
0000
1000
0000
,
0010
0000
0000
0000
,
0010
0000
0000
0000
,
0000
0000
0000
0000
,
0001
0000
0001
0000
,
0100
0000
0000
0000
,
0001
0000
0000
0000
,
0000
0000
0000
0000
,
1001
0000
0000
0000
,
0000
0000
0000
0000
,
0001
0000
0001
0000
,
0010
0000
0000
0000
,
0010
0000
0001
0000
,
0010
0000
0000
0000
,
0010
0000
0010
0000
,
1000
0000
0000
0000
,
0010
0000
1000
0000
,
0010
0000
0000
0000
,
0000
0000
0000
0000
,
1000
0000
0000
0000
,
1000
0000
0000
0000
,
0100
0000
0000
0000
,
0100
0000
0000
0000
,
0010
0000
0000
0000
,
0010
0000
0000
0000
,
0001
0000
0000
0000
,
0001
0000
0000
0000
,
0010
0000
0010
0000
,
0001
0000
0000
0000
,
0010
0000
0000
0000
,
1000
0000
0000
0000
,
1000
0000
1000
0000
,
0010
0000
0000
0000
,
2000
0000
0000
0000
,
3000
0000
0000
0000
,
0010
0000
0100
0000
,
0010
0000
0000
0000
,
0002
0000
0000
0000
,
0003
0000
0000
0000
,
0010
0000
0100
0000
,
0010
0000
0000
0000
,
0010
0000
0000
0000
,
0000
0000
0000
0000
;
#NOTES:
     dance-single:
     :
     Easy:
     7:
     :
0000
0000
0000
0000
,
0000
0000
0000
0000
,
0000
0000
0000
0000
,
0001
0000
0001
0000
,
0010
0000
0000
0000
,
0010
0000
0010
0000
,
0100
0000
0000
0000
,
0100
1000
0100
0000
,
1000
0000
1000
0000
,
0001
1000
0001
1000
,
0001
0000
0000
0000
,
1001
0000
0000
0000
,
1000
0000
1000
0000
,
0010
0100
0010
0000
,
1000
0000
1000
0000
,
0100
0010
0001
0000
,
0001
0000
0001
0000
,
0100
0010
0100
0000
,
0001
0000
1000
0000
,
2002
0000
0000
3003
,
1000
0010
1000
0000
,
0001
0100
0001
0000
,
1000
0100
1000
0000
,
0001
0010
0001
0000
,
1000
0010
0100
0000
,
0001
0100
0010
0000
,
1000
0100
0010
0000
,
0002
0000
0000
0003
,
0001
0000
0001
0000
,
0100
0100
0100
0000
,
0010
0000
0010
0000
,
1000
1000
1000
0000
,
1000
0100
1000
0000
,
1000
0010
1000
0000
,
1000
0001
1000
0001
,
0000
0001
1000
0000
,
1001
0000
0000
0000
,
0001
0001
0001
0000
,
0010
0010
0010
0000
,
0100
0100
0100
0000
,
1000
1000
1000
0000
,
1000
0010
1000
0000
,
0010
0100
0010
0000
,
0100
0001
0100
0000
,
0001
1000
0001
0000
,
0010
0010
0010
0000
,
0100
0100
0100
0000
,
0110
0000
1001
0000
,
1000
0001
1000
0000
,
0001
0100
0010
0000
,
1000
0100
0010
0000
,
0001
1000
0010
0100
,
0002
0000
0000
0003
,
1001
0000
0000
0000
,
1001
0000
0000
0000
,
1000
0000
0100
0000
,
0010
0001
0100
0000
,
0001
0000
0100
0000
,
0010
1000
0100
0000
,
1000
0001
0010
0000
,
0001
1000
0010
0000
,
1000
0001
0100
0000
,
0001
1000
0001
0000
,
0000
0000
0000
0000
,
2000
0000
3000
0000
,
0020
0000
0030
0000
,
0100
0100
0100
0000
,
0001
0001
0001
0000
,
1001
0000
0110
0000
,
1001
0110
0000
0000
,
0001
1000
0001
1000
,
0010
0100
0010
1000
,
0100
0010
0100
0010
,
0001
0100
0001
0000
,
1000
0001
1000
0001
,
0010
0100
0010
0001
,
0100
0010
0100
0010
,
1000
0100
1000
0000
,
0001
0100
1000
0000
,
1000
0100
0001
0000
,
1000
0100
0010
0001
,
0100
0001
1000
0010
,
0100
0001
1001
0000
,
1000
0100
0110
0000
,
0010
0001
0100
0010
,
1000
0100
0010
0000
,
1001
0000
0000
0000
,
0000
0000
0000
0000
;
#NOTES:
     dance-single:
     :
     Medium:
     12:
     :
0000
0000
0000
0000
,
0000
0000
0000
0000
,
0000
0000
0000
0000
,
0001
0000
0000
1000
0000
1000
0000
0001
,
0000
1000
0000
0000
,
1000
0000
0000
0001
0000
0001
0000
1000
,
0000
0001
1000
0000
0001
0000
0000
0000
,
0001
0100
0001
0010
,
0001
0100
0010
1000
,
0100
0010
0100
0000
0010
0000
0001
1000
,
0000
1000
0001
0000
,
2000
0000
0000
3000
,
1000
0100
0010
0000
0001
1000
0000
0001
,
0000
1000
0100
0000
0010
0000
0000
0000
,
0001
0100
0010
0000
1000
0001
0000
1000
,
0000
0001
0100
0000
0010
0000
0010
0000
,
1000
0010
0100
0000
0001
1000
0000
0001
,
0000
1000
0010
0000
0100
0000
0000
0000
,
0001
0010
0100
0000
1000
0001
0000
0000
,
2002
0000
3003
0000
,
1000
0000
0001
0100
0000
0001
0000
0010
,
0000
1001
0000
0000
,
0001
0000
1000
0100
0000
1000
0000
0010
,
0000
1000
0001
1000
0001
0000
0000
0000
,
1000
0000
0010
0100
0000
0001
0000
0010
,
0000
1001
0000
0000
,
0001
0000
0100
0010
0000
1000
0000
0100
,
0000
1000
0001
0000
,
1000
0000
0000
0010
0000
0000
1000
0000
0010
0000
0000
0000
1000
0000
0000
0000
,
0001
0000
0000
0010
0000
0000
0001
0000
0010
0000
0000
0000
0001
0000
0000
0000
,
1000
0000
0000
0100
0000
0000
1000
0000
0100
0000
0000
0000
1000
0000
0000
0000
,
0001
0000
0100
0000
0000
0001
0000
0000
0100
0000
0001
0000
0100
0000
0000
0000
,
0001
0100
0001
0000
0010
0000
0100
0000
,
1000
0010
1000
0000
0100
0000
0010
0000
,
0001
1000
0001
1000
0001
1000
0001
1000
,
0001
0010
0100
0000
,
2002
0000
3003
0000
0001
1000
1001
0000
,
2000
3200
0320
0032
,
2003
3020
0230
0302
,
1003
0010
1000
0010
0000
0000
0200
0000
0000
0320
0000
0000
,
2030
3001
2002
3003
,
0001
0000
0010
0000
0100
0000
1000
0000
0000
0001
0000
0000
,
0200
2300
3200
0302
,
0013
0100
0010
0100
0000
0000
2000
0000
0000
3002
0000
0000
,
0103
0010
0100
0000
,
0001
0000
0001
0000
0001
0000
0000
0000
1000
0000
0000
1000
0000
0000
1000
0000
,
0010
0000
0100
0000
0001
0000
2000
0000
0000
3000
0000
0000
,
1000
0000
1000
0000
1000
0000
0000
0000
0001
0000
0000
0001
0000
0000
0001
0000
,
0010
0000
0100
0000
1000
0000
0002
0000
0000
0003
0000
0000
,
0001
0110
1000
0110
,
0001
0110
1000
0110
,
0001
0000
0001
0010
0000
0010
0100
0000
0100
1000
0000
1000
,
0002
0000
0000
0003
,
2000
0000
3000
0000
,
2000
0000
3000
0000
,
1000
0100
0010
0001
0000
0010
0100
1000
,
0000
0001
1000
0000
0000
0000
0000
0000
,
0001
0100
0010
1000
0000
0010
0100
0001
,
0000
1000
0001
1000
0001
0000
0000
0000
,
1000
0001
0100
0010
0000
0100
0001
0010
,
0000
0100
1000
0000
0000
0000
0000
0000
,
0001
0100
0001
0100
0010
1000
0010
1000
,
0000
1000
0001
0000
,
0000
0000
0000
0000
,
0001
0000
0100
0000
0010
1000
0010
0000
2000
0000
0000
0000
3000
0000
0000
0000
,
1000
0000
0100
0000
0010
0001
0010
0000
0002
0000
0000
0000
0003
0000
0000
0000
,
0001
0100
0001
0000
1000
0100
1000
0000
,
0001
1000
0001
1000
0010
0010
0010
0000
,
1001
0000
1001
0000
,
1000
0001
1000
0001
0000
0000
0000
0000
,
1000
0001
1000
0000
0010
0000
0100
0000
,
0001
0000
0010
0000
0100
1000
0100
1000
,
0001
0100
0010
0100
,
0010
1000
0100
0000
0010
0001
0100
0000
,
0001
0001
0001
0000
1000
0000
0010
0000
,
0100
0001
0100
0000
0010
1000
0010
0000
,
1000
0000
0100
0000
0001
0100
1000
0000
,
0001
0000
0000
0010
0000
0000
0100
0000
2000
0000
0000
0000
3000
0000
0000
0000
,
1000
0010
1000
0000
0100
0100
0000
0010
,
0000
0001
0100
0000
0002
0000
0003
0000
,
0001
0010
1000
0000
0010
0000
0001
0000
,
1000
0100
1000
0100
0010
0100
0010
0000
,
0001
0000
0000
0001
0000
0000
0001
0000
0100
0000
0000
0000
0110
0000
0000
0000
,
0010
1000
0000
0010
1000
0000
1001
0000
,
1000
0000
0100
0010
0001
0000
0100
0010
,
1000
0000
0100
0000
0010
0100
1000
0000
,
1001
0000
0000
0000
,
0000
0000
0000
0000
;
#NOTES:
     dance-single:
     :
     Hard:
     16:
     :
0000
0000
0000
0000
,
0000
0000
0000
0000
,
0000
0000
0000
0000
,
1000
0000
0100
0010
0000
0001
0000
0100
,
0000
1001
0000
0000
,
0001
0000
0100
0010
0000
1000
0000
0100
,
0000
0001
0100
1000
0100
0100
0000
0000
,
1000
0000
0010
0100
0000
0001
0000
0010
,
0000
1001
0000
0000
,
0001
0000
0010
0100
0000
1000
0000
0010
,
0000
2000
3002
0003
,
0000
1000
0000
1000
0000
0100
0000
0100
0000
0010
0000
0010
0001
0000
1001
0000
,
1000
0100
0010
0001
1000
0100
0001
0100
,
1000
0100
0010
0001
1000
0001
0000
0000
,
0001
0100
0010
1000
0001
0100
1000
0100
,
0001
0000
0100
0000
0010
0000
1000
0010
1000
0000
0000
0000
1001
0000
0000
0000
,
1000
0010
0100
0001
1000
0010
0001
0010
,
1000
0010
0100
0001
1000
0001
0000
0000
,
0001
0010
0100
1000
0001
0010
1000
0010
,
0001
0000
1000
0001
1000
0000
0100
0000
0010
0000
0000
0000
0110
0000
0000
0000
,
0001
0000
0100
1000
0000
1000
0000
0100
,
0000
0001
0010
0100
1000
0010
0100
0001
,
1000
0000
0100
0001
0000
0001
0000
0100
,
0000
0000
1000
0000
0100
0000
0001
0000
0100
0000
1000
0000
0001
0010
0100
0000
,
1000
0000
0010
0001
0000
0001
0000
0010
,
0000
1000
0100
0010
0001
0100
0010
1000
,
0001
0000
0010
1000
0000
1000
0000
0010
,
0000
0002
2003
3000
,
0001
0000
0000
0010
0000
0000
0001
0000
0100
0000
1000
0000
0100
0000
0010
0000
,
1000
0000
0000
0100
0000
0000
1000
0000
0010
0000
0001
0000
0010
0000
0100
0000
,
0001
0000
0000
0010
0000
0000
0001
0000
0100
0000
0010
0000
1000
0000
0100
0000
,
0010
0000
0001
0000
0000
0001
0000
0000
1000
0000
0001
0000
1000
0000
0000
0000
,
0001
0100
0001
0100
0010
1000
0010
1000
,
0100
0000
0010
0000
0100
0000
0010
0000
0001
0000
1000
0000
0001
0000
1000
0001
,
1000
0100
0010
0001
0100
0010
0100
0010
,
1000
0001
1000
0001
2000
0000
0000
0000
3002
0000
0000
0000
0003
0000
0000
0000
,
1001
0000
1001
0000
1001
1001
1001
0000
,
1000
1100
0001
0101
,
1000
0000
0000
1010
0000
0000
0001
0000
0000
0001
0010
0000
,
0001
0000
0000
0101
0000
0000
1000
0000
0000
1000
0100
0000
,
1000
1010
0002
1003
,
0001
0000
0001
0000
0001
1000
0001
0000
0000
0110
0000
0000
,
1000
0000
0000
1001
0000
0000
0100
0000
0000
0100
0010
0000
,
0110
0000
0000
1001
0000
0000
0011
0000
0000
1000
0100
0000
,
0010
0002
2003
3000
,
0001
0010
0100
1000
0001
0000
0000
0000
1000
0000
0000
1000
0000
0000
0001
1000
,
0001
0000
0100
0000
0010
0000
0220
0000
0000
0330
0000
0000
,
1000
0010
0100
0001
1000
0000
0000
0000
0001
0000
0000
0001
0000
0000
1000
0001
,
1000
0000
0100
0000
0010
0000
0001
0000
0100
0000
0010
0000
2000
0000
0000
0000
0000
0000
3010
0000
0000
0100
0000
0000
,
0001
0000
0000
1000
0100
1000
0100
0000
0010
0000
0000
0001
0100
0001
0100
0000
,
0010
0000
0000
1000
0001
1000
0001
0000
0010
0000
0000
0000
0110
0000
0000
0000
,
1000
0001
1000
0010
0100
0010
1000
0100
1000
0001
0010
0001
,
2000
0000
0000
3000
,
0002
0000
0003
0000
,
0002
0000
0003
0000
,
0001
0100
0001
0100
0010
1000
0100
1000
,
0000
1100
0101
1100
,
1000
0100
1000
0100
0010
0001
0100
0001
,
0000
0010
0100
0010
0100
0000
0110
0000
,
0001
0010
0001
0010
0100
1000
0010
1000
,
0000
1010
0011
1010
,
1000
0010
1000
0010
0100
0001
0010
0001
,
0000
2000
3002
0003
,
0000
0000
0000
0000
,
2002
0000
0000
0000
0000
0000
0000
0000
0000
0000
0000
0000
3003
0000
0000
0000
0001
0000
0010
0100
0000
1000
0100
0000
1000
0001
1000
0001
1000
0000
0001
0000
,
2002
0000
0000
0000
0000
0000
0000
0000
0000
0000
0000
0000
3003
0000
0000
0000
1000
0000
0010
0100
0000
0001
0100
0000
0001
1000
0001
1000
0001
0000
1000
0000
,
0002
0000
0100
0000
0100
0000
0103
0000
2000
0000
0100
0000
0100
0000
3100
0010
,
0001
0000
0100
0000
0010
0000
1000
0000
0001
0000
0100
0000
0010
0000
1000
0000
0001
1000
0001
1000
0002
0000
0000
0000
2003
0000
0000
0000
3000
0000
0000
0000
,
0020
0030
0000
0000
0020
0030
0000
0000
0020
0030
0000
0000
0020
0030
0000
0000
,
1000
0100
0010
0001
1000
0100
0010
0001
0000
0000
0000
0000
0000
0000
0000
0000
,
1000
0000
0001
0100
0000
0001
0100
0000
0010
1000
0010
1000
0010
0000
0100
0000
,
0010
0000
1000
0100
0000
1000
0100
0000
0010
0001
0010
0001
0010
0000
0000
0000
,
0001
0000
1000
0010
0000
1000
0001
0000
0100
0001
0100
0001
0100
0000
0001
0000
,
1000
0000
0001
0010
0000
0001
1000
0000
0100
0000
1000
0000
0100
1000
0100
0000
,
1000
0000
0010
0100
0000
0001
0100
0000
0001
1000
0001
1000
0001
0000
0010
0000
,
0001
0000
0100
0010
0000
1000
0010
0000
1000
0001
1000
0001
1000
0000
0000
0000
,
0100
0000
1000
0010
0000
0100
0001
0000
1000
0100
1000
0000
0100
0000
0010
0000
,
0001
0000
1000
0001
0000
1000
0001
0000
2000
0000
0000
0000
3000
0000
0000
0000
,
0001
0010
1000
0010
0001
1000
0000
0001
,
0000
0010
1000
0010
0002
0000
0003
0000
,
0001
0000
0100
0010
1000
0000
0000
0000
0010
0000
1000
0000
0100
0000
0010
0000
,
0001
0000
0010
0001
0000
0010
0001
0000
0100
0010
0100
0000
0010
0100
0010
0000
,
1000
0000
0000
1000
0000
0000
1000
0001
1000
0000
0100
0000
0010
0000
0001
0000
,
0100
0010
0100
0010
0000
0100
0010
0100
0010
0000
0000
0000
0110
0000
0000
0000
,
1000
0000
0000
0000
0001
0000
0010
0001
0010
0000
0001
0000
1000
0100
1000
0000
,
0001
0010
0000
0100
1000
0000
0001
0000
1000
0001
1000
0001
1000
0000
0000
0000
,
1001
0000
0000
0000
,
0000
0000
0000
0000
;
#NOTES:
     dance-double:
     :
     Easy:
     7:
     :
00000000
00000000
00000000
00000000
,
00000000
00000000
00000000
00000000
,
00000000
00000000
00000000
00000000
,
10000000
00000000
10000000
00000000
,
01000000
00000000
00000000
00000000
,
00100000
00000000
00100000
00000000
,
00010000
00000000
00000000
00000000
,
10000000
01000000
10000000
00000000
,
01000000
00000000
00010000
00000000
,
00001000
00010000
00001000
00010000
,
00001000
00000000
00000000
00000000
,
00011000
00000000
00000000
00000000
,
00010000
00001000
00010000
00000000
,
00000100
00001000
00000100
00000000
,
00000010
00000001
00000010
00000000
,
00000001
00000000
00001001
00000000
,
00000001
00000100
00000001
00000000
,
00000100
00000010
00000100
00000000
,
00000010
00010000
00000010
00010000
,
00002000
00000000
00000000
00003000
,
00001000
00000000
00010000
00000000
,
00001000
00100000
00010000
00100000
,
00010000
00000000
01000000
00000000
,
00100000
10000000
00100000
00000000
,
10000000
00000000
01000000
00000000
,
00100000
00010000
00100000
00001000
,
00010000
00000000
00001000
00000000
,
00022000
00000000
00000000
00033000
,
00010000
00000000
00010000
00000000
,
00001000
00001000
00001000
00000000
,
00001000
00000000
00001000
00000000
,
00010000
00010000
00010000
00000000
,
00001000
00010000
00001000
00010000
,
00000100
00001000
00000100
00000000
,
00000010
00000001
00000100
00001000
,
00000000
00001000
00010000
00000000
,
00011000
00000000
00000000
00000000
,
00011000
00000000
00011000
00000000
,
00001000
00010000
00100000
00000000
,
01100000
00000000
01100000
00000000
,
10000000
01000000
00010000
00000000
,
00011000
00000000
00011000
00000000
,
00010000
00001000
00000010
00000000
,
00000110
00000000
00000110
00000000
,
00000001
00001000
00000001
00000000
,
00000001
00000100
00000010
00001000
,
00000100
00010000
00001000
00000000
,
00011000
00000000
00011000
00000000
,
00001000
00010000
00100000
00000000
,
10000000
01000000
00100000
00010000
,
10000000
01000000
00010000
00000000
,
00001000
00010000
00001000
00000000
,
00022000
00000000
00000000
00033000
,
00011000
00000000
00000000
00000000
,
00011000
00000000
00000000
00000000
,
00010000
00000000
00000010
00000000
,
00001000
00000010
00001000
00000000
,
00000001
00000000
00000100
00000000
,
00000010
00001000
00000010
00000000
,
00000100
00000000
00000001
00000000
,
00001000
00000100
00010000
00000000
,
00001000
00000000
00010000
00000000
,
00001000
00010000
00100000
00000000
,
00000000
00000000
00000000
00000000
,
20000000
00000000
30000000
00000000
,
00020000
00000000
00030000
00000000
,
00100000
00100000
00100000
00000000
,
01000000
01000000
01000000
00000000
,
01100000
00000000
10010000
00000000
,
10000000
01000000
00010000
00000000
,
00001000
00010000
00001000
00010000
,
00000010
00001000
00000010
00000000
,
00001000
00000001
00001000
00000001
,
00000010
00000100
00000010
00000000
,
00000001
00000100
00000001
00000100
,
00001000
00010000
00001000
00000000
,
00010000
00001000
00010000
00001000
,
01000000
00010000
01000000
00000000
,
00010000
10000000
01000000
00100000
,
00010000
10000000
01000000
00000000
,
10000000
01000000
01000000
00010000
,
00010000
00001000
00010000
00000000
,
00001000
00010000
00010000
00000010
,
00000010
00001000
00000001
00000000
,
00000001
00000100
00000001
00000010
,
00001000
00010000
00001000
00000000
,
00011000
00000000
00000000
00000000
,
00000000
00000000
00000000
00000000
;
#NOTES:
     dance-double:
     :
     Medium:
     12:
     :
00000000
00000000
00000000
00000000
,
00000000
00000000
00000000
00000000
,
00000000
00000000
00000000
00000000
,
00001000
00000000
00010000
00001000
00000000
00100000
00000000
00010000
,
00000000
10000000
00000000
10000000
,
00010000
00000000
10000000
00100000
00000000
01000000
00000000
00010000
,
00000000
00100000
00001000
00000000
00010000
00000000
00000000
00000000
,
00010000
00001000
00010000
00000010
,
00001000
00000010
00000100
00000001
,
00000010
00000100
00000010
00000000
00000001
00001000
00000001
00000000
,
00000000
00000001
00001000
00000000
,
00000002
00000000
00000000
00000003
,
00000001
00000100
00000001
00000000
00000010
00000100
00000000
00000100
,
00000000
00001000
00000100
00000000
00010000
00000000
00000000
00000000
,
00001000
00010000
00001000
00000000
01000000
00010000
00000000
00010000
,
00000000
00100000
00010000
00000000
01000000
00000000
01000000
00000000
,
00100000
10000000
01000000
00000000
00100000
01000000
00000000
01000000
,
00000000
00010000
00001000
00000000
00010000
00000000
00000000
00000000
,
00001000
00010000
00001000
00000000
00000010
00000001
00000000
00000000
,
00002002
00000000
00003003
00000000
,
00000001
00000000
00000100
00000001
00000000
00000010
00000000
00000001
,
00000000
00001000
00000100
00010000
,
00001000
00000000
00100000
00010000
00000000
01000000
00000000
00010000
,
00000000
00100000
01000000
00000000
01100000
00000000
00000000
00000000
,
10000000
00000000
01000000
10000000
00000000
00100000
00000000
10000000
,
00000000
00010000
01000000
00001000
,
00010000
00000000
00000010
00001000
00000000
00000100
00000000
00001000
,
00000000
00000010
00000100
00000000
,
00000001
00000000
00000000
00001000
00000000
00000000
00000001
00000000
00001000
00000000
00000000
00000000
00000010
00000000
00000000
00000000
,
00001000
00000000
00000000
00000100
00000000
00000000
00010000
00000000
00001000
00000000
00000000
00000000
00000000
00000000
00000000
00000000
,
00010000
00000000
00000000
00001000
00000000
00000000
01000000
00000000
00010000
00000000
00000000
00000000
00100000
00000000
00000000
00000000
,
00010000
00000000
01000000
00000000
00000000
00100000
00000000
00000000
01000000
00000000
00100000
00000000
10000000
00000000
00000000
00000000
,
00010000
10000000
00010000
00000000
00100000
00000000
01000000
00000000
,
00010000
00001000
00010000
00000000
00000010
00000000
00001000
00000000
,
00000100
00000010
00000100
00000010
00000100
00000010
00000100
00000010
,
00000100
00001000
00000001
00000000
,
00002002
00000000
00003003
00000000
00001000
00000001
00001001
00000000
,
00000002
00000203
00000320
00002030
,
00023000
02030000
03200000
20300000
,
30010000
10000000
00010000
10000000
00000000
00000000
02000000
00000000
00000000
03200000
00000000
00000000
,
00320000
00032000
00003200
00000310
,
00000001
00000000
00000100
00000000
00001000
00000000
00000100
00000000
00000000
00000001
00000000
00000000
,
00000020
00002030
00023000
02030000
,
13000000
00010000
10000000
00010000
00000000
00000000
20000000
00000000
00000000
30200000
00000000
00000000
,
00310000
00001000
00011000
00000000
,
00001000
00000000
00001000
00000000
00001000
00000000
00000000
00000000
00010000
00000000
00000000
00000010
00000000
00000000
00010000
00000000
,
00000100
00000000
00001000
00000000
00000010
00000000
00000200
00000000
00000000
00000300
00000000
00000000
,
00000001
00000000
00000001
00000000
00000001
00000000
00000000
00000000
00001000
00000000
00000000
00000010
00000000
00000000
00001000
00000000
,
00000100
00000000
00010000
00000000
00001000
00000000
00020000
00000000
00000000
00030000
00000000
00000000
,
00001000
00010000
00100000
10000000
,
00100000
00010000
00001000
00000010
,
00000001
00000000
00000001
00000100
00000000
00000000
00001000
00000000
00001000
00010000
00000000
00000000
,
00022000
00000000
00000000
00033000
,
00002000
00000000
00003000
00000000
,
00020000
00000000
00030000
00000000
,
00001000
01000000
00001000
01000000
00000000
00010000
00100000
01000000
,
00000000
10000000
00010000
00000000
00000000
00000000
00000000
00000000
,
10000000
01000000
10000000
01000000
00000000
00010000
00001000
00010000
,
00000000
00000010
00010000
00001000
00010000
00000000
00000000
00000000
,
00001000
00010000
00000100
00001000
00000000
00000010
00001000
00000100
,
00000000
00000010
00000001
00000000
00000000
00000000
00000000
00000000
,
00000001
00000100
00000001
00000000
00000100
00001000
00000100
00001000
,
00000000
00010000
00001000
00000000
,
00000000
00000000
00000000
00000000
,
00001000
00000000
00010000
00000000
00001000
01000000
00001000
00000000
00200000
00000000
00000000
00000000
00300000
00000000
00000000
00000000
,
00010000
00000000
10000000
00000000
01000000
00100000
01000000
00000000
20000000
00000000
00000000
00000000
30000000
00000000
00000000
00000000
,
10000000
01000000
00100000
00000000
00100000
00001000
00010000
00000000
,
00010000
00001000
00010000
00000100
00001000
00001000
00001000
00000000
,
00000110
00000000
00000110
00000000
,
00000001
00001000
00000001
00001000
00000000
00000000
00000000
00000000
,
00000001
00000000
00000010
00000000
00000100
00001000
00000100
00000000
,
00000010
00000000
00000001
00000000
00000100
00001000
00010000
00000000
,
00001000
00000000
00010000
00000000
00001000
01000000
00001000
00000000
,
00100000
00010000
00100000
00000000
00010000
00000000
01000000
00000000
,
00100000
10000000
00100000
00000000
10000000
00000000
00010000
00000000
,
00100000
00010000
00100000
00000000
01000000
00000000
10000000
00000000
,
01000000
00010000
00001000
00000010
,
00000001
00000000
00000000
00001000
00000000
00000000
00000001
00000000
00002000
00000000
00000000
00000000
00003000
00000000
00000000
00000000
,
00000001
00001000
00000001
00000000
00000010
00000010
00000000
00000100
,
00000000
00010000
00001000
00000000
00020000
00000000
00030000
00000000
,
00001000
00010000
00001000
00000000
01000000
00000000
00010000
00000000
,
00100000
01000000
00100000
01000000
10000000
01000000
10000000
00000000
,
00010000
00000000
00000000
00010000
00000000
00000000
00010000
00000000
01000000
00000000
00000000
00000000
01100000
00000000
00000000
00000000
,
00100000
10000000
00000000
01000000
00010000
00000000
00011000
00000000
,
00001000
00000000
00010000
00001000
00000010
00000000
00001000
00000010
,
00000001
00000000
00001000
00000000
00000001
00000100
00001000
00010000
,
00001000
00000000
00000000
00000000
,
00000000
00000000
00000000
00000000
;
#NOTES:
     dance-double:
     :
     Hard:
     16:
     :
00000000
00000000
00000000
00000000
,
00000000
00000000
00000000
00000000
,
00000000
00000000
00000000
00000000
,
10000000
00000000
01000000
00100000
00000000
00100000
00000000
00001000
,
00000000
00011000
00000000
00000000
,
00010000
00000000
00001000
00000010
00000000
00000010
00000000
00000001
,
00000000
00000100
00001000
00000100
00000001
00000001
00000000
00000000
,
00000001
00000010
00000001
00000000
00001000
00000100
00001000
00000000
,
00000010
00010000
00000010
00000000
00010000
00001000
00010000
00000000
,
00001000
00100000
00001000
00100000
00010000
01000000
00010000
01000000
,
00000000
00020000
20030000
30000000
,
00000000
10000000
00000000
01000000
00000000
10000000
00000000
01000000
00000000
00100000
00000000
00001000
00010000
00000000
00011000
00000000
,
00001000
00010000
00001000
00010000
00000010
00001000
00000100
00000010
,
00000001
00000100
00000001
00000100
00001000
00000100
00000000
00000000
,
00000001
00000010
00000001
00000010
00000100
00001000
00000100
00010000
,
00001000
00100000
00001000
00010000
00001000
00000000
00011000
00000000
,
00010000
00001000
00010000
00001000
00100000
00010000
01000000
00100000
,
10000000
01000000
10000000
01000000
00010000
01000000
00000000
00000000
,
10000000
00100000
10000000
00100000
01000000
00010000
01000000
00001000
,
00010000
00000010
00010000
00001000
00010000
00000000
00011000
00000000
,
00010000
00000100
00010000
00000100
00001000
00000010
00001000
00000010
,
00000100
00000001
00000010
00000000
00000100
00001000
00000010
00000000
,
00001000
00000010
00001000
00000010
00010000
00001000
00010000
00001000
,
00100000
00010000
01000000
00010000
00100000
01000000
01100000
00000000
,
10000000
01000000
00010000
01000000
10000000
01000000
00010000
01000000
,
10000000
01000000
00010000
01000000
00010000
00001000
00010000
00000000
,
00001000
00000010
00000001
00000010
00001000
00000010
00000001
00000010
,
00000000
00000002
00002003
00003000
,
00000001
00000000
00000000
00000010
00000000
00000000
00000001
00000000
00000100
00000000
00000010
00000000
00000100
00000000
00000000
00000000
,
00000010
00000000
00000000
00001000
00000000
00000000
00000010
00000000
00010000
00000000
00001000
00000000
00010000
00000000
00000000
00000000
,
00001000
00000000
00000000
00100000
00000000
00000000
00001000
00000000
01000000
00000000
00010000
00000000
01000000
00000000
00000000
00000000
,
00010000
00000000
00100000
00000000
00000000
01000000
00000000
00000000
10000000
00000000
00010000
00000000
10000000
00000000
00000000
00000000
,
00010000
00100000
01000000
10000000
01000000
00100000
00010000
00000000
,
10000000
00000000
00100000
00000000
00010000
00000000
00100000
00000000
00010000
00000000
00001000
00000000
00010000
00000000
00001000
00010000
,
00001000
00001000
00010000
00010000
00000010
00000010
00001000
00001000
,
00000001
00001000
00000001
00001000
00000002
00000000
00000000
00000000
00002003
00000000
00000000
00000000
00003000
00000000
00000000
00000000
,
00001001
00000000
00001001
00000000
00001001
00001001
00001001
00000000
,
00000001
00000101
00000100
00001100
,
00001000
00000000
00000000
00011000
00000000
00000000
00010000
00000000
00000000
00001000
00010000
00000000
,
00001000
00000000
00000000
00101000
00000000
00000000
00100000
00000000
00000000
00010000
00100000
00000000
,
00010000
01010000
02000000
03100000
,
10000000
00000000
10000000
00000000
10000000
00010000
10000000
00000000
00000000
01100000
00000000
00000000
,
10000000
00000000
00000000
10010000
00000000
00000000
00010000
00000000
00000000
00100000
00010000
00000000
,
00110000
00000000
00000000
00101000
00000000
00000000
00011000
00000000
00000000
00010000
00001000
00000000
,
00020000
00001000
00002000
00033000
,
00001000
00010000
00001000
00010000
00001000
00000000
00000000
00000000
00010000
00000000
00000000
00001000
00000000
00000000
00000010
00000100
,
00000010
00000000
00000001
00000000
00001000
00000000
00002002
00000000
00000000
00003003
00000000
00000000
,
00000001
00001000
00000001
00001000
00000001
00000000
00000000
00000000
00001000
00000000
00000000
00001000
00000000
00000000
00000100
00010000
,
00000100
00010000
00001000
00010000
00001000
00010000
00002000
00000000
00000000
00013000
00000000
00000000
,
00001000
00000000
00000000
00100000
00010000
00100000
00010000
00000000
01000000
00000000
00000000
00100000
10000000
00100000
10000000
00000000
,
00010000
00000000
00000000
01000000
00001000
01000000
00001000
00000000
00010000
00000000
00000000
00000000
00011000
00000000
00000000
00000000
,
00001000
00010000
00001000
00010000
00000010
00010000
00000010
00001000
00000010
00000100
00000001
00000100
,
00000002
00000000
00000000
00000003
,
00002000
00000000
00003000
00000000
,
00000002
00000000
00000003
00000000
,
00000001
00000100
00000001
00000100
00001000
00000100
00001000
00010000
,
00000000
00000000
00011000
00000000
00001000
00010000
00001000
00000000
,
00010000
00100000
00010000
00100000
10000000
00100000
10000000
01000000
,
00000000
00010000
01000000
10000000
01000000
00000000
01100000
00000000
,
10000000
01000000
10000000
01000000
00010000
01000000
00010000
00001000
,
00000000
00000000
00011000
00000000
00010000
00001000
00010000
00000000
,
00001000
00000010
00001000
00000010
00000001
00000010
00000001
00000100
,
00000000
00000002
00002003
00003000
,
00000000
00000000
00000000
00000000
,
00002002
00000000
00000000
00000000
00000000
00000000
00000000
00000000
00000000
00000000
00000000
00000000
00003003
00000000
00000000
00000000
00001000
00000000
00000010
00000100
00000000
00001000
00000100
00000000
00001000
00010000
00001000
00000000
00010000
00000000
00000000
00000000
,
00022000
00000000
00000000
00000000
00000000
00000000
00000000
00000000
00000000
00000000
00000000
00000000
00033000
00000000
00000000
00000000
00001000
00000000
00010000
01000000
00000000
00100000
01000000
00000000
00100000
00010000
00100000
00000000
00010000
00000000
00000000
00000000
,
20000000
01000000
01000000
31000000
00200000
00010000
00010000
00310000
,
00001000
00000000
00000100
00000000
00000010
00000000
00000001
00000000
00001000
00000000
00000100
00000000
00000010
00000000
00000001
00000000
00000100
00000010
00000100
00000010
00000200
00000000
00000000
00000000
00000320
00000000
00000000
00000000
00000030
00000000
00000000
00000000
,
00000110
00000000
00000000
00000000
,
00000001
00000100
00000001
00000100
00001000
00010000
00001000
00010000
00000000
00000000
00000000
00000000
00000000
00000000
00000000
00000000
,
00001000
00000000
01000000
00010000
00000000
01000000
00010000
00000000
00100000
00010000
00100000
00010000
00100000
00000000
01000000
00000000
,
10000000
00000000
00100000
01000000
00000000
00100000
01000000
00000000
00010000
01000000
00010000
01000000
00010000
00000000
00000000
00000000
,
00100000
00000000
00010000
01000000
00000000
00001000
01000000
00000000
00001000
00010000
00001000
00010000
00001000
00000000
00010000
00000000
,
00000100
00000000
00001000
00000010
00000000
00000100
00000010
00000000
00001000
00000000
00000100
00000000
00000010
00000001
00000010
00000000
,
00000001
00000000
00001000
00000100
00000000
00001000
00000100
00000000
00010000
00000100
00010000
00000100
00010000
00000000
00000010
00000000
,
00000100
00000000
00001000
00010000
00000000
00001000
00010000
00000000
00100000
01000000
00100000
01000000
00100000
00000000
00000000
00000000
,
10000000
00000000
00010000
01000000
00000000
00100000
01000000
00000000
00010000
10000000
00010000
00000000
10000000
00000000
01000000
00000000
,
00010000
00000000
00001000
00010000
00000000
00001000
00010000
00000000
00002000
00000000
00000000
00000000
00003000
00000000
00000000
00000000
,
00010000
00001000
00000010
00000000
00001000
00010000
00000000
00100000
,
00000000
00010000
00001000
00010000
00002000
00000000
00003000
00000000
,
00010000
00000000
00000100
00001000
00000000
00000100
00001000
00000000
00000010
00000100
00000010
00000000
00000100
00000000
00000001
00000000
,
00000010
00000000
00001000
00000010
00000000
00001000
00010000
00000000
00001000
00010000
00001000
00000000
00010000
00001000
00010000
00001000
,
00010000
00000000
00000000
00001000
00000000
00000000
00100000
00010000
00100000
00000000
00010000
00000000
01000000
00000000
00100000
00000000
,
10000000
00100000
10000000
00100000
00000000
01000000
00010000
01000000
00010000
00000000
10000000
00000000
00010000
00000000
00000000
00000000
,
10010000
00000000
00000000
00000000
10000000
00000000
01000000
00100000
00010000
00000000
00000000
00000000
10000000
00000000
00100000
01000000
,
00010000
00000000
00100000
01000000
00000000
00100000
00001000
00000000
00010000
00001000
00010000
00001000
00010000
00000000
00000000
00000000
,
00011000
00000000
00000000
00000000
,
00000000
00000000
00000000
00000000
;
