
//----- song ID: imkk -----//
#TITLE:イマココ!この瞬間;
#ARTIST:日向美ビタースイーツ♪;
#TITLETRANSLIT:Ima koko! Kono shunkan;
#ARTISTTRANSLIT:Hinatabi Bitter Sweets♪;
#BANNER:Ima koko! Kono shunkan.png;
#BACKGROUND:Ima koko! Kono shunkan-bg.png;
#CDTITLE:./CDTitles/GITADORA GALAXY WAVE.png;
#MUSIC:Ima koko! Kono shunkan.ogg;
#SAMPLESTART:52.739;
#SAMPLELENGTH:15;
#BPMS:0=152;
#BGSTAGE:16;
#NOTES:
     dance-single:
     :
     Beginner:
     2:
     :
0000
0000
0000
0000
,
0000
0000
0000
0000
,
0000
0000
0000
0000
,
0000
0000
0000
0000
,
0000
0000
0000
0000
,
0000
0000
0000
0000
,
0001
0000
0000
0000
,
0001
0000
0000
0000
,
0010
0000
0000
0000
,
0000
0000
0000
0000
,
0010
0000
0000
0000
,
0010
0000
0000
0000
,
1000
0000
0000
0000
,
0000
0000
0000
0000
,
1000
0000
0000
0000
,
1000
0000
0000
0000
,
0010
0000
0000
0000
,
0000
0000
0000
0000
,
0010
0000
0000
0000
,
0010
0000
0000
0000
,
0001
0000
0000
0000
,
0000
0000
0000
0000
,
1001
0000
0000
0000
,
0000
0000
0000
0000
,
1001
0000
0000
0000
,
0000
0000
0000
0000
,
0010
0000
0000
0000
,
0010
0000
0000
0000
,
0100
0000
0000
0000
,
0000
0000
0000
0000
,
0100
0000
0000
0100
,
0000
0000
0010
0000
,
0000
0010
0000
0000
,
0000
0000
1000
0000
,
0000
0000
0010
0000
,
0000
0000
0001
0000
,
0000
0000
0000
0000
,
0000
0000
0001
0000
,
0000
0000
0010
0000
,
0000
0000
1000
0000
,
0000
0000
0000
0000
,
0000
0000
1000
0000
,
1000
0000
1000
0000
,
0000
0000
0010
0000
,
0000
0000
0000
0000
,
0000
0000
0001
0000
,
0001
0000
0001
0000
,
0000
0000
0010
0000
,
0000
0000
0000
0000
,
0000
0000
1001
0000
,
0000
0000
0000
0000
,
0000
0000
1001
0000
,
0000
0000
0000
0000
,
0000
0000
0001
0000
,
0000
0000
0010
0000
,
0000
0000
1000
0000
,
0000
0000
0000
0000
,
0000
0000
1001
0000
,
0000
0000
1000
0000
,
1000
0000
0010
0000
,
0000
0000
0010
0000
,
0000
0000
0001
0000
,
0000
0000
0001
0000
,
0001
0000
0010
0000
,
0000
0000
0010
0000
,
0000
0000
1000
0000
,
0000
0000
1001
0000
,
0000
0000
0001
0000
,
0000
0000
1001
0000
,
0000
0000
1000
0000
,
0000
0000
0010
0000
,
0000
0000
0001
0000
,
0000
0000
0000
0000
,
0000
0000
0020
0000
,
0000
0000
0030
0000
,
0000
0000
0010
0000
,
0010
0000
0010
0000
,
0000
0000
0000
0000
;
#NOTES:
     dance-single:
     :
     Easy:
     5:
     :
0000
0000
0000
0000
,
0000
0000
0000
0000
,
0000
0000
0000
0000
,
0000
0000
0000
0000
,
0000
0000
0000
0000
,
0000
0000
0000
0000
,
0001
0000
0001
0000
,
0010
0000
0010
0000
,
0100
0000
0100
0000
,
2000
0000
0000
3000
,
1000
0000
1000
0000
,
0010
0000
0010
0000
,
0100
0000
0100
0000
,
0002
0000
0000
0003
,
0001
0100
0001
0000
,
0100
0010
0100
0000
,
0010
1000
0010
0000
,
2000
0000
0000
3000
,
1000
0100
1000
0000
,
0100
0010
0100
0000
,
0010
0001
0010
0000
,
0002
0000
0000
0003
,
0001
0000
0000
0001
0000
0000
0001
0000
,
0000
0010
0100
0000
,
1000
0000
0000
1000
0000
0000
1000
0000
,
0000
0010
0100
0000
,
0001
0000
1001
0000
,
1000
0100
0010
0000
,
0100
0000
0110
0000
,
1000
0001
1000
0000
,
1000
1000
0100
0100
,
0000
0010
0010
0000
,
0001
0001
0000
0001
,
1000
1001
0001
0100
,
0010
1000
0001
0100
,
0010
0000
1000
0100
,
0010
0001
1000
0100
,
0010
0000
0001
0010
,
0001
0010
0001
0100
,
0001
0000
1000
0010
,
1000
0010
1000
0100
,
1000
0000
0001
0001
,
0001
0000
1001
0000
,
1001
0000
1000
1000
,
1000
0000
1001
0000
,
1001
0000
0010
0100
,
0110
0000
0100
0010
,
0110
0000
1000
0100
,
0010
0001
2000
0000
,
0000
3000
1000
0000
,
0010
0000
0001
0000
,
0000
0000
0001
0000
,
0010
0000
1000
0000
,
0000
0000
1000
0000
,
0100
0000
0001
0000
,
0000
0000
0001
0000
,
0100
0000
1000
0000
,
0000
0000
0002
0000
,
0000
0003
0001
0100
,
0010
0000
0020
0000
,
0000
0030
1000
0001
,
1000
0000
2000
0000
,
0000
3000
1000
0100
,
0010
0000
0010
0000
,
0001
0000
2002
0000
,
0000
3003
0001
0001
,
0010
0000
0001
0001
,
0100
0000
0001
0001
,
0010
0000
0110
0000
,
1001
0000
1000
1000
,
0010
0000
1000
1000
,
0100
0000
1000
1000
,
0010
0000
0110
0000
,
1001
0000
2000
0000
,
0000
3000
0002
0000
,
0000
0003
0200
0000
,
0000
0300
0020
0000
,
0000
0000
0030
0000
,
0000
0000
0000
0000
;
#NOTES:
     dance-single:
     :
     Medium:
     9:
     :
0000
0000
0000
0000
,
0000
0000
0000
0000
,
0000
0000
0000
0000
,
0000
0000
0000
0000
,
0000
0000
0000
0000
,
0000
0000
0000
0000
,
0000
0001
0100
0000
0010
0000
0010
0000
,
0000
1000
0100
0000
0010
0000
0010
0000
,
0000
0001
0010
0000
0100
0000
1000
0001
,
2000
3000
0002
0003
,
0001
0100
0001
0000
0010
0000
0000
0000
,
0100
0000
0110
0000
1000
0000
0001
0100
,
1000
0100
0001
1000
,
0010
0000
0000
0110
0000
0000
0000
0000
,
0001
0010
0001
0000
1000
0000
0000
0000
,
0010
1000
0010
0000
0100
0000
0000
0000
,
0001
1000
0100
0000
0010
0000
0000
0000
,
0002
0023
0230
2300
,
3001
0100
0001
0100
0010
0000
0000
0000
,
1000
0100
1000
0100
0010
0000
0000
0000
,
0011
0000
0000
0000
1100
0000
1000
0001
,
0000
0001
1000
0000
0010
0000
0000
0000
,
1010
0000
0000
1100
0000
0000
1001
0000
,
0000
1000
1000
0000
0001
0000
0010
0000
,
0011
0000
0000
0101
0000
0000
1001
0000
,
0000
0001
0001
0000
2000
0000
3000
0000
,
0001
0000
0000
1000
0000
0000
0001
0000
0000
0000
0000
0000
0110
0000
0000
0000
,
1000
0000
0000
0001
0000
0000
1000
0000
0000
0000
0000
0000
0110
0000
0000
0000
,
0100
0000
0000
0010
0000
0000
0100
0000
0000
0000
0000
0000
1001
0000
0000
0000
,
0001
0000
0000
1000
0000
0000
0002
0000
0000
0000
0000
0000
0003
0000
0000
0000
,
0001
0000
0100
0010
0000
0010
2000
0000
,
0000
0000
3000
0000
1000
0000
0100
0010
,
0000
0010
0002
0000
0000
0000
0003
0000
,
1001
0110
1000
0010
,
0001
0010
1000
0000
0001
0000
0010
0000
,
1000
0010
0001
0000
2000
0000
0000
0000
,
3000
0000
0002
0000
,
0003
1001
0001
0100
,
1000
0100
0001
0000
1000
0000
0100
0000
,
0001
0100
1000
0000
0020
0000
0000
0000
,
0030
0000
0200
0000
,
0300
1001
1000
0100
,
0020
0000
0030
0010
0000
0001
1000
0001
,
2000
0000
3000
0000
0001
0000
0100
0010
,
0000
1000
0010
2000
0000
0000
0000
0000
,
0000
0000
3000
0000
1000
1000
0000
0220
,
0000
0000
0330
0000
0001
0010
0100
1000
,
0002
0000
0003
0000
0001
0000
0001
0100
,
0000
0100
0010
0000
2000
0000
3000
0000
,
0002
0003
1000
0100
,
0001
0100
1000
0010
,
1000
0000
0001
0010
0001
0000
0100
0000
,
1000
0100
0002
0003
,
2000
3000
0001
0010
,
0110
0000
0000
0100
1000
0000
0010
0000
,
0010
0000
0000
0000
1000
0100
0010
0000
,
0001
0000
1000
0001
2000
0000
3000
0000
,
0002
0000
0003
0000
0001
0000
0010
0100
,
0000
1000
0000
0010
0000
0100
0000
0220
,
0000
0000
0330
0000
1000
0000
0010
0100
,
0000
0001
0000
0010
0000
0100
0000
0220
,
0000
0000
0330
0000
1000
0000
0001
0100
,
0000
0010
0000
1000
0000
0001
0000
2002
,
0000
3003
0000
1001
,
0001
0010
0000
0200
0000
0000
0000
0000
,
0000
0300
1000
0000
,
1000
0000
0001
0010
0001
0000
0000
0000
,
0001
0000
1000
0010
1000
0000
0000
0000
,
1000
0000
0001
0100
0001
0000
0000
0000
,
0001
0000
0001
1000
0001
0000
0100
0000
,
0202
0303
1000
0010
,
2020
0000
3030
0000
1000
0000
0100
0010
,
0000
0010
0100
0000
0110
0000
0000
0000
,
1001
0000
0001
0001
,
0010
0000
0100
0100
,
1000
0000
1000
1000
,
0010
0000
0100
0000
,
0002
0000
0003
0000
,
0000
0000
0000
0000
;
#NOTES:
     dance-single:
     :
     Hard:
     12:
     :
0000
0000
0000
0000
,
0000
0000
0000
0000
,
0000
0000
0000
0000
,
0000
0000
0000
0000
,
0000
0000
0000
0000
,
0000
0000
0000
0000
,
0000
0001
1000
0000
0001
0010
0100
1000
,
0000
1000
0001
0000
1000
0010
0100
0001
,
0000
0001
0010
0000
0001
0100
0010
2000
,
0100
0000
0010
0000
3100
1000
0000
0010
,
1010
0000
1000
0100
1000
0001
0100
0001
,
0010
0000
0011
0000
1001
0000
0001
0100
,
1000
0200
0001
0000
1000
0000
0301
0000
,
0101
0000
0000
1001
0000
1000
0001
0000
,
1000
0100
0010
0100
1000
0100
0010
0001
,
0000
0001
0010
0100
0010
1000
0010
0100
,
0000
0100
1000
0010
1000
0100
0010
0002
,
1000
0000
0100
0000
1003
0001
0000
0001
,
0100
0010
0100
0010
1000
0010
0001
0010
,
0100
0000
0110
0000
0010
0100
1000
0100
,
0002
0000
0010
0000
2003
0000
3100
1000
,
0000
0000
1000
0000
0001
0000
1000
0000
0001
0000
0100
0000
0010
0100
0001
0000
,
0101
0000
0000
1010
0000
0000
1001
0000
,
0000
1000
0010
0000
1000
0000
0001
0000
0010
0000
0100
0000
1000
0000
0001
0000
,
0011
0000
0000
1100
0000
0000
1001
0000
,
0000
0001
0010
0000
0001
0000
1000
0000
0010
0000
0100
0000
0001
0000
0000
0000
,
1000
0000
0000
1000
0000
0000
1100
0000
0000
0000
1000
0000
0010
0000
0100
0000
,
0001
0000
0000
0001
0000
0000
0101
0000
0000
0000
0001
0000
0100
0000
0010
0000
,
1000
0000
0000
1000
0000
0000
1010
0000
0000
0000
1000
0000
0100
0000
0010
0000
,
0001
0000
0000
0001
0000
0000
0022
0000
0000
0000
0000
0000
0033
0000
0001
1000
,
0001
0000
1000
0100
0000
0001
0200
0000
,
0000
1300
0000
1000
0010
0000
0100
0010
,
0100
0010
1000
0000
0100
0010
0001
1000
,
1001
0000
0110
0000
1000
0100
0010
0020
,
0000
1030
0010
0002
0000
0103
0010
1010
,
0000
0010
1000
0010
0100
0001
0020
0000
,
1000
0000
0031
0010
0110
0100
1000
1001
,
0000
0000
0001
1000
0001
0000
0000
0000
0001
0000
0010
0000
0100
0000
0200
0000
,
0000
0301
0100
2000
0000
3010
0100
0101
,
0000
0100
0001
0100
0010
1000
0100
0001
,
0000
0000
0001
0000
0100
0000
2000
0000
0000
0000
0000
0000
3010
0000
0000
1000
,
0001
0000
0100
0000
0010
0000
1000
0010
1000
0000
0000
0000
1100
0000
0000
0000
,
1001
0000
0001
0100
0010
0001
0010
0100
,
0001
0000
1001
0000
1000
0100
0010
0001
,
0000
0001
1000
0001
0000
0100
0010
0200
,
0000
0000
0310
1000
0100
1000
0100
0010
,
0000
0010
0001
1000
0001
0100
0001
0100
,
0010
0000
0110
0000
1000
0010
0010
0100
,
0010
0010
1000
0100
0010
0001
0000
0001
,
1000
0001
0001
0000
0101
0000
0000
0000
,
1100
0000
1010
0000
,
1000
0001
0010
0000
0011
0000
0000
0000
,
1010
0000
0000
0000
1100
0000
0000
0001
,
0100
0001
0100
0000
0001
0010
0100
0000
,
0110
0000
0000
0000
0000
0000
1000
0001
1000
0000
0010
0000
0100
0000
0001
0000
,
0020
0000
0030
0000
0010
0001
0001
1000
,
1000
0000
0001
1000
0002
0000
0003
0000
,
0220
0000
0330
0000
1000
0100
0010
0010
,
0000
0010
0001
1000
0000
0010
0100
0020
,
0000
0000
0130
0000
0001
0100
0010
0010
,
0000
0010
1000
0001
0000
0010
0100
0020
,
0000
0000
0130
0000
1000
0001
0100
0100
,
0000
0001
1000
0100
0000
1000
0001
0200
,
0000
0000
0310
0000
0010
1000
0100
0000
,
0010
0000
0001
0000
0100
0000
0001
0000
0000
0000
0001
0000
0010
0000
0100
1000
,
0100
1000
0001
0000
1000
0000
1000
0000
,
1010
0000
1010
0010
0100
0000
0100
0000
,
0101
0000
0101
0001
0010
0000
0010
0000
,
0011
0000
0011
0010
0100
0000
0100
0000
,
1100
0000
1100
1000
0001
0100
0010
1000
,
0010
0100
0001
0000
1000
0100
0010
0001
,
0010
0100
1000
0000
0001
0010
1000
0010
,
0000
0001
1000
0001
0200
0000
0300
0000
,
0020
0030
2000
0000
,
0000
0000
3000
0000
1000
0000
0000
0100
,
0000
0010
0002
0000
,
0000
0000
0000
0000
0003
0000
0000
0000
0001
0000
0000
0000
0000
0000
1000
0001
,
2000
0000
3000
0000
,
0000
0000
0000
0000
;
#NOTES:
     dance-double:
     :
     Easy:
     5:
     :
00000000
00000000
00000000
00000000
,
00000000
00000000
00000000
00000000
,
00000000
00000000
00000000
00000000
,
00000000
00000000
00000000
00000000
,
00000000
00000000
00000000
00000000
,
00000000
00000000
00000000
00000000
,
00001000
00000000
00001000
00000000
,
00010000
00000000
00010000
00000000
,
00001000
00000000
00100000
00000000
,
00020000
00000000
00000000
00030000
,
00010000
00000000
00010000
00000000
,
01000000
00000000
01000000
00000000
,
00100000
00000000
01000000
00000000
,
01100000
00000000
00000000
00000000
,
00100000
01000000
00100000
00000000
,
01000000
00010000
01000000
00000000
,
00010000
01000000
00001000
00010000
,
00002000
00000000
00000000
00003000
,
00010000
00001000
00010000
00000000
,
00000100
00010000
00000100
00000000
,
00001000
00000100
00001000
00000010
,
00002000
00000000
00000000
00003000
,
00000010
00000000
00000000
00001000
00000000
00000000
00000010
00000000
,
00000000
00000010
00001000
00000100
,
00010000
00000000
00000000
00010000
00000000
00000000
00010000
00000000
,
00000000
00010000
00001000
00100000
,
00010000
00000000
01000000
00000000
,
00100000
01000000
00100000
00000000
,
01000000
00010000
01000000
00001000
,
00020000
00000000
00000000
00030000
,
00010000
00010000
00000100
00000100
,
00000000
00001000
00001000
00000000
,
00000010
00000010
00000000
00000100
,
00000010
00000110
00000100
00000010
,
00000100
00000010
00001000
00000010
,
00001000
00000000
00000010
00010000
,
00000010
00010000
00001000
00010000
,
00001000
00000000
00001000
00100000
,
00001000
00100000
00010000
00100000
,
00010000
00000000
00100000
01000000
,
00100000
01000000
00100000
00010000
,
00100000
00000000
00001000
00010000
,
00000100
00000000
00000110
00000000
,
00000110
00000000
00000100
00001000
,
00000010
00000000
00000110
00000000
,
00000110
00000000
00000100
00001000
,
00010000
00000000
00011000
00000000
,
00011000
00000000
00001000
00010000
,
00100000
01000000
00200000
00000000
,
00000000
00300000
01000000
00000000
,
00010000
00000000
00100000
00000000
,
00000000
00000000
00100000
00000000
,
00001000
00000000
00010000
00000000
,
00000000
00000000
00010000
00000000
,
00000100
00000000
00001000
00000000
,
00000000
00000000
00001000
00000000
,
00000010
00000000
00000100
00000000
,
00000000
00000000
00000110
00000000
,
00000000
00000000
00000010
00010000
,
00001000
00000000
00011000
00000000
,
00000000
00000000
00010000
00001000
,
00100000
00000000
01100000
00000000
,
00000000
00000000
01000000
00100000
,
00010000
00000000
00100000
00000000
,
00001000
00000000
00022000
00000000
,
00000000
00033000
00010000
00000010
,
00001000
00000000
00000100
00010000
,
00001000
00000000
00001000
00100000
,
00010000
00000000
01000000
00001000
,
00010000
00000000
00001000
00100000
,
01000000
00000000
01000000
00100000
,
00001000
00000000
00010000
00000010
,
00000100
00000000
00000100
00000010
,
00010000
00000000
00001000
01000000
,
00100000
00010000
00002000
00000000
,
00000000
00003000
00010000
00000100
,
00000010
00001000
00020000
00000000
,
00000000
00000000
00030000
00000000
,
00000000
00000000
00000000
00000000
;
#NOTES:
     dance-double:
     :
     Medium:
     9:
     :
00000000
00000000
00000000
00000000
,
00000000
00000000
00000000
00000000
,
00000000
00000000
00000000
00000000
,
00000000
00000000
00000000
00000000
,
00000000
00000000
00000000
00000000
,
00000000
00000000
00000000
00000000
,
00000000
00001000
00010000
00000000
00001000
00000000
00001000
00000000
,
00000000
00100000
00001000
00000000
00100000
00000000
00100000
00000000
,
00000000
00010000
00100000
00000000
01000000
00000000
10000000
00010000
,
20000000
00000000
00000000
30000000
,
10000000
01000000
00100000
00000000
01000000
00000000
00000000
00000000
,
00100000
00001000
00010000
00000100
,
00001000
00000100
00000010
00000000
00000001
00000000
00000000
00000000
,
00001001
00000000
00000000
00000110
00000000
00000000
00000000
00000000
,
00000001
00000100
00000001
00000000
00000010
00000000
00000000
00000000
,
00000010
00000100
00001000
00000000
00000100
00000000
00000000
00000000
,
00000100
00010000
00001000
00000000
00010000
00000000
00000000
00000000
,
00022000
00000000
00000000
00033000
,
00001000
00100000
00001000
00100000
00010000
00000000
00000000
00000000
,
00100000
00010000
00100000
00010000
01000000
00000000
00000000
00000000
,
01100000
00000000
00000000
00000000
10010000
00000000
10000000
00010000
,
00000000
00010000
10000000
00000000
01000000
00000000
00010000
00000000
,
00001000
00000000
00010000
00000100
00000000
00001000
00000100
00000000
,
00000000
00000010
00000010
00000000
00000001
00000000
00001000
00000000
,
00000010
00000000
00001000
00000010
00000000
00010000
00001000
00000000
,
00000000
00010000
00010000
00000000
00002000
00000000
00003000
00000000
,
00001000
00000000
00000000
01000000
00000000
00000000
00001000
00000000
00000000
00000000
01000000
00000000
00010000
00000000
00000000
00000000
,
00100000
00000000
00000000
01000000
00000000
00000000
00100000
00000000
00000000
00000000
00010000
00000000
10000000
00000000
00000000
00000000
,
00010000
00000000
00000000
01000000
00000000
00000000
00010000
00000000
00000000
00000000
00100000
00000000
00010000
00000000
00000000
00000000
,
00100000
00000000
00000000
00001000
00000000
00000000
00020000
00000000
00000000
00000000
00000000
00000000
00030000
00000000
00000000
00000000
,
00001000
00000000
00010000
00000100
00000000
00000100
00002000
00000000
,
00000000
00000000
00003000
00000000
00001000
00000000
00000001
00000100
,
00000000
00000100
00000020
00000000
00000000
00000000
00000030
00000000
,
00000110
00001001
00000001
00000100
,
00001000
00010000
00001000
00000000
00010000
00000000
00100000
00000000
,
20000000
00000000
30000000
00000000
10000000
00100000
01000000
00000000
,
00010000
00100000
01000000
00000000
02200000
00000000
00000000
00000000
,
00000000
03300000
10000000
01000000
,
00010000
00001000
00010000
00000000
00001000
00000000
00000010
00000000
,
00000002
00000000
00000003
00000000
00000001
00000010
00000100
00000000
,
00001000
00000010
00000100
00000000
00000220
00000000
00000000
00000000
,
00000000
00000330
00000001
00000001
,
00000200
00000000
00000300
00000100
00000000
00001000
00010000
00000000
,
00011000
00000000
00000000
00000000
00001000
00000000
00010000
00100000
,
00000000
00100000
10000000
00200000
00000000
00000000
00000000
00000000
,
00000000
00300000
10000000
02200000
,
00000000
00000000
03300000
00000000
10000000
00010000
00100000
00000000
,
00002000
00000000
00003000
00000000
00001000
00000000
00001000
00010000
,
00000000
00010000
00000010
00000000
00002000
00000000
00003000
00000000
,
00000002
00000003
00000001
00000001
,
00000010
00000010
00001000
00001000
,
00010000
01000000
10000000
10000000
,
00100000
00100000
00010000
00010000
,
00001000
00000000
00000100
00000000
00000001
00001000
00000001
00000000
,
00000100
00000010
00010000
00001000
,
00011000
00000000
00000000
00000000
00010000
00001000
00010000
00000000
,
00001000
00100000
00001000
00000000
00100000
00000000
00000000
00000000
,
01100000
00000000
00000000
00000000
10000000
00000000
00100000
01000000
,
00000000
01000000
00000000
00010000
00000000
00010000
00000000
00100000
,
00000000
00001000
00010000
00000000
00001000
00000000
00010000
00000100
,
00000000
00000100
00000000
00001000
00000000
00001000
00000000
00000001
,
00000000
00000010
00000001
00000000
00000100
00000000
00000010
00001000
,
00000000
00001000
00000000
00000100
00000000
00000100
00000000
00010000
,
00000000
00001000
00010000
00000000
00000000
00000000
00001000
00000000
,
00010000
00100000
00000000
20000000
00000000
00000000
00000000
00000000
,
00000000
30000000
10000000
00100000
,
10100000
00000000
10000000
01000000
,
00100000
00001000
00010000
00001000
,
00011000
00000000
00001000
00010000
,
00000010
00001000
00000100
00000010
,
00000011
00000000
00000001
00000100
,
00000110
00000000
00000000
00000000
00000010
00000000
00001000
00000010
,
00000000
00000010
00010000
00000000
00001000
00000000
00000000
00000000
,
00011000
00000000
00001000
00010000
,
00100000
00000000
20000000
00000000
,
30000000
00000000
10000000
01000000
,
00010000
00000000
00002000
00000000
,
00023000
00000000
00030000
00000000
,
00000000
00000000
00000000
00000000
;
#NOTES:
     dance-double:
     :
     Hard:
     12:
     :
00000000
00000000
00000000
00000000
,
00000000
00000000
00000000
00000000
,
00000000
00000000
00000000
00000000
,
00000000
00000000
00000000
00000000
,
00000000
00000000
00000000
00000000
,
00000000
00000000
00000000
00000000
,
00000000
00010000
00001000
00000000
00010000
00000010
00010000
00000010
,
00000000
00000010
00001000
00000000
00000001
00000010
00000100
00001000
,
00000000
00001000
00000001
00000000
00001000
00000100
00010000
00001000
,
00020000
00000000
00032000
00000000
00013000
00001000
00000000
00001000
,
00010000
00000000
00011000
00000000
00001000
00010000
00001000
01000000
,
00010000
00000000
00110000
00000000
00100000
00010000
01000000
00000000
,
00200000
00010000
01000000
10300000
,
10100000
00000000
00000000
10010000
00000000
00010000
10000000
00000000
,
10000000
01000000
10000000
01000000
10000000
00100000
01000000
00010000
,
00100000
00010000
00100000
00001000
00010000
00001000
00010000
00000100
,
00001000
00000010
00001000
00000100
00000010
00000001
00000100
00000010
,
00000200
00001000
00000010
00000301
,
00000001
00000100
00000010
00000000
00001000
00000100
00000010
00000000
,
00000001
00000100
00000001
00000100
00001000
00000000
00011000
00000000
,
00002000
00000000
00023000
00000000
00230000
00000000
10300000
00010000
,
00000000
00000000
00010000
00000000
01000000
00000000
00010000
00000000
01000000
00000000
00001000
00000000
00010000
00001000
00010000
00000000
,
00001000
00000000
00010000
00000100
00000000
00000100
00000010
00000000
,
00000000
00000010
00000001
00000000
00001000
00000000
00000000
00000000
00000001
00000000
00000100
00000000
00001000
00000000
00000100
00000000
,
00000001
00000000
00001000
00000010
00000000
00000010
00010000
00000000
,
00000000
00010000
00001000
00000000
00100000
00000000
00010000
00000000
00100000
00000000
10000000
00000000
00100000
00000000
00000000
00000000
,
00010000
00000000
00000000
00010000
00000000
00000000
00010000
00000000
00000000
00000000
10000000
00000000
01000000
00000000
00100000
00000000
,
00010000
00000000
00000000
01000000
00000000
00000000
00010000
00000000
00000000
00000000
00010000
00000000
00100000
00000000
00001000
00000000
,
00010000
00000000
00000000
00010000
00000000
00000000
00010000
00000000
00000000
00000000
00010000
00000000
00000100
00000000
00001000
00000000
,
00000010
00000000
00000000
00000100
00000000
00000000
00000220
00000000
00000000
00000000
00000000
00000000
00000330
00000000
00000100
00000001
,
00000100
00000010
00001000
00000100
00000000
00000001
00000200
00000000
,
00000000
00010300
00000000
00010000
00001000
00000000
00010000
00001000
,
01000000
00010000
01000000
00000000
00100000
10000000
00100000
10000000
,
10010000
00000000
01100000
00000000
10000000
01000000
00100000
00010000
,
01000000
00100000
00010000
00001000
00100000
00010000
00001000
00000100
,
00010000
00001000
00000100
00000010
00000001
00000010
00002000
00000000
,
00003000
00000000
00001000
00000100
00000001
00000100
00001000
00000001
,
00000000
00000001
00001000
00000000
00000001
00000100
00000010
00001000
,
00000100
00000010
00001000
00010000
00000010
00001000
00010000
01000000
,
00001000
00010000
01000000
00100000
10000000
00100000
00010000
01000000
,
00000000
01000000
00100000
02000000
00000000
00000000
03000000
00000000
,
01100000
00000000
10010000
00000000
10000000
01000000
00100000
00000000
,
00100000
00001000
00010000
00000000
00010000
00000100
00001000
00000100
,
00000010
00000000
00000011
00000000
00000001
00000100
00000010
00000000
,
00000010
00010000
00001000
00000000
00001000
01000000
00010000
01000000
,
00100000
00000000
10100000
00000000
10010000
00000000
10000000
00100000
,
00000000
00100000
00010000
00000000
00001000
00010000
00001000
00000010
,
00000001
00000000
00001001
00000000
00000001
00000000
00000100
00001000
,
00000000
00010000
00001000
00010000
00002000
00000000
00000000
00000000
,
00000000
00003000
00001000
00010000
,
00100000
10000000
01000000
00010000
,
00001000
00011000
00010000
00001000
,
00000010
00000000
00000001
00000000
00000100
00000000
00000000
00000100
,
00002000
00000000
00003000
00000000
00001000
00010000
00100000
00000000
,
01100000
00000000
00000000
00000000
00000000
00000000
00100000
10000000
00100000
00000000
01000000
00000000
00010000
00000000
01000000
00000000
,
00002000
00000000
00003000
00000000
00010000
00000010
00001000
00000010
,
00000100
00000000
00000001
00001000
00000002
00000000
00000003
00000000
,
00000220
00000000
00000330
00000000
00000001
00000100
00000010
00000010
,
00000000
00000010
00010000
00001000
00000000
00001000
01000000
00100000
,
00000000
00000000
10100000
00000000
10000000
01000000
00100000
00100000
,
00000000
00100000
00001000
00010000
00000000
00010000
00000100
00000010
,
00000000
00000000
00000011
00000000
00000001
00000010
00000100
00000100
,
00000000
00000100
00010000
00001000
00000000
00001000
01000000
00010000
,
00000000
00000000
00110000
00000000
00010000
10000000
01000000
00000000
,
00010000
00001000
00000000
00011000
00000000
00001000
00010000
00000010
,
00001000
00000001
00000100
00000000
00000001
00000000
00000001
00000000
,
00000011
00000000
00000011
00000010
00000100
00000000
00000100
00000000
,
00001100
00000000
00001100
00000100
00010000
00000000
00010000
00000000
,
00011000
00000000
00011000
00001000
00100000
00000000
00100000
00000000
,
00110000
00000000
00110000
00010000
10000000
01000000
00100000
00000000
,
00010000
01000000
00100000
00000000
10000000
00100000
00010000
00000000
,
00001000
00010000
00001000
00000000
00010000
00000010
00001000
00000100
,
00010000
00000010
00001000
00000100
00020000
00000000
00030000
00000000
,
00002000
00003000
00010000
00010000
,
00001000
00001000
00000010
00000001
,
00000010
00000010
00001000
00001000
,
00010000
00000000
00000000
00000000
00010000
00000000
00000000
00000000
02000000
00000000
00000000
00000000
03000000
00000000
10000000
01000000
,
20000000
00000000
30000000
00000000
,
00000000
00000000
00000000
00000000
;
