
//----- song ID: igni -----//
#TITLE:Ignis†Iræ;
#ARTIST:BEMANI Sound Team "神";
#TITLETRANSLIT:Ignis Irae;
#ARTISTTRANSLIT:BEMANI Sound Team "GOD";
#BANNER:Ignis Irae.png;
#BACKGROUND:Ignis Irae-bg.png;
#CDTITLE:./CDTitles/bm IIDX 28 BISTROVER.png;
#MUSIC:Ignis Irae.ogg;
#SAMPLESTART:76.662;
#SAMPLELENGTH:15;
#BPMS:0=191,256=188,260=191;
#NOTES:
     dance-single:
     :
     Beginner:
     4:
     :
0000
0000
0000
0000
,
0000
0000
0000
0000
,
0000
0000
0000
0000
,
0000
0000
0000
0000
,
0000
0000
0000
0000
,
0001
0000
0000
0000
,
0001
0000
0000
0000
,
0010
0000
0000
0000
,
0000
0000
0000
0000
,
0010
0000
0000
0000
,
0010
0000
0000
0000
,
1000
0000
0000
0000
,
1000
0000
0000
0000
,
1000
0000
0000
0000
,
0010
0000
0000
0000
,
1000
0000
0000
0000
,
0000
0000
0000
0000
,
0010
0000
0000
0000
,
0010
0000
0000
0000
,
1001
0000
0000
0000
,
0000
0000
0000
0000
,
1001
0000
0000
0000
,
0000
0000
0000
0000
,
0110
0000
0000
0000
,
0000
0000
0000
0000
,
1001
0000
0000
0000
,
0000
0000
0000
0000
,
0110
0000
0000
0000
,
0000
0000
0000
0000
,
0001
0000
0001
0000
,
0010
0000
0000
0000
,
0010
0000
0010
0000
,
1000
0000
0000
0000
,
1000
0000
1000
0000
,
0010
0000
0000
0000
,
0010
0000
0010
0000
,
0001
0000
0000
0000
,
0002
0000
0000
0000
,
0003
0000
0000
0000
,
0001
0000
0000
0000
,
0010
0000
0000
0000
,
2000
0000
0000
0000
,
3000
0000
0000
0000
,
1000
0000
0000
0000
,
0010
0000
0000
0000
,
0001
0000
0010
0000
,
0001
0000
0000
0000
,
0010
0000
0001
0000
,
0010
0000
0000
0000
,
1000
0000
0010
0000
,
1000
0000
0000
0000
,
0010
0000
1000
0000
,
0010
0000
0000
0000
,
1000
0000
1000
0000
,
0100
0000
0000
0000
,
0010
0000
0010
0000
,
0010
0000
0000
0000
,
0001
0000
0001
0000
,
0100
0000
0000
0000
,
0010
0000
0010
0000
,
0010
0000
0000
0000
,
1001
0000
0000
0000
,
0000
0000
0000
0000
,
1001
0000
0000
0000
,
0000
0000
0000
0000
,
0001
0000
0001
0000
,
0010
0000
0000
0000
,
0010
0000
0010
0000
,
1000
0000
0000
0000
,
1001
0000
0000
0000
,
0000
0000
0000
0000
,
1000
0000
0100
0000
,
0010
0000
0000
0000
,
1001
0000
0000
0000
,
0000
0000
0000
0000
,
0001
0000
0100
0000
,
0010
0000
0000
0000
,
0020
0000
0000
0000
,
0030
0000
0000
0000
,
1001
0000
0000
0000
,
0000
0000
0000
0000
,
0020
0000
0000
0000
,
0030
0000
0000
0000
,
1001
0000
0000
0000
,
0000
0000
0000
0000
,
0001
0000
0010
0000
,
1000
0000
0000
0000
,
1000
0000
0010
0000
,
0001
0000
0000
0000
,
1001
0000
0000
0000
,
0110
0000
0000
0000
,
0001
0000
0001
0000
,
0001
0000
0000
0000
,
0010
0000
0010
0000
,
0010
0000
0000
0000
,
0100
0000
0100
0000
,
0100
0000
0000
0000
,
1000
1000
0000
0000
,
0000
0000
1001
0000
,
0000
0000
0000
0000
;
#NOTES:
     dance-single:
     :
     Easy:
     7:
     :
0000
0000
0000
0000
,
0000
0000
0000
0000
,
0000
0000
0000
0000
,
0000
0000
0000
0000
,
0000
0000
0000
0000
,
0001
0000
0001
0000
,
0010
0000
0010
0000
,
0100
0000
0100
0000
,
1000
0000
1000
0000
,
1001
0000
0000
0000
,
0000
0000
0000
0000
,
0001
0100
0001
0100
,
0010
1000
0010
0000
,
1000
0100
1000
0100
,
0010
0001
0010
0000
,
0001
1000
0001
1000
,
0010
0100
0010
0000
,
1000
0001
1000
0001
,
0010
0100
0010
0000
,
1001
0000
0000
0000
,
0000
0000
0000
0000
,
0011
0000
1010
0000
,
0011
0000
0000
0000
,
1100
0000
0101
0000
,
1100
0000
0000
0000
,
1010
0000
1100
0000
,
1010
0000
0000
0000
,
0011
0000
0101
0000
,
0011
0000
0000
0000
,
0001
0000
0100
0000
,
1000
0000
0100
0000
,
0001
0000
1000
0000
,
0001
0000
0000
0000
,
1000
0000
0100
0000
,
0001
0000
0100
0000
,
1000
0000
0001
0000
,
1000
0000
0000
0000
,
0001
0100
0010
1000
,
0020
0000
0000
0030
,
1000
0100
0010
0001
,
0020
0000
0000
0030
,
0001
0010
0100
1000
,
0200
0000
0000
0300
,
1000
0000
0001
0000
,
1001
0000
0000
0000
,
1000
0100
1000
0001
,
1000
0100
1000
0000
,
0001
0100
0001
1000
,
0001
0100
0001
0000
,
1000
0010
1000
0001
,
1000
0010
1000
0000
,
0001
0010
0001
1000
,
0001
0010
0001
0000
,
1000
1000
1000
0000
,
0010
0010
0010
0000
,
0100
0100
0100
0000
,
0001
0001
0001
0000
,
1000
0010
0001
0000
,
0001
0010
1000
0000
,
0001
0010
1000
0000
,
1000
0010
0001
0000
,
1000
0100
1000
0010
,
0100
0001
0010
0100
,
1000
0001
0100
0010
,
1000
0001
1000
0000
,
1001
0000
0110
0000
,
1001
0000
0110
0000
,
0001
0100
0010
1000
,
0001
0000
0000
0000
,
1000
0100
0010
0000
,
0001
0100
0010
0000
,
1000
0010
0100
0000
,
0001
1000
0010
0100
,
0001
0100
1000
0000
,
1000
0100
0001
0000
,
1000
0100
0001
0000
,
0001
0100
1000
0000
,
1001
0000
0000
0000
,
0110
0000
0000
0000
,
0011
0000
0000
0000
,
1100
0000
0000
0000
,
1000
0001
0010
0001
,
1000
0100
1000
0000
,
0001
0100
0001
1000
,
0010
1000
0001
0000
,
1000
0000
1000
0100
,
0010
0000
0010
0001
,
1000
0000
0001
0100
,
0010
0000
0010
1000
,
0001
0000
0110
0000
,
2002
0000
0000
3003
,
0001
0010
0001
1000
,
0001
0100
0001
0010
,
0001
1000
0001
0100
,
0001
0010
0001
0000
,
1000
0010
1000
0001
,
1000
0100
1000
0010
,
1000
0001
0000
0000
,
0000
0100
0110
0000
,
0000
0000
0000
0000
;
#NOTES:
     dance-single:
     :
     Medium:
     13:
     :
0000
0000
0000
0000
,
0000
0000
0000
0000
,
0000
0000
0000
0000
,
0000
0000
0000
0000
,
0000
0000
0000
0000
,
0001
1000
0000
1000
0000
1000
0000
1000
,
0000
0001
0000
0001
0000
0001
0000
0001
,
0100
0010
0000
0010
0000
0010
0000
0010
,
0000
0100
0000
0100
0000
0100
0000
0100
,
0002
0000
0000
0000
,
0000
0000
0000
0003
,
1000
0000
1000
0100
0000
0100
0010
0000
0000
1001
0000
0000
,
0001
0000
0001
0100
0000
0100
0010
0000
0000
1001
0000
0000
,
1000
0000
1000
0010
0000
0010
0100
0000
0000
1001
0000
0000
,
0001
0000
0001
0010
0000
0010
0100
0000
0000
1001
0000
0000
,
1000
0000
1000
0001
0000
0001
0100
0000
0000
1001
0000
0000
,
0001
0000
0001
1000
0000
1000
0010
0000
0000
1001
0000
0000
,
0001
0000
0001
0010
0000
0010
0100
0000
0100
1000
0000
1000
,
0010
0000
0010
0100
0000
0100
0001
0000
0001
1000
0000
1000
,
0002
0000
0000
0000
,
0000
0000
0000
0003
,
0001
1000
0000
0001
0000
1000
0000
0001
,
0100
0010
0000
0100
0000
0010
0000
0100
,
0001
0100
0000
0001
0000
0100
0000
0001
,
1000
0010
0000
1000
0000
0010
0000
1000
,
0001
0010
0001
0010
0000
0001
0010
0001
,
1000
0100
1000
0100
0000
1000
0100
1000
,
0001
0100
0001
0100
0000
0001
0100
0001
,
1000
0010
1000
0010
0000
1000
0010
1000
,
0002
0000
0203
0000
,
0320
0000
0000
0030
,
2000
0000
3200
0000
,
0320
0000
0000
0030
,
0002
0000
0023
0000
,
0230
0000
0000
0300
,
2000
0000
3020
0000
,
0230
0000
0000
0300
,
0001
0100
0001
0100
0000
0000
0001
1000
0001
1000
0000
0000
,
0010
1000
0010
1000
0000
0000
0001
0000
1000
0001
0000
0000
,
1000
0100
1000
0100
0000
0000
1000
0001
1000
0001
0000
0000
,
0010
0001
0010
0001
0000
0000
1000
0000
0001
1000
0000
0000
,
0001
0010
0100
1000
0000
0000
0001
0010
0100
1000
0000
0000
,
0001
0100
0010
1000
0000
0000
0001
0100
0010
1000
0000
0000
,
0002
0000
0000
0003
,
2000
0000
0000
3000
,
0001
0010
0000
0001
0000
0000
0010
0000
0001
0100
0000
0001
0000
0000
0100
0000
,
0001
1000
0000
0001
0000
0000
1000
0000
0001
0010
0000
0001
0000
0000
0010
0000
,
0001
0100
0000
0010
0000
0000
1000
0000
0001
0100
0000
0010
0000
0000
1000
0000
,
0001
0010
0000
0100
0000
0000
1000
0000
0001
0000
0010
0100
0010
0000
0100
0000
,
1000
0010
0000
1000
0000
0000
0010
0000
1000
0100
0000
1000
0000
0000
0100
0000
,
1000
0001
0000
1000
0000
0000
0001
0000
1000
0010
0000
1000
0000
0000
0010
0000
,
1000
0100
0000
0010
0000
0000
0001
0000
1000
0100
0000
0010
0000
0000
0001
0000
,
1000
0010
0000
0100
0000
0000
0001
0000
1000
0000
0010
0100
0010
0000
0100
0000
,
0001
0000
0001
0000
0000
0100
0000
0000
1000
0000
1000
0000
0000
0100
0000
0000
,
0001
0000
0001
0000
0000
0010
0000
0000
1000
0000
1000
0000
0000
0010
0000
0000
,
0001
0000
0001
0000
0000
1000
0000
0000
0100
0000
0100
0000
0000
0010
0000
0000
,
0001
0000
0001
0000
0000
1000
0000
0000
0010
0000
0100
0000
0001
0000
0000
0000
,
1000
0000
1000
0000
0000
0100
0000
0000
0001
0000
0001
0000
0000
0100
0000
0000
,
1000
0000
1000
0000
0000
0010
0000
0000
0001
0000
0001
0000
0000
0010
0000
0000
,
1000
0000
1000
0000
0000
0001
0000
0000
0100
0000
0100
0000
0000
0010
0000
0000
,
1000
0000
1000
0000
0000
0001
0000
0000
0010
0000
0100
0000
1000
0000
0000
0000
,
0001
0100
0001
1000
0010
1000
0100
0000
,
1000
0100
1000
0001
0010
0001
0100
0000
,
0101
0011
1100
1010
,
0010
1000
0100
0010
0001
0100
0010
0000
,
0100
0010
0100
0000
2002
0000
3003
0000
,
0010
0100
0010
0000
2002
0000
3003
0000
,
0001
0100
1000
0000
1000
0100
0001
0000
,
1000
0000
0000
0000
0001
0010
0100
1000
,
0002
0000
0003
1000
0020
0000
0030
0000
,
2000
0000
3000
0001
0200
0000
0300
0000
,
0002
0000
0003
0010
0200
0000
0300
0000
,
1000
0100
1000
0100
0001
0100
1000
0000
,
2000
0000
3000
0001
0020
0000
0030
0000
,
0002
0000
0003
1000
0200
0000
0300
0000
,
2000
0000
3000
0010
0200
0000
0300
0000
,
0001
0100
0001
0100
1000
0100
0001
0000
,
2000
0000
0000
3000
,
0200
0000
0000
0300
,
0020
0000
0000
0030
,
0002
0000
0000
0003
,
1000
0000
0010
0100
0010
0000
1000
0000
0100
0010
0100
0000
,
1000
0000
0001
0010
0001
0000
1000
0000
0001
0000
0100
0000
,
0001
0000
0010
0100
0010
0000
0001
0000
0100
0010
0100
0000
,
0001
0000
1000
0010
1000
0000
0001
0000
1000
0000
0100
0000
,
0010
0000
0000
0000
0001
1000
0010
0100
,
0001
0000
0000
0000
1000
0001
0010
0100
,
1000
0000
0000
0000
0001
0010
1000
0010
,
0001
0000
0000
0000
1000
0010
0001
0010
,
1000
0000
1010
0000
,
0202
0000
0000
0303
,
0001
0000
1000
0000
0000
0100
0000
0000
1000
0000
0001
0000
0000
0100
0000
0000
,
0001
0000
1000
0000
0000
0010
0000
0000
1000
0000
0001
0000
0000
0010
0000
0000
,
0002
0000
0100
0000
0000
0103
0000
0000
0020
0000
1000
0000
0000
1030
0000
0000
,
2000
0000
0100
0000
0000
3100
0000
0000
0020
0000
0001
0000
0000
0031
0000
0000
,
1000
0000
0100
0000
0000
0001
0000
0000
0001
0000
0100
0000
0000
1000
0000
0000
,
0001
0000
0100
0000
0000
1000
0000
0000
1000
0000
0100
0000
0000
0001
0000
0000
,
1000
0010
0100
0001
0000
0000
0000
0000
,
0000
0000
0100
0010
0110
0000
0000
0000
,
0000
0000
0000
0000
;
#NOTES:
     dance-single:
     :
     Hard:
     17:
     :
0000
0000
0000
0000
,
0000
0000
0000
0000
,
0000
0000
0000
0000
,
0000
0000
0000
0000
,
0000
0000
0000
0000
,
1000
0100
0000
0100
0000
0100
0000
0100
,
0010
0000
0000
0001
0000
0000
0000
0000
0000
0001
0000
0000
0000
0000
0000
0001
0000
0000
1000
0000
0001
0000
1000
0000
,
0001
0010
0000
0010
0000
0010
0000
0010
,
0100
1000
0000
1000
0000
1000
0000
1000
,
0100
0000
1000
0100
0000
1000
0001
0010
0100
1000
0010
0100
,
0001
0000
0010
0001
0000
0100
0001
0100
0010
1000
0100
0010
,
0001
0000
0010
1000
0000
0010
0001
1000
0100
0010
0001
0100
,
0010
0000
1000
0010
0000
0001
0010
1000
0100
0010
0001
1000
,
0020
2030
3002
0023
,
0230
2300
3002
0203
,
0302
0023
0230
2300
,
3002
0203
0302
0023
,
0230
0000
0000
0000
0000
0000
0000
0000
0000
0310
0100
1000
,
0010
0100
0001
0010
0100
1000
0100
0010
0001
0100
0010
1000
,
0002
0000
0000
0000
,
0000
0000
0000
0003
,
0001
0011
0000
0011
0000
0011
0001
0100
,
0010
1010
0000
1010
0000
1010
1000
0100
,
0010
0110
0000
0110
0000
0110
0010
0001
,
0100
0110
0000
0110
0000
0110
0010
1000
,
0001
0100
0001
0000
0100
0000
0101
0000
0000
0000
0101
0000
0001
0000
0101
0000
,
0100
0010
1000
0000
0010
0000
1010
0000
0000
0000
1010
0000
1000
0000
1010
0000
,
0010
1000
0001
0000
0010
0000
0011
0000
0000
0000
0011
0000
0001
0000
0011
0000
,
0010
0100
1000
0000
0100
0000
1100
0000
1000
0100
0010
0001
1000
0100
0010
0001
,
2000
0000
3002
0000
,
0203
0000
0000
0000
0320
0000
1030
0001
,
0200
0000
0302
0000
,
2000
0000
3003
1001
,
2000
0000
3020
0000
,
0032
0000
0000
0000
0000
0000
0013
1000
,
0002
0000
0000
0000
0000
0000
0103
0010
,
2000
0000
0000
3000
,
0001
1000
0100
0001
0100
1000
0001
1000
0100
0001
0100
1000
,
0001
1000
0010
0001
0010
1000
0001
1000
0010
0001
0010
1000
,
0001
0010
0100
0001
0100
0010
0001
0010
0100
0001
0100
0010
,
0001
0100
0010
0001
0010
0100
0001
0100
0010
0001
0010
0100
,
0010
1000
0100
0010
1000
0010
0100
1000
0010
0100
1000
0100
,
0010
1000
0100
0010
1000
0010
0100
1000
0010
0100
1000
0100
,
0020
0000
0000
0000
0000
0000
1030
0100
,
0020
0000
0000
0000
0000
0000
0000
0000
0031
1000
0001
1000
0001
1000
0001
0000
,
1000
0100
0000
0010
0000
0100
1000
0000
0001
0100
0000
0010
0000
0100
0001
0000
,
1000
0100
0000
0010
0000
0100
1000
0000
0001
0100
0000
0010
0000
0100
0001
0000
,
1000
0010
0000
0100
0000
0010
1000
0000
0001
0010
0000
0100
0000
0010
0001
0000
,
1000
0010
0000
0100
0000
0010
1000
0000
0001
0010
0100
0010
0100
0010
0001
0000
,
1000
0100
0010
0001
0000
0100
0010
0000
1000
0100
0010
0001
0000
0100
0010
0000
,
1000
0100
0010
0001
0000
0100
0010
0000
1000
0100
0010
0001
0000
0100
0010
0000
,
1000
0010
0100
0001
0000
0010
0100
0000
1000
0010
0100
0001
0000
0010
0100
0000
,
1000
0010
0100
0001
0000
0010
0100
0000
1000
0010
0100
0001
0010
0100
1000
0000
,
0001
0100
0001
0100
0000
0010
1000
0000
0001
0010
0001
0010
0000
0100
1000
0000
,
0010
0100
0010
0100
0000
0001
1000
0000
0100
0010
0100
0010
0000
0001
1000
0000
,
0001
0100
0000
1000
0000
0100
0001
0000
1000
0100
0000
0001
0000
0100
1000
0000
,
0001
0010
0000
1000
0000
0010
0001
0000
1000
0100
0010
0000
0001
0010
0100
0000
,
1000
0010
1000
0010
0000
0100
0001
0000
1000
0100
1000
0100
0000
0010
0001
0000
,
0100
0010
0100
0010
0000
1000
0001
0000
0010
0100
0010
0100
0000
1000
0001
0000
,
1000
0010
0000
0001
0000
0010
1000
0000
0001
0010
0000
1000
0000
0010
0001
0000
,
1000
0100
0000
0001
0000
0100
1000
0000
0001
0010
0100
1000
0100
0010
0001
0000
,
1000
0100
0010
0000
0001
1000
0001
0000
0100
0010
1000
0000
0001
0100
0001
0000
,
1000
0010
0100
0000
0010
0100
0001
0000
1000
0100
0010
0000
0100
0010
0001
0000
,
1000
0010
1010
1000
0001
0010
0011
0001
,
0100
0000
0000
0000
0110
0000
0000
0000
1000
0100
1000
0000
0001
0010
0001
0000
,
1000
0010
0100
0001
2002
0000
3003
0000
,
0001
0010
0100
1000
2002
0000
3003
0000
,
1000
0100
0010
0001
0100
0010
1000
0100
,
1001
0000
0000
0000
0000
0000
0000
0000
1000
0001
1000
0001
1000
0001
1000
0000
,
0002
0000
0000
0000
0003
0000
0010
0100
2000
0000
0000
0000
3000
0000
0000
0000
,
2000
0000
0000
0000
3000
0000
0010
0100
0002
0000
0000
0000
0003
0000
0000
0000
,
2000
0000
0000
0000
3000
0000
0100
0010
0002
0000
0000
0000
0003
0000
0000
0000
,
1000
0100
1000
0100
0010
0001
0010
0000
0001
0100
0001
0100
0010
1000
0010
0000
,
2000
0000
0000
0000
3000
0000
0100
0010
0002
0000
0000
0000
0003
0000
0000
0000
,
0002
0000
0000
0000
0003
0000
0100
0010
2000
0000
0000
0000
3000
0000
0000
0000
,
0002
0000
0000
0000
0003
0000
0010
0100
2000
0000
0000
0000
3000
0000
0000
0000
,
0001
0010
0001
0000
1000
0100
1000
0000
0010
0100
0010
0000
1000
0001
1000
0001
,
2000
3020
0230
0302
0023
0230
,
2300
3002
0203
0320
2030
3200
,
0320
0032
2003
3020
0230
0302
,
2003
0000
0000
0000
3200
0000
0000
0000
0320
0000
0000
0000
0031
0000
0000
1000
0000
0000
0001
0000
0000
1000
0000
0000
,
0002
1000
0023
0100
0032
0010
0203
0010
0302
1000
0023
0100
,
0032
1000
0203
0010
0302
0100
0023
0100
0032
1000
0203
0010
,
0302
1000
0203
0010
0302
1000
0023
0100
0032
1000
0023
0100
,
0032
1000
0023
0100
0032
0010
0203
0010
0302
1000
0023
0100
,
0031
0000
0000
0000
0000
0000
0000
0000
1000
0100
0010
0001
0100
0010
1000
0100
,
0010
0000
0000
0000
1001
0000
0000
0000
0001
0100
0010
1000
0100
0010
0001
0100
,
0010
0000
0000
0000
1001
0000
0000
0000
1000
0010
0100
0001
0010
0100
1000
0010
,
0100
0000
0000
0000
1001
0000
0000
0000
0001
0010
0100
1000
0010
0100
0001
0010
,
0100
1000
0000
0000
0000
0000
0000
0000
0001
0100
0000
0000
0000
0000
0000
0000
,
2002
0000
0000
3003
,
0001
0100
0001
0100
0000
0010
1000
0000
1000
0100
1000
0100
0000
0010
0001
0000
,
0001
0010
0001
0010
0000
0100
1000
0000
1000
0010
1000
0010
0000
0100
0001
0000
,
1000
0100
1000
0100
0000
0001
0100
0000
1000
0010
1000
0010
0000
0001
0010
0000
,
1000
0001
0100
0001
0000
0100
1000
0000
0100
0001
0100
0001
0010
0100
1000
0000
,
0001
1000
0100
0010
0000
0001
0100
0000
0010
0100
0001
0010
0000
0100
1000
0000
,
0001
0010
0001
0010
0000
1000
0010
0000
0001
1000
0100
1000
0000
0100
0010
0000
,
0001
0010
0100
1000
0010
0100
0001
0000
0000
0000
0000
0000
0000
0000
0000
0000
,
0100
0010
0100
0010
0100
0000
0110
0000
1001
0000
0000
0000
0000
0000
0000
0000
,
0000
0000
0000
0000
;
#NOTES:
     dance-double:
     :
     Easy:
     7:
     :
00000000
00000000
00000000
00000000
,
00000000
00000000
00000000
00000000
,
00000000
00000000
00000000
00000000
,
00000000
00000000
00000000
00000000
,
00000000
00000000
00000000
00000000
,
10000000
00000000
10000000
00000000
,
01000000
00000000
01000000
00000000
,
00100000
00000000
00100000
00000000
,
00001000
00000000
00010000
00000000
,
00011000
00000000
00000000
00000000
,
00000000
00000000
00000000
00000000
,
00001000
00010000
00001000
00000000
,
00010000
00000100
00001000
00000000
,
00000100
00000010
00000100
00000000
,
00000010
00000001
00001000
00000000
,
00000001
00000100
00000010
00000000
,
00001000
00000010
00010000
00000000
,
00001000
00010000
00001000
00100000
,
00010000
00100000
01000000
00000000
,
10010000
00000000
00000000
00000000
,
00000000
00000000
00000000
00000000
,
11000000
00000000
01100000
00000000
,
00110000
00000000
00000000
00000000
,
00101000
00000000
00011000
00000000
,
00010100
00000000
00000000
00000000
,
00001100
00000000
00000110
00000000
,
00000011
00000000
00000000
00000000
,
00001001
00000000
00000110
00000000
,
00001001
00000000
00000000
00000000
,
00000001
00000000
00000100
00000000
,
00001000
00000000
00000000
00000000
,
00001000
00000000
00010000
00000000
,
00100000
00000000
00000000
00000000
,
10000000
00000000
01000000
00000000
,
00010000
00000000
00000000
00000000
,
00010000
00000000
00001000
00000000
,
00000010
00000000
00000000
00000000
,
00000001
00001000
00000001
00000100
,
00000020
00000000
00000000
00000030
,
00001000
00000010
00010000
00001000
,
00020000
00000000
00000000
00030000
,
00001000
00010000
00001000
01000000
,
00020000
00000000
00000000
00030000
,
10000000
00000000
00010000
00000000
,
10010000
00000000
00000000
00000000
,
10000000
01000000
10000000
01000000
,
00100000
00010000
00100000
00000000
,
00001000
00010000
00001000
00010000
,
00000100
00001000
00000100
00000000
,
00000010
00000001
00000010
00000001
,
00000100
00000010
00001000
00000000
,
00000010
00001000
00000010
00010000
,
00001000
00010000
00001000
00000000
,
01000000
01000000
01000000
00000000
,
00010000
00010000
00010000
00000000
,
10000000
10000000
10000000
00000000
,
01000000
01000000
01000000
00000000
,
10000000
01000000
00010000
00000000
,
00001000
00000010
00000001
00000000
,
00000001
00000100
00001000
00000000
,
00010000
00100000
10000000
00000000
,
00010000
00100000
01000000
10000000
,
00010000
01000000
00100000
00000000
,
10000000
01000000
00100000
00010000
,
00100000
00001000
00010000
00000000
,
00001000
00000010
00000001
00000000
,
00001000
00000100
00000010
00000000
,
00000001
00000100
00001000
00000000
,
00010000
00000000
00000000
00000000
,
00001000
00000000
01000000
00000000
,
00010000
00100000
00010000
00000000
,
10000000
00000000
01000000
00000000
,
00010000
00001000
00010000
00000000
,
00001000
00000000
00000010
00000000
,
00000001
00000100
00000010
00000000
,
00000100
00000000
00000001
00000000
,
00000100
00001000
00010000
00000000
,
00011000
00000000
00000000
00000000
,
01001000
00000000
00000000
00000000
,
01010000
00000000
00000000
00000000
,
01100000
00000000
00000000
00000000
,
00100000
10000000
01000000
00100000
,
00010000
00000000
00100000
00000000
,
00001000
00010000
00000100
00001000
,
00000010
00000000
00000100
00000000
,
00000001
00000000
00000001
00000100
,
00001000
00000000
00010000
00100000
,
10000000
00000000
10000000
01000000
,
00010000
00000000
00000000
00000000
,
00001000
00000000
00010000
00000000
,
00022000
00000000
00000000
00033000
,
00010000
00000010
00010000
00001000
,
00010000
00000100
00010000
00000000
,
00001000
00100000
00001000
00010000
,
00001000
01000000
00001000
00000000
,
00010000
00000100
00001000
00000010
,
00000100
00000001
00000010
00000100
,
00010000
00001000
00000000
00000000
,
00000000
00010000
00011000
00000000
,
00000000
00000000
00000000
00000000
;
#NOTES:
     dance-double:
     :
     Medium:
     13:
     :
00000000
00000000
00000000
00000000
,
00000000
00000000
00000000
00000000
,
00000000
00000000
00000000
00000000
,
00000000
00000000
00000000
00000000
,
00000000
00000000
00000000
00000000
,
10000000
01000000
00000000
01000000
00000000
01000000
00000000
01000000
,
00000000
00100000
00000000
00100000
00000000
00100000
00000000
00100000
,
00001000
00010000
00000000
00010000
00000000
00010000
00000000
00010000
,
00000000
00000100
00000000
00000100
00000000
00000100
00000000
00000100
,
00002000
00000000
00000000
00000000
,
00000000
00000000
00000000
00003000
,
00000001
00000000
00000001
00000100
00000000
00000100
00000010
00000000
00000000
00000110
00000000
00000000
,
00000100
00000000
00000100
00000010
00000000
00000010
00010000
00000000
00000000
00011000
00000000
00000000
,
00001000
00000000
00001000
00100000
00000000
00100000
00010000
00000000
00000000
10010000
00000000
00000000
,
10000000
00000000
10000000
01000000
00000000
01000000
00100000
00000000
00000000
01100000
00000000
00000000
,
01000000
00000000
01000000
00010000
00000000
00010000
00001000
00000000
00000000
00011000
00000000
00000000
,
00010000
00000000
00010000
00001000
00000000
00001000
00000010
00000000
00000000
00000110
00000000
00000000
,
00000100
00000000
00000100
00001000
00000000
00001000
00000001
00000000
00000001
00000100
00000000
00000100
,
00000010
00000000
00000010
00010000
00000000
00010000
00001000
00000000
00001000
01000000
00000000
01000000
,
00020000
00000000
00000000
00000000
,
00000000
00000000
00000000
00030000
,
00010000
10000000
00000000
00010000
00000000
10000000
00000000
00010000
,
00100000
01000000
00000000
00100000
00000000
01000000
00000000
00100000
,
01000000
00010000
00000000
00001000
00000000
00010000
00000000
00001000
,
00010000
00001000
00000000
00000010
00000000
00000100
00000000
00000010
,
00000001
00000010
00000001
00000010
00000000
00000100
00000000
00001000
,
00000100
00010000
00000100
00010000
00000000
00001000
00000000
00010000
,
00001000
01000000
00001000
01000000
00000000
00010000
00000000
01000000
,
00100000
01000000
00100000
01000000
00000000
00100000
10000000
00010000
,
20000000
00000000
32000000
00000000
,
03200000
00000000
00000000
00300000
,
00002000
00000000
00023000
00000000
,
00032000
00000000
00000000
00003000
,
00020000
00000000
00032000
00000000
,
00003020
00000000
00000000
00000030
,
00000002
00000000
00002003
00000000
,
00003002
00000000
00000000
00000003
,
00001000
00000010
00001000
00000010
00000000
00000000
00001000
00000100
00001000
00000100
00000000
00000000
,
00010000
00000100
00010000
00000100
00000000
00000000
00010000
00000000
00001000
00010000
00000000
00000000
,
00001000
00100000
00001000
00100000
00000000
00000000
00010000
00100000
00010000
00100000
00000000
00000000
,
00010000
01000000
00010000
01000000
00000000
00000000
00100000
00000000
01000000
00100000
00000000
00000000
,
10000000
01000000
00100000
00010000
00000000
00000000
10000000
01000000
00100000
00010000
00000000
00000000
,
00100000
00001000
00010000
00001000
00000000
00000000
00100000
00001000
00010000
00001000
00000000
00000000
,
00020000
00000000
00000000
00030000
,
00002000
00000000
00000000
00003000
,
00010000
00001000
00000000
00010000
00000000
00000000
00000100
00000000
00001000
00000010
00000000
00001000
00000000
00000000
00000001
00000000
,
00000100
00000010
00000000
00000100
00000000
00000000
00000010
00000000
00010000
00000100
00000000
00010000
00000000
00000000
00001000
00000000
,
01000000
00010000
00000000
01000000
00000000
00000000
00100000
00000000
10000000
00010000
00000000
10000000
00000000
00000000
01000000
00000000
,
00100000
00010000
00000000
00100000
00000000
00000000
01000000
00000000
10000000
00000000
00010000
00000000
00100000
00000000
00001000
00000000
,
00010000
00000100
00000000
00010000
00000000
00000000
00000010
00000000
00010000
00000100
00000000
00010000
00000000
00000000
00000010
00000000
,
00010000
00000010
00000000
00010000
00000000
00000000
00000100
00000000
00010000
00000010
00000000
00010000
00000000
00000000
00000100
00000000
,
00001000
00000100
00000000
00000010
00000000
00000000
00000001
00000000
00001000
00000010
00000000
00000100
00000000
00000000
00000001
00000000
,
00001000
00000100
00000000
00000010
00000000
00000000
00000001
00000000
00000100
00000000
00001000
00000000
00010000
00000000
00000000
00000000
,
00100000
00000000
00100000
00000000
00000000
10000000
00000000
00000000
01000000
00000000
01000000
00000000
00000000
00100000
00000000
00000000
,
01000000
00000000
01000000
00000000
00000000
00010000
00000000
00000000
00001000
00000000
00001000
00000000
00000000
00000010
00000000
00000000
,
00000001
00000000
00000100
00000000
00000000
00001000
00000000
00000000
00000001
00000000
00000010
00000000
00000000
00001000
00000000
00000000
,
00000001
00000000
00000010
00000000
00000000
00000100
00000000
00000000
00001000
00000000
00000100
00000000
00010000
00000000
00000000
00000000
,
00001000
00000000
00001000
00000000
00000000
01000000
00000000
00000000
00010000
00000000
00010000
00000000
00000000
00100000
00000000
00000000
,
00001000
00000000
00001000
00000000
00000000
00010000
00000000
00000000
00000010
00000000
00000010
00000000
00000000
00000100
00000000
00000000
,
00001000
00000000
00001000
00000000
00000000
00010000
00000000
00000000
00100000
00000000
00100000
00000000
00000000
10000000
00000000
00000000
,
00010000
00000000
00100000
00000000
00000000
10000000
00000000
00000000
00010000
00000000
01000000
00000000
10000000
00000000
00000000
00000000
,
01000000
00100000
00010000
00000000
10000000
00100000
01000000
00000000
,
00010000
00100000
00001000
00010000
00000100
00001000
00000100
00000000
,
00000110
00000011
00000101
00000110
,
00000010
00001000
00000100
00010000
00001000
00100000
00010000
00000000
,
01000000
00100000
01000000
00000000
20020000
00000000
30030000
00000000
,
00100000
01000000
00100000
00000000
20020000
00000000
30030000
00000000
,
10000000
01000000
00010000
00000000
00001000
00000010
00000001
00000000
,
00001000
00000000
00000000
00000000
00000001
00000010
00000100
00001000
,
00000002
00000000
00000003
00000100
00002000
00000000
00003000
00000000
,
00020000
00000000
00030000
00100000
20000000
00000000
30000000
00000000
,
00020000
00000000
00030000
10000000
02000000
00000000
03000000
00000000
,
00100000
00001000
00010000
00000000
00000010
00001000
00000100
00000000
,
00000020
00000000
00000030
00000001
00000200
00000000
00000300
00000000
,
00002000
00000000
00003000
00010000
00200000
00000000
00300000
00000000
,
20000000
00000000
30000000
00010000
02000000
00000000
03000000
00000000
,
00010000
01000000
10000000
01000000
00010000
00000000
10000000
00000000
,
02000000
00000000
00000000
03000000
,
00200000
00000000
00000000
00300000
,
00002000
00000000
00000000
00003000
,
00020000
00000000
00000000
00030000
,
00001000
00000000
00000010
00000000
00000001
00000000
00001000
00000000
00000100
00000010
00000001
00000000
,
00000100
00000000
00000010
00000000
00010000
00000000
00001000
00000000
01000000
00010000
01000000
00000000
,
00010000
00000000
00100000
00000000
10000000
00000000
00010000
00000000
01000000
10000000
00010000
00000000
,
01000000
00100000
10000000
00010000
00100000
00001000
,
00010000
00000000
00000000
00000000
00001000
00010000
00000010
00001000
,
00000010
00000000
00000000
00000000
00000100
00000001
00000010
00000100
,
00001000
00000000
00000000
00000000
00000100
00010000
00001000
00010000
,
00001000
00000000
00000000
00000000
00010000
00001000
01000000
00010000
,
10000000
00000000
10100000
00000000
,
20020000
00000000
00000000
30030000
,
10000000
00000000
01000000
00000000
00000000
00100000
00000000
00000000
00010000
00000000
01000000
00000000
00000000
00100000
00000000
00000000
,
10000000
00000000
00010000
00000000
00000000
00100000
00000000
00000000
00001000
00000000
00010000
00000000
00000000
00000100
00000000
00000000
,
00001000
00000000
00000010
00000000
00000000
00000100
00000000
00000000
00000001
00000000
00000010
00000000
00000000
00000100
00000000
00000000
,
00001000
00000000
00000100
00000000
00000000
00010000
00000000
00000000
00001000
00000000
00100000
00000000
00000000
00010000
00000000
00000000
,
20000000
00000000
01000000
00000000
00000000
31000000
00000000
00000000
00200000
00000000
00001000
00000000
00000000
00301000
00000000
00000000
,
00020000
00000000
00000100
00000000
00000000
00030100
00000000
00000000
00002000
00000000
00000001
00000000
00000000
00003001
00000000
00000000
,
00000100
00000010
00000100
00001000
00000000
00000000
00000000
00000000
,
00000000
00000000
00010000
00001000
00011000
00000000
00000000
00000000
,
00000000
00000000
00000000
00000000
;
#NOTES:
     dance-double:
     :
     Hard:
     17:
     :
00000000
00000000
00000000
00000000
,
00000000
00000000
00000000
00000000
,
00000000
00000000
00000000
00000000
,
00000000
00000000
00000000
00000000
,
00000000
00000000
00000000
00000000
,
10000000
01000000
00000000
01000000
00000000
01000000
00000000
01000000
,
00100000
00000000
00000000
00010000
00000000
00000000
00000000
00000000
00000000
00010000
00000000
00000000
00000000
00000000
00000000
00010000
00000000
00000000
00100000
00000000
00001000
00000000
00100000
00000000
,
00001000
00010000
00000000
00010000
00000000
00010000
00000000
00010000
,
00000010
00001000
00000000
00001000
00000000
00001000
00000000
00001000
,
00000001
00000000
00000010
00000001
00000000
00000010
00000100
00000010
00000100
00001000
00000100
00001000
,
00000100
00000000
00010000
00000100
00000000
00010000
00001000
00010000
00001000
01000000
00001000
01000000
,
00010000
00000000
01000000
00100000
00000000
01000000
00100000
10000000
00100000
10000000
00010000
10000000
,
01000000
00000000
00100000
01000000
00000000
00100000
00010000
00100000
00010000
00100000
00001000
00100000
,
00002000
00023000
00030200
00000320
,
00000032
00002003
00003200
00020300
,
00032000
00203000
00320000
02030000
,
03200000
20300000
32000000
03020000
,
00032000
00000000
00000000
00000000
00000000
00000000
00000000
00000000
00000000
00013000
00000100
00001000
,
00000010
00000100
00000010
00010000
00000100
00010000
00001000
00100000
00010000
00100000
01000000
10000000
,
00020000
00000000
00000000
00000000
,
00000000
00000000
00000000
00030000
,
10000000
11000000
00000000
11000000
00000000
11000000
01000000
00100000
,
00010000
01010000
00000000
01010000
00000000
01010000
01000000
00001000
,
00010000
00010010
00000000
00010010
00000000
00010010
00000010
00001000
,
00000100
00000110
00000000
00000110
00000000
00000110
00000010
00000001
,
00000100
00000001
00000100
00000000
00000001
00000000
00000101
00000000
00000000
00000000
00000101
00000000
00000001
00000000
00001000
00000000
,
00000100
00010000
00001000
00000000
00010000
00000000
00011000
00000000
00000000
00000000
00011000
00000000
00001000
00000000
00011000
00000000
,
00010000
00001000
00100000
00000000
00010000
00000000
00110000
00000000
00000000
00000000
00110000
00000000
00100000
00000000
00110000
00000000
,
00010000
10000000
01000000
00000000
10000000
00000000
11000000
00000000
01000000
10000000
01000000
00100000
00010000
00100000
00010000
00000000
,
00200000
00000000
00302000
00000000
,
00023000
00000000
00000000
00000000
00032000
00000000
00003010
00000001
,
00002000
00000000
00003200
00000000
,
00020300
00000000
00030000
00011000
,
00002000
00000000
00023000
00000000
,
02030000
00000000
00000000
00000000
00000000
00000000
13000000
00010000
,
02000000
00000000
00000000
00000000
00000000
00000000
03100000
10000000
,
00020000
00000000
00000000
00030000
,
10000000
00010000
01000000
10000000
01000000
00010000
10000000
00010000
01000000
10000000
01000000
00010000
,
00100000
01000000
00010000
00001000
00010000
01000000
00100000
01000000
00010000
00001000
00010000
01000000
,
00100000
00001000
00010000
00100000
00010000
00001000
00100000
00001000
00010000
00100000
00010000
00001000
,
00010000
00000100
00000010
00001000
00000010
00000100
00010000
00000100
00000010
00001000
00000010
00000100
,
00001000
00000001
00000100
00001000
00000100
00000001
00001000
00000001
00000100
00001000
00000100
00000001
,
00000010
00000100
00010000
00001000
00010000
00000100
00000010
00000100
00010000
00001000
00010000
00000100
,
00000020
00000000
00000000
00000000
00000000
00000000
00000031
00001000
,
00000020
00000000
00000000
00000000
00000000
00000000
00000000
00000000
00001030
00000001
00001000
00000001
00001000
00000001
00001000
00000000
,
00000001
00000100
00000000
00000010
00000000
00000100
00000001
00000000
00001000
00000100
00000000
00000010
00000000
00000100
00001000
00000000
,
00000100
00010000
00000000
00001000
00000000
00010000
00000100
00000000
00001000
00000010
00000000
00010000
00000000
00000010
00001000
00000000
,
00000100
00010000
00000000
00001000
00000000
00010000
01000000
00000000
00010000
00001000
00000000
01000000
00000000
00010000
01000000
00000000
,
00100000
10000000
00000000
00010000
00000000
00100000
01000000
00000000
00100000
00010000
00100000
00000000
01000000
10000000
00010000
00000000
,
10000000
01000000
00000000
00100000
00000000
01000000
10000000
00000000
00010000
01000000
00000000
00100000
00000000
01000000
00010000
00000000
,
01000000
00001000
00000000
00010000
00000000
00001000
01000000
00000000
00010000
00100000
00000000
00001000
00000000
00100000
00010000
00000000
,
01000000
00001000
00000000
00010000
00000000
00001000
00000100
00000000
00001000
00010000
00000000
00000100
00000000
00001000
00000100
00000000
,
00000010
00000001
00000000
00001000
00000000
00000010
00000100
00000000
00000010
00001000
00000010
00000000
00000100
00000001
00001000
00000000
,
00000001
00000100
00000001
00000100
00000000
00000010
00001000
00000000
00000001
00000010
00000001
00000010
00000000
00000100
00001000
00000000
,
00000100
00010000
00000100
00010000
00000000
00001000
00100000
00000000
00001000
01000000
00001000
00010000
00000000
00000010
00010000
00000000
,
00001000
00010000
00000000
00100000
00000000
01000000
00001000
00000000
00010000
00001000
00000000
00000010
00000000
00000100
00010000
00000000
,
00001000
00010000
00000000
01000000
00000000
00100000
00001000
00000000
00010000
00001000
00100000
00000000
00010000
01000000
00100000
00000000
,
10000000
01000000
10000000
01000000
00000000
00100000
00010000
00000000
10000000
00100000
10000000
00100000
00000000
01000000
00010000
00000000
,
01000000
00001000
01000000
00001000
00000000
00010000
00000010
00000000
00010000
00000100
00010000
00001000
00000000
00100000
00001000
00000000
,
00010000
00001000
00000000
00000010
00000000
00000100
00010000
00000000
00001000
00010000
00000000
00100000
00000000
01000000
00001000
00000000
,
00010000
00001000
00000000
00000100
00000000
00000010
00010000
00000000
00001000
00010000
00000010
00000000
00001000
00000100
00000010
00000000
,
00000001
00001000
00000010
00000000
00000100
00000000
00001000
00000000
00010000
00100000
01000000
00000000
00001000
00000000
00010000
00000000
,
01000000
00100000
00010000
00000000
01000000
00100000
10000000
00000000
00010000
00100000
01000000
00000000
10000000
00010000
10000000
00000000
,
01000000
00100000
00110000
00010000
00100000
00001000
00011000
00010000
,
00000100
00000000
00000000
00000000
00000110
00000000
00000000
00000000
00000010
00000001
00000010
00000000
00000100
00001000
00000100
00000000
,
00001000
00000001
00000100
00001000
00020000
00000000
00030000
00000000
,
00010000
00100000
10000000
01000000
00020000
00000000
00030000
00000000
,
00010000
00001000
00000010
00000001
00000100
00000010
00001000
00010000
,
01000000
00000000
00000000
00000000
00000000
00000000
00000000
00000000
00010000
10000000
00010000
10000000
00010000
10000000
00010000
00000000
,
20000000
00000000
00000000
00000000
30000000
00000000
01000000
00100000
00020000
00000000
00000000
00000000
00030000
00000000
00000000
00000000
,
00200000
00000000
00000000
00000000
00300000
00000000
00001000
00010000
00002000
00000000
00000000
00000000
00003000
00000000
00000000
00000000
,
00020000
00000000
00000000
00000000
00030000
00000000
00000010
00000100
00000002
00000000
00000000
00000000
00000003
00000000
00000000
00000000
,
00000100
00000001
00000100
00000001
00001000
00000010
00001000
00000000
00000010
00010000
00001000
00010000
00001000
01000000
00010000
00000000
,
20000000
00000000
00000000
00000000
30000000
00000000
00100000
01000000
00020000
00000000
00000000
00000000
00030000
00000000
00000000
00000000
,
02000000
00000000
00000000
00000000
03000000
00000000
00001000
00010000
00002000
00000000
00000000
00000000
00003000
00000000
00000000
00000000
,
00020000
00000000
00000000
00000000
00030000
00000000
00000100
00000010
00000002
00000000
00000000
00000000
00000003
00000000
00000000
00000000
,
00000100
00000010
00000100
00000000
00001000
00010000
00001000
00000000
01000000
00100000
01000000
00000000
00010000
10000000
00010000
10000000
,
00020000
20030000
32000000
03200000
00320000
02030000
,
03200000
20300000
32000000
03200000
00320000
00032000
,
00003200
00000320
00000032
00000203
00000320
00002030
,
00003200
00000000
00000000
00000000
00000302
00000000
00000000
00000000
00000203
00000000
00000000
00000000
00000310
00000000
00000000
00000001
00000000
00000000
00000100
00000000
00000000
00000010
00000000
00000000
,
00002000
00000001
00003020
00000100
00002030
00000001
00003020
00000100
00010030
00001000
00100000
00010000
,
02000000
00100000
03020000
00100000
02030000
00001000
03020000
00100000
10030000
01000000
00100000
00010000
,
20000000
00010000
30200000
01000000
20300000
00100000
32000000
00100000
13000000
00010000
00100000
01000000
,
00020000
00001000
00030020
00000100
00020030
00001000
00030200
00000010
00001300
00000010
00000100
00000001
,
00001000
00000000
00000000
00000000
00000000
00000000
00000000
00000000
00000001
00000010
00000100
00001000
00000100
00010000
00001000
00010000
,
00001000
00000000
00000000
00000000
00011000
00000000
00000000
00000000
00010000
00001000
01000000
00001000
01000000
00010000
01000000
00100000
,
10000000
00000000
00000000
00000000
10010000
00000000
00000000
00000000
10000000
00100000
01000000
00010000
01000000
00001000
00010000
00001000
,
00010000
00000000
00000000
00000000
00011000
00000000
00000000
00000000
00001000
00010000
00000100
00010000
00000100
00001000
00000100
00000010
,
00000001
00000010
00000000
00000000
00000000
00000000
00000000
00000000
00000100
00001000
00000000
00000000
00000000
00000000
00000000
00000000
,
00002002
00000000
00000000
00003003
,
00000001
00000100
00000001
00000100
00000000
00000010
00001000
00000000
00000100
00001000
00000100
00001000
00000000
00000100
00010000
00000000
,
00001000
00010000
00001000
00010000
00000000
00001000
00100000
00000000
00010000
01000000
00010000
01000000
00000000
00100000
10000000
00000000
,
00010000
10000000
00010000
10000000
00000000
01000000
00010000
00000000
00001000
00000010
00001000
00000010
00000000
00000001
00001000
00000000
,
00000001
00000100
00000001
00000100
00000000
00001000
00010000
00000000
00100000
01000000
00100000
01000000
00000000
00010000
10000000
00000000
,
00010000
00100000
01000000
10000000
00000000
00100000
01000000
00000000
00010000
10000000
01000000
00100000
00000000
00001000
00010000
00000000
,
00000100
00001000
00000100
00000010
00000000
00000001
00001000
00000000
00000001
00000100
00000010
00001000
00000000
00000100
00000010
00000000
,
00000001
00000100
00001000
00000000
00010000
00100000
10000000
00000000
00000000
00000000
00000000
00000000
00000000
00000000
00000000
00000000
,
00100000
01000000
00100000
01000000
00100000
00000000
01100000
00000000
10010000
00000000
00000000
00000000
00000000
00000000
00000000
00000000
,
00000000
00000000
00000000
00000000
;
