
//----- song ID: igak -----//
#TITLE:イガク;
#ARTIST:原口沙輔 feat.重音テト;
#TITLETRANSLIT:Igaku;
#ARTISTTRANSLIT:Sasuke Haraguchi feat. Teto Kasane;
#BANNER:Igaku.png;
#BACKGROUND:Igaku-bg.png;
#CDTITLE:./CDTitles/bm IIDX 32 Pinky Crush.png;
#MUSIC:Igaku.ogg;
#SAMPLESTART:47.626;
#SAMPLELENGTH:15;
#BPMS:0=170;
#NOTES:
     dance-single:
     :
     Beginner:
     2:
     :
0000
0000
0000
0000
,
0000
0000
0000
0000
,
0000
0000
0000
0000
,
0000
0000
0000
0000
,
0000
0000
0000
0000
,
0000
0000
0000
0000
,
0001
0000
0000
0000
,
1000
0000
0000
0000
,
1001
0000
0000
0000
,
0000
0000
0000
0000
,
0001
0000
0000
0000
,
0001
0000
0000
0000
,
1000
0000
0000
0000
,
1000
0000
0000
0000
,
0010
0000
0000
0000
,
0010
0000
0000
0000
,
0110
0000
0000
0000
,
0000
0000
0000
0000
,
0001
0000
0000
0000
,
1000
0000
0000
0000
,
0010
0000
0000
0000
,
0100
0000
0000
0000
,
0001
0000
0000
0000
,
1000
0000
0000
0000
,
1001
0000
0000
0000
,
0000
0000
0000
0000
,
0002
0000
0003
0000
,
2000
0000
3000
0000
,
0002
0000
0003
0000
,
2000
0000
3000
0000
,
0001
0000
0001
0000
,
1000
0000
1000
0000
,
0010
0000
0010
0000
,
0010
0010
0010
0000
,
1000
0000
0000
0000
,
0001
0000
0000
0000
,
0100
0000
0000
0000
,
0001
0000
0000
0000
,
0010
0000
0000
0000
,
0100
0000
0000
0000
,
2000
0000
3000
0002
,
0000
0003
0000
0000
,
1000
0000
0000
0000
,
0010
0000
0000
0000
,
1000
0000
0000
0000
,
0001
0000
0000
0000
,
0100
0000
0000
0000
,
0001
0000
0000
0000
,
2000
0000
3000
0002
,
0000
0003
0000
0000
,
1001
0000
0000
0000
,
1000
0000
0000
0000
,
0010
0000
0000
0000
,
0010
0000
0000
0000
,
0100
0000
0000
0000
,
0100
0000
0000
0000
,
0110
0000
0000
0000
,
0000
0000
0000
0000
,
0001
0000
0000
0000
,
0000
0000
0000
0000
,
1000
0000
0000
0000
,
0000
0000
0000
0000
,
0001
0000
0001
0000
,
1000
0000
1000
0000
,
2002
0000
0000
0000
,
0000
0000
0000
3003
,
0000
0000
0000
0000
,
0001
0000
0000
0000
,
1000
0000
0000
0000
,
0010
0000
0000
0000
,
0100
0000
0000
0000
,
0001
0000
0000
0000
,
1000
0000
0000
0000
,
0002
0000
0003
2000
,
0000
3000
0000
0000
,
0001
0000
0000
0000
,
0010
0000
0000
0000
,
0100
0000
0000
0000
,
1000
0000
0000
0000
,
0010
0000
0000
0000
,
0100
0000
0000
0000
,
0002
0000
0003
2000
,
0000
3000
0010
0000
,
0110
0000
0000
0000
,
0000
0000
0000
0000
;
#NOTES:
     dance-single:
     :
     Easy:
     6:
     :
0000
0000
0000
0000
,
0000
0000
0000
0000
,
0000
0000
0000
0000
,
0000
0000
0000
0000
,
0000
0000
0000
0000
,
0000
0000
0000
0000
,
0001
0100
0001
0000
,
1000
0010
1000
0000
,
0001
0000
0001
0000
0000
1000
0000
1000
,
0000
0000
0020
0030
,
1000
0000
0100
0000
,
0010
0000
0001
0000
,
0010
0000
0100
0000
,
1000
0000
0001
0000
,
1000
0100
1000
0001
,
0100
0100
0010
0000
,
1000
0000
1000
0000
0000
0001
0000
0001
,
0000
0000
0100
0010
,
1000
1000
0001
0001
,
0100
0010
1000
0000
,
0001
1000
0001
1000
,
0010
0100
0001
0000
,
1000
1000
0100
0100
,
0010
0001
1000
0000
,
0010
0000
0010
0000
0000
0100
0000
0100
,
0000
0000
0000
1001
,
0002
0000
0003
0000
,
0200
0000
0300
0000
,
0020
0000
0030
0000
,
2000
0000
3000
0000
,
0001
0001
0001
0000
,
1000
1000
1000
0000
,
0110
0000
1001
0000
,
0110
1001
0220
0330
,
1000
0001
0001
0100
,
0010
1000
0001
0000
,
0100
0001
0001
0010
,
0100
1000
0020
0030
,
0100
0001
1000
0010
,
0100
0010
1000
0000
,
0001
0001
0001
1000
,
1000
1000
0010
0000
,
1000
0001
0001
1000
,
0100
0010
0001
0000
,
0100
0001
0001
0010
,
0100
1000
0020
0030
,
0100
0100
0001
1000
,
0100
0010
0001
0000
,
1000
1000
1000
0001
,
0001
0001
0100
0011
,
1000
1000
0100
0000
,
0010
0001
0001
0000
,
1000
0010
0010
0000
,
0100
0001
0010
0100
,
1000
0001
0100
0000
,
0010
1000
0001
0000
,
2000
0000
3002
0000
,
0203
0000
0020
0330
,
1001
0000
0000
0000
,
1000
0000
0000
0000
,
0100
0000
0000
0000
,
0010
0010
0010
0000
,
0001
0100
1000
0100
,
0001
0100
1000
0100
,
0001
0000
0001
0000
0000
1000
0000
1000
,
0000
0000
0020
0030
,
0000
0000
0000
0000
,
1001
0000
0100
0010
,
0110
1001
0220
0330
,
0001
1000
0100
1000
,
0010
0100
0002
0003
,
1000
0100
0001
0100
,
1000
0010
0100
0000
,
0001
0001
0001
1000
,
1000
1000
0010
0000
,
0100
0001
0001
0010
,
0100
1000
0001
0000
,
0100
0001
0001
0010
,
1000
0010
0002
0003
,
1000
0100
0001
0100
,
1000
0010
1000
0001
,
0100
0100
0100
0010
,
0010
0010
1000
0011
,
0200
0000
0000
0000
,
0000
0000
0000
0000
0000
0000
0000
0300
,
0000
0000
0000
0000
;
#NOTES:
     dance-single:
     :
     Medium:
     9:
     :
0000
0000
0000
0000
,
0000
0000
0000
0000
,
0000
0000
0000
0000
,
0000
0000
0000
0000
,
0000
0000
0000
0000
,
0000
0000
0000
0000
,
1000
0001
1000
0100
,
1000
0010
0100
0001
,
1000
0000
1100
0000
0000
0001
0000
0101
,
0000
1000
0000
0001
0100
0020
0030
0000
,
1010
0001
0100
0001
,
0010
0100
1000
0001
,
0100
0001
1000
0100
,
1000
0000
0001
0000
0010
0001
0010
0100
,
1000
0001
0100
0001
,
0010
0100
1000
0001
,
0100
0000
0110
0000
0000
0001
0000
0011
,
0000
1000
0000
0001
0100
0010
0010
0000
,
1000
0000
0001
0000
1000
0100
0010
0000
,
0001
1000
0010
0100
,
0001
0000
1000
0000
0001
0010
0100
0000
,
1000
0000
0001
0000
1000
0010
1000
0010
,
0100
0000
0001
0000
1000
0100
0010
0000
,
1000
0010
0001
0100
,
0010
0000
0110
0000
0000
1000
0000
1001
,
0000
0001
0000
1000
0010
0200
0300
0000
,
0001
0000
0000
0010
0000
0000
0001
0000
,
1000
0000
0000
0010
0000
0000
1000
0000
,
0001
0000
0000
0100
0000
0000
0001
0000
,
1000
0000
0000
0100
0000
0000
1000
0000
,
0001
1000
0001
1000
0001
0000
0000
0000
,
0100
0010
0100
0010
0100
0000
0000
0000
,
0001
0001
0000
0000
1000
1000
0000
0000
,
0011
1100
0220
0330
,
0100
1000
0002
0000
0103
0010
0100
0000
,
0001
1000
0001
0100
,
0010
1000
0002
0000
0013
0100
0010
0000
,
0001
1000
0020
0130
,
0001
0010
0100
0000
1000
0001
1000
0000
,
0010
0100
0001
1000
,
0001
0100
0001
0100
0001
0000
1000
0100
,
1000
0100
1000
0000
0010
0000
0000
0000
,
0110
0000
0002
0000
1003
0100
0010
0000
,
0001
0100
0010
1000
,
0110
0000
0002
0000
1003
0010
0100
0000
,
0001
0011
0020
0130
,
1000
0000
1001
0000
0001
0100
0010
0000
,
0100
0001
1000
0001
,
1000
0010
1000
0010
1000
0000
0001
0010
,
0001
0010
0001
0000
1010
0000
0101
0000
,
1000
0001
0100
0010
,
1000
0100
1000
0010
,
0010
0100
0001
0010
,
0100
0000
1000
0000
0100
1000
0100
0010
,
0001
1000
0010
0100
,
0010
1000
0001
0010
,
0002
0203
2300
3200
,
0302
0023
0200
0330
,
1001
0000
1000
0000
0000
0010
0000
0000
,
0000
0100
0000
0000
0100
0000
0000
0000
,
0001
0000
0001
0000
1000
0000
0010
0200
,
0000
0301
0001
1000
1000
0000
0010
0000
,
1000
0100
0010
0000
0100
1000
0010
0000
,
0100
0010
1000
0000
0100
1000
0010
0000
,
1000
0000
1001
0000
0000
0001
0000
0101
,
0000
0010
0000
2002
0000
0000
3003
0000
,
0000
0000
0000
0000
0000
1000
1000
0000
,
0010
1000
0002
0000
0103
0000
1001
0000
,
1000
0100
0010
0000
0011
0000
1100
0000
,
0100
0010
0002
0000
1003
0010
0100
0000
,
0001
0010
0200
1300
,
0001
1000
0010
0000
0100
0001
1000
0000
,
0100
0010
0001
1000
,
0010
0100
0010
0100
0010
0000
1000
0001
,
1000
0001
1000
0000
0100
0000
0010
0000
,
0100
1000
0002
0000
0103
0010
1000
0000
,
0001
0010
0100
0000
1000
0100
0010
0000
,
0100
1000
0002
0000
1003
0100
0010
0000
,
0001
1000
0020
0130
,
0001
1000
0100
0000
0010
0001
0100
0000
,
0001
0000
1000
0000
0100
0000
0000
0000
1000
0000
0000
0000
0200
0000
0000
0300
,
0010
0001
0010
0001
0010
0000
0100
1000
,
0100
1000
0100
0000
1010
0000
0101
0000
,
0020
0000
0000
0000
,
0000
0000
0000
0000
0000
0000
0000
0030
,
0000
0000
0000
0000
;
#NOTES:
     dance-single:
     :
     Hard:
     13:
     :
0000
0000
0000
0000
,
0000
0000
0000
0000
,
0000
0000
0000
0000
,
0000
0000
0000
0000
,
0000
0000
0000
0000
,
0000
0000
0000
0000
,
1000
0001
0010
0100
1000
0000
0000
1000
,
0001
0010
0100
1000
0001
0100
0010
0000
,
1010
0000
1001
0000
0000
0011
0000
1001
,
0000
0000
1100
0000
0000
0000
1000
0000
0001
0000
0100
0000
0200
0300
0000
0000
,
1001
0000
0002
0000
0013
0100
1000
0020
,
0000
0030
0000
0000
0000
0000
0000
0000
,
2000
0000
3002
0000
0203
0000
0301
0020
,
0000
0000
0000
0000
0030
0000
0000
0000
0001
0010
0001
0000
0010
0000
0100
0000
,
1000
0000
0001
0000
0100
0010
0100
0001
,
1000
0100
1000
0010
,
0110
0000
1001
0000
0000
0011
0000
1001
,
0000
1100
0000
1000
0010
0100
0001
0001
,
1000
0000
1010
0000
0010
0100
0001
0010
,
0100
0000
1000
0000
0001
0100
0020
0000
,
0001
0000
1030
0000
0001
0010
0100
1000
,
0010
0000
0000
0000
1000
0000
0000
0000
0001
1000
0001
0000
0010
0000
0100
0000
,
1000
0000
0101
0000
0001
0010
0100
0010
,
0001
1000
0010
0100
,
0101
0000
1001
0000
0000
1100
0000
1001
,
0000
0000
0101
0000
0000
0000
0100
0000
0010
0000
1000
0000
2000
3000
0000
0000
,
0002
0000
0000
0100
0000
0000
0013
0100
,
2000
0000
0000
0010
0000
0000
3100
0010
,
0002
0000
0000
1000
0000
0000
0103
0010
,
2000
0000
0000
0100
0000
0000
3010
0100
,
0001
0001
0001
0001
0001
0000
0000
0000
,
1000
1000
1000
1000
1000
0000
0000
0000
,
0010
0110
0000
0000
0001
0011
0100
1000
,
1001
0110
2002
3003
,
1000
0100
0002
0000
0103
1000
0010
0100
,
0001
0000
0011
0000
1100
0000
1000
0001
,
1000
0010
0002
0000
0013
0100
0001
0010
,
0100
0000
0000
0000
1100
0000
0000
0000
1000
0100
1000
0000
0020
0030
0000
0000
,
0100
0001
1000
0000
0001
0010
0100
1000
,
0001
0000
0101
0000
1010
0000
1000
0001
,
0100
0100
0100
0100
0110
0000
0010
0010
,
0010
0010
0110
0000
1001
0000
0001
1000
,
1100
0010
0002
0000
1003
0010
0001
0010
,
1000
0000
1100
0000
0011
0000
1000
0001
,
0100
0010
0002
0000
0013
1000
0001
0010
,
0100
0000
0000
0000
1100
0000
0000
0000
0001
0100
0001
0000
0020
0030
0000
0000
,
0100
1000
0001
0000
0100
0001
0010
0001
,
0100
0000
0001
0000
1000
0000
0001
1000
,
0010
0010
0010
0010
0110
0000
0100
0100
,
0100
0100
0110
0000
0001
1000
0011
1100
,
0001
1000
0010
0100
0001
0000
0000
0010
,
0001
1000
0010
0100
0001
0010
0100
0000
,
1000
0001
0010
0100
1000
0000
0000
0001
,
0010
0000
0100
0000
1000
0000
0001
0000
0100
0001
0100
0000
0001
0000
0010
0000
,
0100
1000
0010
0100
0001
0000
0000
1000
,
0010
0100
0001
1000
0100
0010
0001
0000
,
2000
0000
0200
3000
0002
0300
2000
0003
0002
3000
0200
0003
2000
0300
0020
3000
,
0002
0030
2000
0003
0002
3000
0020
0003
2000
0030
0002
0000
3003
0000
0000
0000
,
1001
0000
0000
0000
,
0000
0000
0000
0000
,
0001
0000
1000
0000
0001
1000
0010
0200
,
0000
0000
0301
0000
0001
0000
1000
0100
1000
0000
0100
1000
0100
0000
0010
0000
,
0001
0001
0010
0010
0100
0100
1000
0001
,
0100
0100
0010
0010
1000
1000
0100
0010
,
0012
0000
1003
0000
0000
2100
0000
3001
,
0000
0110
0000
2002
0000
0000
3003
0000
,
0100
0020
0000
0000
0000
0030
0100
0010
,
0110
1000
0002
0000
0103
1001
0001
0100
,
0010
0000
1000
0000
0001
1000
0001
1000
0001
0000
0020
0000
0230
0000
0300
0000
,
0011
1000
0002
0000
0103
0010
0100
0001
,
0010
0000
0100
0000
1000
0000
0010
0000
1000
0100
1000
0000
0020
0030
0000
0000
,
0110
0001
1000
0000
0001
0010
1000
0010
,
0001
0000
1000
0000
0010
0000
0100
0010
,
1000
1000
1000
1000
1010
0000
0001
0001
,
0001
0000
0001
0000
0101
0000
0000
0000
0100
0010
0100
0000
0001
0000
0000
0000
,
0011
0001
0001
1000
0010
0001
0010
1000
,
0001
0010
1000
0010
0001
1000
0010
0100
,
0001
1000
0100
0001
0001
0100
1000
0001
,
0100
0000
1000
0000
0100
0000
0001
0000
0010
0001
0010
0000
0200
0300
0000
0000
,
1000
0010
0100
1000
0100
0001
0010
1000
,
0010
0000
0100
0000
1000
0000
0010
0000
0100
0000
0000
0000
0001
0000
2000
3000
,
0010
0010
0010
0010
0110
0000
1000
1000
,
1000
1000
1001
0000
0001
0000
1100
0011
,
2000
0000
0000
0000
,
0000
0000
0000
0000
0000
0000
0000
3000
,
0000
0000
0000
0000
;
#NOTES:
     dance-double:
     :
     Easy:
     6:
     :
00000000
00000000
00000000
00000000
,
00000000
00000000
00000000
00000000
,
00000000
00000000
00000000
00000000
,
00000000
00000000
00000000
00000000
,
00000000
00000000
00000000
00000000
,
00000000
00000000
00000000
00000000
,
00001000
00001000
00001000
00000000
,
00010000
00010000
00010000
00000000
,
00001000
00000000
00001000
00000000
00000000
00010000
00000000
00010000
,
00000000
00000000
00002000
00003000
,
00010000
00000000
00000100
00000000
,
00001000
00000000
00000010
00000000
,
00000100
00000000
00000001
00000000
,
00001000
00000000
00000001
00000000
,
00000010
00000001
00000001
00000100
,
00000010
00001000
00000010
00000000
,
00010000
00000000
00010000
00000000
00000000
00001000
00000000
00001000
,
00000000
00000000
00010000
00001000
,
01000000
00010000
00010000
00100000
,
01000000
00100000
00010000
00000000
,
10000000
00100000
10000000
00100000
,
01000000
00010000
00100000
00000000
,
00001000
00010000
00001000
00010000
,
00000100
00001000
00000010
00000000
,
00001000
00000000
00001000
00000000
00000000
00000001
00000000
00000001
,
00000000
00000000
00000000
00001001
,
00000002
00000000
00000003
00000000
,
00000200
00000000
00000300
00000000
,
00002000
00000000
00003000
00000000
,
00020000
00000000
00030000
00000000
,
00001000
00001000
00001000
00000000
,
00010000
00010000
00010000
00000000
,
00001000
00000000
01000000
00000000
,
00100000
01000000
20020000
30030000
,
10000000
00010000
00100000
00010000
,
00100000
00001000
00010000
00000000
,
00001000
00010000
00000100
00010000
,
00001000
00010000
00000020
00000030
,
00001000
00000001
00000010
00000100
,
00000010
00000001
00001000
00000000
,
00000010
00000010
00000010
00000100
,
00000100
00000100
00000001
00000000
,
00001000
00000001
00000001
00000010
,
00000100
00001000
00000010
00000000
,
00010000
00001000
00010000
00000100
,
00010000
00001000
00020000
00030000
,
00001000
00100000
00010000
01000000
,
00100000
10000000
00010000
00000000
,
10000000
10000000
10000000
00010000
,
00010000
00010000
01000000
00110000
,
10000000
01000000
01000000
00000000
,
00100000
00010000
00010000
00000000
,
01000000
00001000
00001000
00000000
,
00010000
00001000
00010000
00000000
,
00000010
00001000
00001000
00000000
,
00000001
00000010
00000010
00000000
,
00000002
00000203
00000302
00000203
,
00002300
00023000
00002000
00033000
,
00011000
00000000
00000000
00000000
,
00001000
00000000
00000000
00000000
,
01000000
00000000
00000000
00000000
,
00100000
00100000
00100000
00000000
,
10000000
01000000
00010000
00010000
,
00001000
00001000
00000010
00000001
,
00000100
00000000
00000100
00000000
00000000
00000010
00000000
00000010
,
00000000
00000000
00002000
00003000
,
00000000
00000000
00000000
00000000
,
00000110
00000000
00010000
00001000
,
00011000
00011000
00022000
00033000
,
00001000
00100000
00010000
10000000
,
00100000
01000000
00020000
00030000
,
10000000
00010000
00100000
00010000
,
00100000
00001000
00010000
00000000
,
00001000
00001000
00001000
00010000
,
00010000
00010000
00000100
00000000
,
00001000
00000001
00000010
00000001
,
00000100
00001000
00010000
00000000
,
00001000
00010000
00001000
01000000
,
00010000
00100000
02000000
03000000
,
10000000
01000000
00100000
00001000
,
00010000
00001000
00000010
00000001
,
00000100
00000100
00000100
00000010
,
00000010
00000010
00001000
00000011
,
00000200
00000000
00000000
00000000
,
00000000
00000000
00000000
00000000
00000000
00000000
00000000
00000300
,
00000000
00000000
00000000
00000000
;
#NOTES:
     dance-double:
     :
     Medium:
     9:
     :
00000000
00000000
00000000
00000000
,
00000000
00000000
00000000
00000000
,
00000000
00000000
00000000
00000000
,
00000000
00000000
00000000
00000000
,
00000000
00000000
00000000
00000000
,
00000000
00000000
00000000
00000000
,
00010000
00001000
00010000
00000100
,
00010000
00001000
01000000
00010000
,
00100000
00000000
00110000
00000000
00000000
10000000
00000000
11000000
,
00000000
00010000
00000000
01000000
00100000
20000000
30000000
00000000
,
00010000
00000000
00100000
00000000
00000000
00001000
00000000
00000000
,
00000000
00010000
00000000
00000000
00000100
00000000
00000000
00000000
,
00000000
00000000
00001000
00000000
00000000
00000010
00000000
00000000
,
00000000
00000100
00000000
00000000
00000001
00001000
00000001
00001000
,
00000010
00000100
00000010
00001000
,
00000001
00000100
00001000
00010000
,
00001000
00000000
00001000
00000000
00000000
01000000
00000000
00010000
,
00000000
00110000
00000000
10000000
00100000
01000000
01000000
00000000
,
00010000
00000000
10000000
00000000
01000000
00100000
00010000
00000000
,
01000000
00001000
00010000
00001000
,
00010000
00000000
00000100
00000000
00001000
00000100
00000010
00000000
,
00000001
00000000
00001000
00000000
00000010
00001000
00000010
00001000
,
00000100
00010000
00001000
00010000
,
00100000
10000000
01000000
00010000
,
00001000
00000000
00011000
00000000
00000000
00010000
00000000
00000100
,
00000000
00001000
00000000
00000001
00000100
00000020
00000030
00000000
,
00010000
00000000
00000000
00001000
00000000
00000000
00010000
00000000
,
00000100
00000000
00000000
00001000
00000000
00000000
00000100
00000000
,
00010000
00000000
00000000
00001000
00000000
00000000
00100000
00000000
,
00010000
00000000
00000000
01000000
00000000
00000000
00010000
00000000
,
10000000
01000000
10000000
01000000
10000000
00000000
00000000
00000000
,
00010000
01000000
00010000
01000000
00010000
00000000
00000000
00000000
,
00100000
00100000
00000000
00000000
00001000
00001000
00000000
00000000
,
00011000
00000010
00000220
00000330
,
00000001
00000100
00000002
00000000
00000013
00000000
00000100
00000000
,
00001000
00000001
00000100
00000000
00001000
00000000
00010000
00000000
,
00001000
00100000
00020000
00000000
10030000
00000000
00010000
00000000
,
01000000
00100000
20000000
30010000
,
10000000
01000000
00100000
00000000
00001000
00000000
00010000
00000000
,
01000000
00100000
00001000
00010000
,
00001000
00010000
00001000
00010000
00001000
00000000
00100000
00010000
,
00100000
00010000
00100000
00000000
00001000
00000000
00000000
00000000
,
00010000
00001000
00020000
00000000
00031000
00000000
00000100
00000000
,
00000010
00001000
00000001
00000000
00000010
00000000
00000100
00000000
,
00001000
00000100
00020000
00000000
00031000
00000000
00000100
00000000
,
00000010
00001000
00000001
00000000
00000020
00000000
00000130
00000000
,
00001000
00000010
00010000
00000000
00001000
00000000
00010000
00000000
,
00100000
00010000
00001000
00100000
,
00001000
00010000
00001000
00010000
00001000
00000000
01000000
00010000
,
01000000
00010000
01000000
00000000
00100000
00000000
00110000
00000000
,
10100000
10000000
01000000
00010000
,
00001000
00010000
00001000
00000100
,
00000001
00000010
00000100
00001000
,
00000010
00000000
00010000
00000000
00001000
00010000
00001000
00100000
,
00010000
00100000
01000000
00010000
,
00001000
00001000
00010000
00001000
,
00020000
00230000
02300000
03002000
,
00023000
02030000
00200000
03300000
,
10010000
00000000
00010000
00000000
00000000
01000000
00000000
00000000
,
00000000
01000000
00000000
00000000
00010000
00000000
00000000
00000000
,
10000000
00000000
01000000
00000000
00100000
00000000
00001000
00020000
,
00000000
00031000
00001000
00010000
00010000
00000000
00000100
00000000
,
00001000
00000100
00000010
00000000
00000100
00001000
00000010
00000000
,
00001000
00000100
00000010
00000000
00001000
00010000
00000100
00000000
,
00010000
00000000
00011000
00000000
00000000
00100000
00000000
00110000
,
00000000
01000000
00000000
20020000
00000000
00000000
30030000
00000000
,
00000000
00000000
00000000
00000000
00000000
10000000
10000000
00000000
,
00100000
01000000
00020000
00000000
00130000
00000000
00001000
00000000
,
00011000
00010000
00000100
00000110
,
00000100
00001000
00000002
00000000
00000103
00000000
00001000
00000000
,
00010000
00001000
01000000
00000000
00200000
00000000
10300000
00000000
,
00010000
10000000
00100000
00000000
01000000
00000000
00010000
00000000
,
10000000
01000000
00010000
00001000
,
00010000
00001000
00010000
00001000
00010000
00000000
00000010
00001000
,
00000010
00001000
00000010
00000000
00000100
00000000
00000001
00000000
,
00001000
00000100
00000002
00000000
00000103
00001000
00000010
00000000
,
00010000
00000000
00001000
00010000
01000000
00000000
10000000
00000000
,
00100000
10000000
00020000
00000000
10030000
01000000
00100000
00000000
,
00001000
00000000
00010000
00001000
00000200
00000000
00000310
00000000
,
00001000
00000001
00000100
00000000
00000001
00000100
00001000
00000000
,
00010000
00000000
00000000
00000000
00100000
00000000
00000000
00000000
01000000
00000000
00000000
00000000
00200000
00000000
00000000
00300000
,
10000000
01000000
10000000
01000000
10000000
00000000
00010000
00100000
,
00010000
00100000
00010000
00000000
01000000
00000000
00110000
00000000
,
20000000
00000000
00000000
00000000
,
00000000
00000000
00000000
00000000
00000000
00000000
00000000
30000000
,
00000000
00000000
00000000
00000000
;
#NOTES:
     dance-double:
     :
     Hard:
     14:
     :
00000000
00000000
00000000
00000000
,
00000000
00000000
00000000
00000000
,
00000000
00000000
00000000
00000000
,
00000000
00000000
00000000
00000000
,
00000000
00000000
00000000
00000000
,
00000000
00000000
00000000
00000000
,
00001000
00010000
00001000
00010000
00100000
00000000
00000000
00010000
,
00001000
00100000
00010000
00100000
01000000
10000000
00010000
00000000
,
00110000
00000000
00101000
00000000
00000000
00011000
00000000
00010010
,
00000000
00000000
00011000
00000000
00000000
00000000
00101000
00000000
00001000
00000000
00010000
00000000
02000000
03000000
00000000
00000000
,
20000000
00000000
30200000
00000000
01300000
00010000
00100000
00002000
,
00000000
00003000
00000000
00000000
00000000
00000000
00000000
00000000
,
00020000
00000000
00032000
00000000
00003020
00000000
00000031
00002000
,
00000000
00000000
00003000
00000000
00000010
00000100
00001000
00010000
,
01000000
00000000
10000000
00000000
00010000
01000000
00010000
01000000
,
00100000
00010000
00001000
00010000
,
01000000
00000000
11000000
00000000
00000000
00110000
00000000
00101000
,
00000000
00011000
00000000
00010010
00010000
00001000
00000100
00000001
,
00000010
00000000
00000100
00000000
00001000
00000010
00010000
00001000
,
00000010
00000000
00000001
00000000
00000100
00001000
00010000
00000000
,
00100000
00000000
01100000
00000000
01000000
00001000
00010000
00000000
,
00001000
00000000
00100000
00000000
01000000
00010000
00001000
00000100
,
00000010
00000000
00001000
00000000
00000001
00000010
00000001
00000010
,
00000100
00001000
00000010
00010000
,
00011000
00000000
00101000
00000000
00000000
00110000
00000000
11000000
,
00000000
00000000
00110000
00000000
00000000
00000000
00101000
00000000
00001000
00000000
00010000
00000000
02000000
03000000
00000000
00000000
,
20000000
00000000
00000000
00100000
00000000
00000000
31000000
00010000
,
00002000
00000000
00000000
00100000
00000000
00000000
00013000
00001000
,
00000200
00000000
00000000
00000010
00000000
00000000
00000301
00000010
,
00000200
00000000
00000000
00000001
00000000
00000000
00010300
00001000
,
00010000
00010000
00010000
00010000
00010000
00000000
00000000
00000000
,
00001000
00001000
00001000
00001000
00001000
00000000
00000000
00000000
,
00100000
00110000
00000000
00000000
00010000
10010000
00000000
00000000
,
10010000
00011000
00002002
00003003
,
00001000
00000100
00000002
00000000
00000103
00001000
00000010
00010000
,
00001000
00000000
00010000
00000000
01000000
10000000
00100000
00010000
,
00100000
01000000
00020000
00000000
00130000
00001000
00010000
00001000
,
00000100
00000000
00000000
00000000
00000001
00000000
00000000
00000000
00000010
00000001
00000010
00000000
00000200
00000300
00000000
00000000
,
00010000
00001000
01000000
00000000
00100000
10000000
00100000
00010000
,
00001000
00010000
00001000
00011000
,
00001000
00000100
00000001
00000100
00001000
00000000
00010000
01000000
,
10000000
01000000
00010000
00000000
00001000
00000000
00011000
00000000
,
00001000
00100000
00020000
00000000
10030000
00100000
00010000
00001000
,
00010000
00000100
00000010
00000011
,
00000001
00001000
00000002
00000000
00000103
00001000
00010000
00100000
,
01000000
00000000
00010000
00000000
00100000
00000000
01000000
00000000
10000000
01000000
10000000
00000000
00200000
00300000
00000000
00000000
,
01000000
00001000
00010000
00000000
00000010
00000100
00001000
00010000
,
00001000
00010000
01000000
00100000
00001000
00000000
00010000
00000000
,
00100000
10000000
01000000
00010000
00001000
00000000
00010000
00001000
,
00000100
00000001
00000010
00000000
00001000
00000000
00110000
00001000
,
00010000
00000100
00001000
00000010
00000100
00000000
00000000
00000001
,
00001000
00000100
00001000
00000010
00000100
00000001
00001000
00000000
,
00000001
00000010
00000100
00001000
00000010
00000000
00000000
00010000
,
00001000
01000000
00010000
00100000
01000000
00010000
00001000
00000100
,
00000010
00001000
00000001
00000010
00000100
00000000
00000000
00010000
,
00001000
00010000
00100000
01000000
00010000
10000000
01000000
00000000
,
00200000
00000000
00020000
00300000
02000000
00030000
00200000
03000000
00020000
00300000
00002000
00030000
00200000
00003000
02000000
00300000
,
00020000
03000000
02000000
00030000
00200000
03000000
00002000
00300000
00020000
00003000
02000000
00000000
03030000
00000000
00000000
00000000
,
00011000
00000000
00000000
00000000
,
00000000
00000000
00000000
00000000
,
00010000
00000000
00001000
00000000
00000010
00000010
00000001
00000002
,
00000000
00000103
00000100
00000010
00000010
00010000
00010000
00000000
,
00010000
00001000
00000100
00001000
00010000
00000100
00001000
00010000
,
00000010
00010000
00001000
00000100
00010000
00001000
00000100
00001000
,
00010000
00000000
00010100
00000000
00010000
00001000
00000000
01001000
,
00000000
00011000
00000000
00020200
00000000
00000000
00030300
00000000
,
00012000
00000000
00000000
00000000
00003000
00010000
00001000
00000010
,
00000001
00000001
00000002
00000000
00000103
00000010
00010000
00001000
,
01000000
10100000
20020000
30030000
,
10000000
01000000
00020000
00000000
00031000
00000100
00000001
00000010
,
00000100
00000000
00001000
00000000
00000010
00000000
00010000
00000000
00001000
00010000
00001000
00000000
00200000
00300000
00000000
00000000
,
00001000
00010000
00100000
00000000
10000000
01000000
00100000
00001000
,
00010000
00100000
00010000
00001000
00100000
00000000
00011000
00000000
,
00001000
00000010
00000001
00000100
00001000
00000000
00010000
01000000
,
10000000
00000000
00100000
00000000
00010000
00000000
00000000
00000000
00001000
00010000
00001000
00000000
00010000
00000000
00000000
00000000
,
00001000
00010000
01000000
00010000
00001000
01000000
00100000
00010000
,
00001000
00000100
00000010
00010000
00001000
00000010
00001000
00010000
,
00000010
00000100
00001000
00010000
00100000
01000000
00001000
00010000
,
01000000
00000000
00010000
00000000
00001000
00000000
01000000
00000000
00100000
00000000
00010000
00000000
00002000
00003000
00010000
00000000
,
01000000
10000000
01000000
00010000
00001000
00000010
00000100
00010000
,
00001000
00000000
00000100
00000000
00000001
00000000
00000010
00000000
00001000
00000000
00010000
00000000
00002000
00000000
00000000
00003000
,
00010000
00100000
10000000
00100000
00010000
00000000
00001000
00000010
,
00000001
00000010
00001000
00000000
00010000
00000000
00001010
00010000
,
00002000
00000000
00000000
00000000
,
00000000
00000000
00000000
00000000
00000000
00000000
00000000
00003000
,
00000000
00000000
00000000
00000000
;
