
//----- song ID: icem -----//
#TITLE:アイスクリームマジック;
#ARTIST:雪乃イト;
#TITLETRANSLIT:Ice cream magic;
#ARTISTTRANSLIT:Yukino Ito;
#BANNER:Ice cream magic.png;
#BACKGROUND:Ice cream magic-bg.png;
#CDTITLE:./CDTitles/DDR WORLD.png;
#MUSIC:Ice cream magic.ogg;
#SAMPLESTART:53.442;
#SAMPLELENGTH:15;
#BPMS:0=110;
#NOTES:
     dance-single:
     :
     Beginner:
     3:
     :
0000
0000
0000
0000
,
0000
0000
0000
0000
,
0000
0000
0000
0000
,
0000
0000
0000
0000
,
0000
0000
0000
0000
,
1000
0000
0000
0000
,
0001
0000
0000
0000
,
1000
0000
0000
0000
,
0001
0000
0000
0000
,
1000
0000
1000
0000
,
0001
0000
0001
0000
,
1000
0000
1000
0000
,
0001
0000
0001
0000
,
1000
0000
0001
0000
,
1000
0000
0001
0000
,
0010
0000
0100
0000
,
1001
0000
0000
0000
,
2000
0000
3000
0000
,
0002
0000
0003
0000
,
0100
0000
0010
0000
,
0100
0000
0010
0000
,
1000
0000
0000
0000
,
1000
0000
1000
0000
,
0002
0000
0003
0000
,
2000
0000
3000
0000
,
0010
0000
0010
0000
,
0100
0000
0100
0000
,
0001
0000
0001
0000
,
0001
0000
0001
0000
,
0100
0000
0100
0000
,
0010
0000
0010
0000
,
1000
0000
1000
0000
,
1000
0000
1000
0000
,
0020
0000
0030
0000
,
0200
0000
0300
0000
,
0001
0000
1000
0000
,
1001
0000
0000
0000
,
0001
0000
0000
0000
,
1000
0000
0000
0000
,
0001
0000
0000
0000
,
1000
0000
0000
0000
,
0000
0000
0000
0000
,
0000
0000
0000
0000
,
1000
0000
0001
0000
,
0100
0000
0010
0000
,
1000
0000
0001
0000
,
0010
0000
0100
0000
,
1000
0000
0100
0000
,
0010
0000
0001
0000
,
0100
0000
0010
0000
,
0100
0000
0010
0000
,
2000
0000
3000
0000
,
0002
0000
0003
0000
,
1000
0000
0001
0000
,
0001
0000
1000
0000
,
1000
0000
0001
0000
,
1001
0000
0000
0000
,
0000
0000
0000
0000
;
#NOTES:
     dance-single:
     :
     Easy:
     5:
     :
0000
0000
0000
0000
,
0000
0000
0000
0000
,
0000
0000
0000
0000
,
0000
0000
0000
0000
,
0000
0000
0000
0000
,
1000
0000
0001
0000
,
0020
0030
0200
0300
,
1000
1000
1000
0000
,
0001
0001
1001
0000
,
0001
0010
0001
0000
,
1000
0100
1000
0000
,
1100
0000
0011
0000
,
0010
0100
0010
0000
,
0002
0003
2000
3000
,
0002
0003
2000
3000
,
0010
0010
0100
0100
,
1001
0000
0000
0000
,
1000
1000
1000
0000
,
0001
0001
0001
0000
,
0100
0100
0010
0010
,
0100
0010
0110
0000
,
2002
0000
0000
3003
,
0001
1000
0001
0000
,
0200
0300
0020
0030
,
2000
3000
0002
0003
,
0010
0001
0011
0000
,
0001
0100
0101
0000
,
0100
0010
0100
0010
,
0100
0100
0010
0100
,
0010
1000
1010
0000
,
1000
0100
1100
0000
,
0100
0010
0010
0100
,
0010
0010
0100
0100
,
0110
0000
1001
0000
,
1000
0001
2002
3003
,
0002
0003
2000
3000
,
0220
0000
0330
0000
,
0010
0000
0010
0000
,
0100
0000
0100
0000
,
0020
0000
0030
0000
,
0200
0000
0000
0300
,
0000
0000
0000
0000
,
1001
0001
1001
1000
,
0001
0100
0101
0000
,
0100
0010
0010
0010
,
2000
3000
0002
0003
,
0010
0100
0010
0010
,
0100
1000
1100
0000
,
1000
0010
1010
0000
,
0010
0100
0010
0010
,
0100
0100
0010
0010
,
2000
3000
0002
0003
,
0010
0010
0010
0000
,
1001
0000
0011
1000
,
1001
0000
1010
0001
,
1001
0000
0001
1000
,
1001
0000
0000
0000
,
0000
0000
0000
0000
;
#NOTES:
     dance-single:
     :
     Medium:
     10:
     :
0000
0000
0000
0000
,
0000
0000
0000
0000
,
0000
0000
0000
0000
,
0000
0000
0000
0000
,
0000
0000
0000
0000
,
1000
0000
1000
0000
0001
0010
0001
0000
,
0011
1001
1100
0000
,
1000
1000
1000
0000
1000
0000
0000
0000
,
0001
0001
0001
0000
1001
0000
0000
0000
,
0001
0010
0001
0000
0011
0000
1001
0000
,
1000
0100
1000
0000
1100
0000
1001
0000
,
0011
0010
0110
0100
,
0100
1000
0100
0000
0010
0000
0010
0000
,
0200
1300
0002
0013
,
0001
1000
0010
0000
0200
0000
0300
0000
,
0001
0010
0001
0000
0001
0100
0001
0000
,
1000
0000
0001
0000
1000
0001
1000
0001
,
2000
0000
3001
1000
0010
0100
0100
0000
,
0002
0000
1003
0001
0100
0010
0010
0000
,
1010
0000
1100
0000
1000
0001
1000
0001
,
0100
0010
0100
0010
1000
0000
0000
0000
,
1001
0000
0001
1000
0010
0100
0001
0100
,
1000
0100
0001
0000
,
0101
0000
0000
0110
0000
0000
1010
0000
,
2002
0000
3003
0000
1000
1000
0001
0001
,
0010
0001
0010
0000
0001
0100
0001
1000
,
0010
0100
0010
0000
1000
1000
0001
0001
,
0000
0010
0100
1000
0001
0010
0100
0000
,
0110
0011
1100
1001
,
1000
0010
1000
0000
0100
1000
0100
1000
,
0001
0010
0001
1000
0100
0100
0010
0010
,
0000
0100
0010
0001
1000
0100
0010
0000
,
0110
1100
0011
1001
,
0000
1000
0001
1000
0000
0100
0010
0001
,
0010
0100
1000
0000
2002
0000
3003
0000
,
0001
0000
0000
0000
0000
1000
0000
0000
0000
0000
0000
0000
0001
0000
0000
0100
0000
0000
0001
0000
0000
0000
0000
0000
,
0022
0000
0033
0000
0010
0100
0010
0100
,
0010
0000
0010
0000
0100
1000
0100
0000
,
0100
0000
0100
0000
0010
0001
0010
0100
,
0000
1000
0001
0010
0100
1000
0001
0000
,
0001
0100
0001
1000
0010
0000
0220
0000
,
0000
0000
0000
0330
,
0001
0000
1000
0000
0001
0001
1000
1000
,
0010
1000
0010
0000
1000
0100
1000
0001
,
0100
0010
0100
0000
0001
0001
1000
1000
,
0000
0100
0010
0001
1000
0100
0010
0000
,
0110
0000
0010
0001
0200
0000
0320
0000
,
0130
0001
0100
0010
1000
0100
1000
0000
,
0100
0010
0100
1000
0100
0001
0100
1000
,
0000
0001
0010
0100
0010
0100
1000
0000
,
1100
0101
0110
1001
,
0000
0001
1000
0001
0000
1000
0100
0010
,
0001
0010
0100
0000
2002
0000
3003
0000
,
1000
0000
0000
0000
0000
0001
0000
0000
0000
0000
0000
0000
1000
0000
0000
0100
0000
0000
1000
0000
0000
0000
0000
0000
,
0001
0000
0000
0000
0000
1000
0000
0000
0000
0000
0000
0000
0001
0000
0000
0010
0000
0000
0001
0000
0000
0000
0000
0000
,
0010
0000
0000
0000
0000
0100
0000
0000
0000
0000
0000
0000
1000
0000
0000
0001
0000
0000
1000
0000
0000
0000
0000
0000
,
1001
0000
0000
0000
,
0000
0000
0000
0000
;
#NOTES:
     dance-single:
     :
     Hard:
     13:
     :
0000
0000
0000
0000
,
0000
0000
0000
0000
,
0000
0000
0000
0000
,
0000
0000
0000
0000
,
0000
0000
0000
0000
0000
0000
0000
0000
0000
0000
0000
0000
0000
0000
0000
0000
0000
0000
0000
0000
0000
1000
0000
0100
,
1000
0010
0100
0001
0010
0001
0100
0010
,
2000
0000
3020
0000
0230
0000
0300
0001
,
0001
0000
0000
0001
0000
0000
1000
0000
0001
0000
0000
1000
0000
0000
0000
0000
0000
0000
0000
0000
0000
0001
0000
0000
,
0010
0000
0000
0010
0000
0000
0020
0000
0000
0000
0000
0200
0000
0000
0000
0000
0000
0000
0330
0000
0000
0000
0000
0000
,
0000
1000
0100
0001
0100
1000
0001
0010
,
1000
0000
0000
0010
0000
0000
0001
0000
0010
0000
0000
0020
0000
0000
0000
0030
0000
0000
0010
0000
0000
0100
0000
0000
,
0000
1000
0010
0010
0100
0010
1000
0001
,
1000
0000
0000
0001
0000
0000
0010
0000
0000
0100
0000
0010
0000
0000
0000
0000
0000
0000
0000
0000
0000
0001
0000
0100
,
0010
1000
0010
0100
0001
1000
0010
0001
,
0020
0000
2030
0000
3002
0000
0003
1000
,
1000
0000
0000
0001
0000
0000
0001
0000
0010
0000
0000
0100
0000
0000
0000
1000
0000
0000
0100
0000
0000
0010
0000
0000
,
0000
0000
0001
0000
0000
1000
0001
0000
0000
0001
0000
0000
0010
0000
0100
0010
0000
0100
0000
0000
1000
0001
0000
0000
,
0020
0000
0001
0130
1100
1001
1010
1000
,
0200
0000
1000
0310
0011
1001
0101
0001
,
0011
0001
0101
0100
0100
0010
1000
0100
,
0001
0000
0000
1000
0000
0000
0010
0000
0000
0001
0000
0000
0100
0000
0000
0000
0000
0010
0000
0000
0000
0100
0000
0000
,
0110
0000
1010
1000
0010
0001
0010
1000
,
0200
0000
0320
0000
0032
0000
0003
0100
,
0101
0000
0000
0000
0000
0000
0000
0000
0000
0110
0000
0000
0000
0000
0000
0000
0000
0000
1010
0000
0000
0000
0000
0000
0000
0000
0000
1100
0000
0000
0000
0000
0000
0000
0000
0000
0100
0000
0000
0000
0010
0000
0000
0000
0010
0000
0000
0000
,
2002
0000
3003
0000
1000
1100
0001
0011
,
0010
0000
0000
0001
0000
0000
0010
0000
0001
0010
0000
0000
0001
0000
0000
0101
0000
0000
0100
0000
0000
1000
0000
0000
,
0100
0000
0000
0001
0000
0000
0100
0000
0001
0100
0000
0000
0001
0000
0000
0101
0000
0000
0110
0000
0000
1001
0000
0000
,
0000
0000
0000
0001
0000
0000
0100
0000
0010
0100
0000
1000
0100
0000
0001
0100
0000
0000
0010
0000
0000
0000
0000
0000
,
0001
0010
1000
0100
0001
0100
1000
0000
,
1001
0000
0000
1100
0000
0000
1001
0000
0000
0001
0000
0100
0001
0000
0000
0010
0000
0000
1000
0000
0000
0010
0000
0000
,
0011
0000
0000
0011
0000
0000
0010
0000
0001
0010
0000
0100
0010
0000
0000
0001
0000
0000
0100
0000
0000
1000
0000
0000
,
0000
0000
0000
0001
0000
0000
0010
0000
0001
0010
0000
0100
0010
0000
0000
0110
0000
0000
1001
0000
0000
0000
0000
0000
,
1100
0100
0011
0010
1001
0000
1001
0000
,
1000
0000
0000
1000
0000
0000
1000
0000
0000
0000
0000
0001
0000
0000
0001
0000
0000
0000
0100
0000
0000
0000
0000
0000
,
0001
0000
0000
0010
0000
0000
0001
0000
0000
0010
0000
0000
0100
0000
1000
0001
0000
1000
0100
0000
0000
0010
0000
0000
,
0001
0000
1000
0000
0000
1000
0000
0000
1000
0000
0000
1000
0001
0000
0000
0100
0000
0000
0001
0000
0000
0000
0000
0020
,
0002
0033
0000
0000
,
0001
0000
0000
1000
0000
0000
0010
0000
0100
0010
0000
0000
0100
0000
0000
0001
0000
0000
1000
0000
0000
0001
0000
0000
,
1000
0000
0000
1000
0000
0000
0001
0000
1000
0100
0000
1000
0100
0000
0000
0010
0000
0000
0001
0000
0000
1000
0000
0000
,
0000
0000
0000
1000
0000
0000
0001
0000
0010
0001
0000
1000
0001
0000
0010
0001
0000
0000
0100
0000
0000
0000
0000
0000
,
0010
1000
0001
1000
0110
0000
2002
0000
,
0000
0000
0000
3003
,
0100
0100
1001
0000
0001
0011
1000
1100
,
0100
0000
0000
1000
0000
0000
0100
0000
1000
0100
0000
0000
1000
0000
0000
1100
0000
0000
0100
0000
0000
0001
0000
0000
,
0100
0000
0000
1000
0000
0000
0001
0000
0100
0001
0000
0000
0001
0000
0000
0101
0000
0000
0110
0000
0000
1010
0000
0000
,
0000
0000
0000
1000
0000
0000
0010
0000
0001
0010
0000
1000
0010
0000
0100
0010
0000
0000
0100
0000
0000
0000
0000
0000
,
1000
0100
0001
0010
0120
0030
1002
0003
,
1001
0000
0000
1010
0000
0000
1001
0000
0000
0001
0000
0100
0001
0000
0000
1000
0000
0000
0001
0000
0000
0010
0000
0000
,
1100
0000
0000
1100
0000
0000
1000
0000
0010
1000
0000
0001
1000
0000
0000
0100
0000
0000
0010
0000
0000
0001
0000
0000
,
0000
0000
0000
1000
0000
0000
0100
0000
0010
0100
0000
0010
0100
0000
0000
0110
0000
0000
1001
0000
0000
0000
0000
0000
,
1100
0010
0101
0010
0110
0000
1001
0000
,
0001
0000
0000
0001
0000
0000
0001
0000
0000
0000
0000
1000
0000
0000
1000
0000
0000
0000
0010
0000
0000
0000
0000
0000
,
0010
0000
0000
1000
0000
0000
0001
0000
0000
0010
0000
0000
0001
0000
1000
0100
0000
1000
0001
0000
0000
0010
0000
0000
,
0100
0000
1000
0000
0000
1000
0000
0000
1000
0000
0000
1000
0100
0000
0000
0010
0000
0000
0100
0000
0000
0000
0000
0000
,
0010
0000
0001
0000
0000
0001
0000
0000
0001
0000
0000
0001
1000
0000
0000
0001
0000
0000
1000
0000
0000
0000
0000
0000
,
0010
0000
0100
0000
0000
0100
0000
0000
0100
0000
0000
0100
0010
0000
0000
0001
0000
0000
0010
0000
0000
0000
0000
1000
,
0001
0000
0000
0010
0000
0100
0010
0000
0100
0000
0000
0100
0010
0000
0100
0000
0000
0110
0000
0000
1001
0000
0000
0000
,
0000
0000
0000
0000
;
#NOTES:
     dance-double:
     :
     Easy:
     5:
     :
00000000
00000000
00000000
00000000
,
00000000
00000000
00000000
00000000
,
00000000
00000000
00000000
00000000
,
00000000
00000000
00000000
00000000
,
00000000
00000000
00000000
00000000
,
00001000
00000000
00010000
00000000
,
00200000
00300000
02000000
03000000
,
00010000
00000000
00010000
00000000
,
10000000
10000000
11000000
00000000
,
10000000
01000000
00100000
00000000
,
00100000
00001000
00010000
00000000
,
00010000
00000000
00001000
00000000
,
00000010
00000100
00001000
00000000
,
00000002
00000003
00000020
00000030
,
00000200
00000300
00002000
00003000
,
00000010
00000010
00000100
00000100
,
00000110
00000000
00001001
00000000
,
00000001
00000001
00000001
00000000
,
00001000
00001000
00001000
00000000
,
00000010
00010000
00001000
00100000
,
00001000
00010000
00011000
00000000
,
00020000
00030000
00002000
00003000
,
00000010
00000100
00000010
00000000
,
00000002
00000003
00000200
00000300
,
00000020
00000030
00002000
00003000
,
00000100
00010000
00011000
00000000
,
00001000
00100000
01100000
00000000
,
01000000
00100000
01000000
00000000
,
10000000
10000000
00010000
00010000
,
01000000
00001000
00011000
00000000
,
00010000
00000100
00000110
00000000
,
00000010
00000100
00000010
00000000
,
00000001
00000001
00001000
00001000
,
00001001
00000000
00010010
00000000
,
00010000
00001000
00022000
00033000
,
02000000
03000000
00200000
00300000
,
20020000
00000000
30030000
00000000
,
11000000
00000000
00110000
00000000
,
00101000
00000000
00011000
00000000
,
00020000
00000000
00030000
00000000
,
00002000
00000000
00000000
00003000
,
00000000
00000000
00000000
00000000
,
00010100
00000100
00000110
00000010
,
00000001
00000100
00000101
00000000
,
00000001
00000100
00000100
00001000
,
00020000
00030000
00002000
00003000
,
00100000
00100000
01100000
01100000
,
00100000
00001000
00011000
00000000
,
00010000
00000010
00010010
00000000
,
00000010
00001000
00000010
00000010
,
00001000
00001000
00000001
00000001
,
00000020
00000030
00000200
00000300
,
00010000
00001000
00010000
00000000
,
00011000
00000000
00101000
00001000
,
00011000
00000000
00010100
00010000
,
00011000
00000000
00010000
00001000
,
00011000
00000000
00000000
00000000
,
00000000
00000000
00000000
00000000
;
#NOTES:
     dance-double:
     :
     Medium:
     10:
     :
00000000
00000000
00000000
00000000
,
00000000
00000000
00000000
00000000
,
00000000
00000000
00000000
00000000
,
00000000
00000000
00000000
00000000
,
00000000
00000000
00000000
00000000
,
00001000
00000000
00001000
00000000
00100000
00010000
00100000
00000000
,
00110000
10010000
10100000
00000000
,
10000000
10000000
10000000
00000000
10000000
00000000
00000000
00000000
,
00010000
00010000
00010000
00000000
10010000
00000000
00000000
00000000
,
10000000
01000000
10000000
00000000
11000000
00000000
10010000
00000000
,
00010000
00100000
00010000
00000000
00101000
00000000
00011000
00000000
,
00010100
00000100
00000110
00000010
,
00000010
00000001
00000010
00000000
00001000
00000000
00001000
00000000
,
00020000
00031000
00200000
01300000
,
10000000
00010000
00100000
00000000
02000000
00000000
03000000
00000000
,
10000000
00100000
10000000
00000000
00010000
01000000
00010000
00000000
,
00100000
00000000
00001000
00000000
00010000
00001000
00010000
00000000
,
00000020
00000000
00000130
00000010
00001000
00000100
00000100
00000000
,
00020000
00000000
00031000
00010000
00100000
00010000
00010000
00000000
,
00011000
00000000
01001000
00000000
01000000
00010000
00100000
00000000
,
00010000
10000000
00010000
10000000
01000000
00000000
00000000
00000000
,
01100000
00000000
01000000
10000000
00100000
10000000
01000000
00000000
,
00010000
00001000
00000010
00000000
,
00000011
00000000
00000000
00000110
00000000
00000000
00001100
00000000
,
00002002
00000000
00003003
00000000
00000001
00000001
00001000
00001000
,
00000010
00010000
00000010
00000000
00010000
00001000
00010000
00000000
,
00100000
00000000
10000000
00000000
00010000
00010000
10000000
10000000
,
00000000
01000000
00100000
00010000
01000000
00100000
00010000
00000000
,
00010000
00001000
00000100
00000000
00001100
00000000
00000101
00000000
,
00000001
00000001
00000002
00000000
00000103
00000010
00000100
00000000
,
00001000
00000000
00010000
00000000
00100000
00100000
10000000
10000000
,
00000000
00010000
00100000
00001000
00010000
00000100
00001000
00000000
,
00001010
00010100
00101000
01010000
,
00000000
00010000
00100000
00010000
00000000
10000000
00100000
00010000
,
00001000
00010000
00100000
00000000
02200000
00000000
03300000
00000000
,
10000000
00000000
00000000
00000000
00000000
10000000
00000000
00000000
00000000
00000000
00000000
00000000
00010000
00000000
00000000
00100000
00000000
00000000
00010000
00000000
00000000
00000000
00000000
00000000
,
02020000
00000000
03030000
00000000
00010000
10000000
00010000
10000000
,
00010000
00000000
00010000
00000000
01000000
00001000
01000000
00000000
,
00100000
00000000
00100000
00000000
10000000
01000000
00010000
00001000
,
00000000
00010000
00001000
00000010
00001000
00000010
00000001
00000000
,
00000001
00000100
00001000
00000100
00000010
00000000
00000220
00000000
,
00000000
00000000
00000000
00000330
,
00000001
00000000
00001000
00000000
00000001
00000001
00001000
00001000
,
00000010
00001000
00000010
00000000
00001000
00000001
00001000
00000000
,
00000010
00000000
00000010
00000000
00010000
00010000
00001000
00001000
,
00000000
00010000
00001000
00000100
00001000
00000100
00000010
00000000
,
00010010
00000000
00010000
00001000
00200000
00000000
02300000
00000000
,
03010000
01000000
00010000
00000000
01000000
10000000
00100000
00010000
,
00001000
00010000
00001000
00000000
00000010
00000001
00001000
00000100
,
00000000
00000001
00000100
00001000
00000001
00000100
00001000
00000000
,
00011000
00101000
00110000
01100000
,
00000000
00100000
00010000
00100000
00000000
00001000
00010000
00100000
,
10000000
01000000
00010000
00000000
00022000
00000000
00033000
00000000
,
00001000
00000000
00000000
00000000
00000000
00010000
00000000
00000000
00000000
00000000
00000000
00000000
00000100
00000000
00000000
00000010
00000000
00000000
00000100
00000000
00000000
00000000
00000000
00000000
,
00001000
00000000
00000000
00000000
00000000
00000001
00000000
00000000
00000000
00000000
00000000
00000000
00000010
00000000
00000000
00000001
00000000
00000000
00000010
00000000
00000000
00000000
00000000
00000000
,
00001000
00000000
00000000
00000000
00000000
00010000
00000000
00000000
00000000
00000000
00000000
00000000
01000000
00000000
00000000
00100000
00000000
00000000
01000000
00000000
00000000
00000000
00000000
00000000
,
10010000
00000000
00000000
00000000
,
00000000
00000000
00000000
00000000
;
#NOTES:
     dance-double:
     :
     Hard:
     13:
     :
00000000
00000000
00000000
00000000
,
00000000
00000000
00000000
00000000
,
00000000
00000000
00000000
00000000
,
00000000
00000000
00000000
00000000
,
00000000
00000000
00000000
00000000
00000000
00000000
00000000
00000000
00000000
00000000
00000000
00000000
00000000
00000000
00000000
00000000
00000000
00000000
00000000
00000000
00000000
00001000
00000000
00010000
,
00001000
00010000
00001000
00000010
00001000
00010000
00100000
00010000
,
00000200
00000000
00000320
00000000
00002030
00000000
00003000
00010000
,
00010000
00000000
00000000
00010000
00000000
00000000
00100000
00000000
01000000
00000000
00000000
00100000
00000000
00000000
00000000
00000000
00000000
00000000
00000000
00000000
00000000
10000000
00000000
00000000
,
00010000
00000000
00000000
00010000
00000000
00000000
00020000
00000000
00000000
00000000
00000000
20000000
00000000
00000000
00000000
00000000
00000000
00000000
30030000
00000000
00000000
00000000
00000000
00000000
,
00000000
10000000
01000000
00010000
00001000
00000010
00001000
00010000
,
00001000
00000000
00000000
00100000
00000000
00000000
00001000
00000000
00010000
00000000
00000000
00020000
00000000
00000000
00000000
00030000
00000000
00000000
00010000
00000000
00000000
00001000
00000000
00000000
,
00000000
00010000
00100000
00100000
10000000
10000000
00010000
01000000
,
00100000
00000000
00000000
00010000
00000000
00000000
00100000
00000000
00000000
01000000
00000000
00010000
00000000
00000000
00000000
00000000
00000000
00000000
00000000
00000000
00000000
10000000
00000000
01000000
,
00100000
00001000
00010000
01000000
00010000
00001000
00000100
00000010
,
00020000
00000000
00032000
00000000
00203000
00000000
00300000
00001000
,
00001000
00000000
00000000
00010000
00000000
00000000
00010000
00000000
00000100
00000000
00000000
00000010
00000000
00000000
00000000
00000001
00000000
00000000
00001000
00000000
00000000
00000001
00000000
00000000
,
00000000
00000000
00000010
00000000
00000000
00000010
00000100
00000000
00000000
00000100
00000000
00000000
00010000
00000000
00001000
00000010
00000000
00000001
00000000
00000000
00000100
00000010
00000000
00000000
,
00002000
00000000
00003001
00000100
00000110
00001010
00010010
00000000
,
00020000
00000000
00031000
01000000
01100000
10100000
10010000
00000000
,
10000000
00100000
00010000
00001000
00010000
01000000
00010000
00001000
,
00010000
00001000
00000100
00002000
00020000
00000000
00033000
00000000
,
00011000
00000000
01001000
01000000
00100000
00010000
00100000
10000000
,
02000000
00000000
03020000
00000000
00032000
00000000
00003000
00010000
,
00000100
00000000
00000000
00000000
00000000
00000000
00000000
00000000
00000000
00010100
00000000
00000000
00000000
00000000
00000000
00000000
00000000
00000000
00000100
00000000
00000000
00000000
00000000
00000000
00000000
00000000
00000000
00000110
00000000
00000000
00000000
00000000
00000000
00000000
00000000
00000000
00000010
00000000
00000000
00000000
00000001
00000000
00000000
00000000
00000001
00000000
00000000
00000000
,
00002002
00000000
00003003
00000000
00000001
00000100
00000010
00000100
,
00001000
00000000
00000000
00001000
00000000
00000000
00010000
00000000
00001000
00010000
00000000
00000000
00100000
00000000
00000000
01000000
00000000
00000000
10000000
00000000
00000000
01000000
00000000
00000000
,
00100000
00000000
00000000
00100000
00000000
00000000
00010000
00000000
00001000
00010000
00000000
00001000
00010000
00000000
00000000
00000100
00000000
00000000
00010000
00000000
00000000
00000010
00000000
00000000
,
00000000
00000000
00000000
00000100
00000000
00000000
00000010
00000000
00000001
00000010
00000000
00000100
00000010
00000000
00001000
00000010
00000000
00000000
00000100
00000000
00000000
00000000
00000000
00000000
,
00000001
00000100
00001000
00010000
00100000
01000000
00010000
00000000
,
10010000
00000000
00000000
10100000
00000000
00000000
01010000
00000000
00000000
00010000
00000000
01000000
00001000
00000000
00000000
00010000
00000000
00000000
01000000
00000000
00000000
10000000
00000000
00000000
,
11000000
00000000
00000000
11000000
00000000
00000000
01000000
00000000
00100000
00010000
00000000
00100000
00001000
00000000
00000000
00010000
00000000
00000000
00001000
00000000
00000000
00000010
00000000
00000000
,
00000000
00000000
00000000
00001000
00000000
00000000
00000010
00000000
00001000
00000010
00000000
00000100
00000010
00000000
00000000
00000110
00000000
00000000
00001001
00000000
00000000
00000000
00000000
00000000
,
00000001
00000001
00001000
00001000
00000110
00000000
00001001
00000000
,
00000000
00000001
00000010
00000100
00000000
00000010
00000100
00010000
,
00001000
00000000
00000000
00100000
00000000
00000000
01000000
00000000
00000000
00010000
00000000
00000000
00001000
00000000
00010000
00001000
00000000
00010000
00000010
00000000
00000000
00000100
00000000
00000000
,
00000001
00000000
00000100
00000000
00000000
00000100
00000000
00000000
00000100
00000000
00000000
00000100
00000010
00000000
00000000
00001000
00000000
00000000
00000100
00000000
00000000
00000000
00000000
00020000
,
00002000
00033000
00000000
00000000
,
00010000
00000000
00000000
00001000
00000000
00000000
00000010
00000000
00001000
00010000
00000000
00000000
00001000
00000000
00000000
00010000
00000000
00000000
00100000
00000000
00000000
01000000
00000000
00000000
,
00001000
00000000
00000000
00001000
00000000
00000000
00100000
00000000
00010000
01000000
00000000
00010000
01000000
00000000
00000000
00100000
00000000
00000000
00010000
00000000
00000000
00001000
00000000
00000000
,
00000000
00000000
00000000
00010000
00000000
00000000
00001000
00000000
00100000
00001000
00000000
00010000
00001000
00000000
01000000
00001000
00000000
00000000
00010000
00000000
00000000
00000000
00000000
00000000
,
00100000
10000000
00010000
01000000
00001000
00000000
00022000
00000000
,
00000000
00000000
00000000
00033000
,
00001000
00100000
00110000
00000000
00010000
00110000
10000000
11000000
,
01000000
00000000
00000000
00100000
00000000
00000000
00010000
00000000
01000000
00001000
00000000
00000000
00010000
00000000
00000000
00011000
00000000
00000000
00001000
00000000
00000000
00000010
00000000
00000000
,
00000001
00000000
00000000
00000100
00000000
00000000
00000010
00000000
00001000
00000100
00000000
00000000
00010000
00000000
00000000
00011000
00000000
00000000
01001000
00000000
00000000
01010000
00000000
00000000
,
00000000
00000000
00000000
00010000
00000000
00000000
01000000
00000000
10000000
01000000
00000000
00100000
01000000
00000000
00010000
01000000
00000000
00000000
00100000
00000000
00000000
00000000
00000000
00000000
,
10000000
00100000
00010000
00001000
00000120
00000030
00002001
00003000
,
00001001
00000000
00000000
00000101
00000000
00000000
00000001
00000000
00000010
00000001
00000000
00001000
00000100
00000000
00000000
00000010
00000000
00000000
00001000
00000000
00000000
00010000
00000000
00000000
,
00011000
00000000
00000000
00011000
00000000
00000000
00010000
00000000
00000100
00000010
00000000
00000100
00000010
00000000
00000000
00001000
00000000
00000000
00010000
00000000
00000000
01000000
00000000
00000000
,
00000000
00000000
00000000
10000000
00000000
00000000
01000000
00000000
00100000
01000000
00000000
00100000
01000000
00000000
00000000
00010000
00000000
00000000
00001000
00000000
00000000
00000000
00000000
00000000
,
00000010
00000001
00000100
00001000
00000110
00000000
00001001
00000000
,
00000000
00000001
00000010
00000100
00000000
00000010
00000100
00010000
,
00001000
00000000
00000000
00100000
00000000
00000000
00010000
00000000
00000000
10000000
00000000
00000000
00100000
00000000
10000000
00010000
00000000
01000000
00010000
00000000
00000000
10000000
00000000
00000000
,
00100000
00000000
10000000
00000000
00000000
10000000
00000000
00000000
10000000
00000000
00000000
10000000
01000000
00000000
00000000
00100000
00000000
00000000
00001000
00000000
00000000
00000000
00000000
00000000
,
00010000
00000000
00000100
00000000
00000000
00000100
00000000
00000000
00000100
00000000
00000000
00000100
00000010
00000000
00000000
00000001
00000000
00000000
00000100
00000000
00000000
00000000
00000000
00000000
,
00000001
00000000
00000010
00000000
00000000
00000010
00000000
00000000
00000010
00000000
00000000
00000010
00000100
00000000
00000000
00010000
00000000
00000000
00001000
00000000
00000000
00000000
00000000
00100000
,
00001000
00000000
00000000
01000000
00000000
00010000
01000000
00000000
00010000
00000000
00000000
00010000
00100000
00000000
00010000
00000000
00000000
01010000
00000000
00000000
00011000
00000000
00000000
00000000
,
00000000
00000000
00000000
00000000
;
