
//----- song ID: ilos -----//
#TITLE:I LOVE SAKURA;
#ARTIST:CHERRY BLOSSOMS (ASAKI & wac);
#BANNER:I LOVE SAKURA.png;
#BACKGROUND:I LOVE SAKURA-bg.png;
#CDTITLE:./CDTitles/REFLEC BEAT plus.png;
#MUSIC:I LOVE SAKURA.ogg;
#SAMPLESTART:41.884;
#SAMPLELENGTH:15;
#BPMS:0=212;
#NOTES:
     dance-single:
     :
     Beginner:
     2:
     :
0000
0000
0000
0000
,
0000
0000
0000
0000
,
0000
0000
0000
0000
,
0000
0000
0000
0000
,
0000
0000
0000
0000
,
1000
0000
0000
0000
,
1000
0000
0000
0000
,
2000
0000
3000
0000
,
0000
0000
0000
0000
,
0001
0000
0000
0000
,
0001
0000
0000
0000
,
0001
0000
0000
0000
,
0001
0000
0000
0000
,
1000
0000
0000
0000
,
1000
0000
0000
0000
,
1000
0000
0000
0000
,
0000
0000
0000
0000
,
0001
0000
0000
0000
,
0001
0000
0000
0000
,
0001
0000
0000
0000
,
0000
0000
0000
0000
,
2000
0000
3000
0000
,
0000
0000
0000
0000
,
1000
0000
0000
0000
,
1000
0000
0000
0000
,
1000
0000
0000
0000
,
0000
0000
0000
0000
,
0002
0000
0003
0000
,
0000
0000
0000
0000
,
0001
0000
0000
0000
,
0001
0000
0000
0000
,
1000
0000
0000
0000
,
1000
0000
0000
0000
,
2000
0000
3000
0000
,
0000
0000
0000
0000
,
0001
0000
0000
0000
,
0001
0000
0000
0000
,
1000
0000
0000
0000
,
1000
0000
0000
0000
,
1000
0000
0000
0000
,
0000
0000
0000
0000
,
0001
0000
0000
0000
,
0001
0000
0000
0000
,
0001
0000
0000
0000
,
0000
0000
0000
0000
,
0100
0000
0000
0000
,
0100
0000
0000
0000
,
0100
0000
0000
0000
,
0000
0000
0000
0000
,
0010
0000
0000
0000
,
0010
0000
0000
0000
,
0010
0000
0000
0000
,
0000
0000
0000
0000
,
1000
0000
0000
0000
,
0000
0000
0000
0000
,
0001
0000
0000
0000
,
0000
0000
0000
0000
,
1000
0000
0000
0000
,
0000
0000
0000
0000
,
0001
0000
0000
0000
,
0000
0000
0000
0000
,
1000
0000
0000
0000
,
1000
0000
0000
0000
,
1000
0000
0000
0000
,
0000
0000
0000
0000
,
0001
0000
0000
0000
,
0001
0000
0000
0000
,
0001
0000
0000
0000
,
0000
0000
0000
0000
,
0100
0000
0000
0000
,
0100
0000
0000
0000
,
0100
0000
0000
0000
,
0000
0000
0000
0000
,
0010
0000
0000
0000
,
0010
0000
0000
0000
,
0010
0000
0000
0000
,
0000
0000
0000
0000
,
1000
0000
0000
0000
,
0000
0000
0000
0000
,
0001
0000
0000
0000
,
0000
0000
0000
0000
,
1000
0000
0000
0000
,
0000
0000
0000
0000
,
0001
0000
0000
0000
,
0000
0000
0000
0000
,
0010
0000
0000
0000
,
0000
0000
0000
0000
;
#NOTES:
     dance-single:
     :
     Easy:
     7:
     :
0000
0000
0000
0000
,
0000
0000
0000
0000
,
0000
0000
0000
0000
,
0000
0000
0000
0000
,
0000
0000
0000
0000
,
2000
0000
3000
0000
,
0002
0000
0003
0000
,
0020
0000
0030
0000
,
0000
0001
1000
1001
,
0000
1000
0000
1000
,
0000
0001
0000
0001
,
0000
0010
0000
0010
,
0000
0100
0000
0100
,
0000
1000
0000
1000
,
0000
0010
0000
0010
,
1000
0100
0010
0001
,
1000
0001
0100
0000
,
1001
0000
1000
0100
,
1000
0000
0001
0010
,
0001
0000
1000
0001
,
0100
0000
0001
1000
,
0020
0000
0030
0000
,
0200
0000
0300
0000
,
0110
0000
0001
0010
,
0001
0000
1000
0100
,
1000
0000
0001
1000
,
0010
0000
1000
0001
,
0200
0000
0300
0000
,
0020
0000
0030
0000
,
1000
0000
1000
0100
,
0010
0000
0001
0100
,
0010
0000
1000
0001
,
0100
0000
0001
1000
,
0200
0000
0300
0000
,
0100
0000
1000
0001
,
0020
0000
0030
0000
,
0010
0000
0010
0000
,
0001
0010
0001
0000
,
1000
0100
1000
0000
,
0001
1000
0010
0000
,
1000
0001
0010
0000
,
0001
0010
0100
0000
,
1000
0010
0100
0001
,
1000
0000
1000
0000
,
0001
0000
0001
0000
,
1000
0010
1000
0000
,
0001
0100
0001
0000
,
1000
0001
0010
0000
,
0001
1000
0010
0000
,
1000
0010
0100
0000
,
0001
0010
0100
1000
,
0001
0000
0001
0000
,
1000
0000
1000
0000
,
0020
0000
0030
0000
,
0200
0000
0300
0000
,
0002
0000
0003
0000
,
2000
0000
3000
0000
,
0001
0010
0100
1000
,
0100
0010
0001
1000
,
0001
0000
0001
0000
,
1000
0000
1000
0000
,
1001
0000
0010
0000
,
1001
0000
0100
0000
,
1001
0000
0010
0000
,
1001
0000
0001
0000
,
1000
0100
1000
0000
,
0001
0010
0001
0000
,
1000
0000
0000
0000
,
0001
0000
0000
0000
,
0001
0010
0001
0000
,
1000
0100
1000
0000
,
0001
1000
0010
0000
,
1000
0001
0010
0000
,
0001
0010
0100
0000
,
1000
0010
0100
0001
,
1000
0000
1000
0000
,
0001
0000
0001
0000
,
0000
1000
0000
1000
,
0000
0010
0000
0010
,
0000
0100
0000
0100
,
0000
0001
0000
0001
,
0000
0010
0000
0010
,
0000
0100
0000
0100
,
0000
1000
0000
1000
,
0000
0001
0000
0001
,
1000
0000
0000
0000
,
0000
0000
0000
0000
;
#NOTES:
     dance-single:
     :
     Medium:
     12:
     :
0000
0000
0000
0000
,
0000
0000
0000
0000
,
0000
0000
0000
0000
,
0000
0000
0000
0000
,
0000
0000
0000
0000
,
2000
0000
0000
0000
,
3002
0000
0000
0000
,
0023
0000
0000
0000
,
0000
0000
0031
0000
0001
0010
0001
0000
,
0000
0000
1000
0000
0100
1000
0100
0000
,
0010
0000
0001
0000
0100
0001
0100
0000
,
0010
0000
1000
0000
0100
0010
0100
0000
,
0010
0000
0001
0000
0100
0010
0100
0000
,
0001
0000
0100
0000
0010
0100
0001
0000
,
1000
0000
0100
0000
0010
0100
1000
0000
,
0001
0000
1000
0000
0010
0100
0010
0000
,
1000
0100
1000
0000
0001
0100
0001
0000
,
1000
0000
0010
0100
0010
0000
1000
0100
,
1000
0100
0010
0001
0010
0001
1000
0000
,
0001
0000
0010
0100
0010
0000
0001
0100
,
0001
0100
0010
1000
0010
1000
0001
0000
,
2000
0001
0010
3001
,
0002
1000
0100
1003
,
1000
0000
0010
0100
0010
0000
1000
0100
,
1000
0010
1000
0100
1000
0001
1000
0000
,
0001
0000
0010
0100
0010
0000
0001
0100
,
0001
0010
0001
0100
0001
1000
0001
0000
,
0002
0010
0100
0013
,
0010
0001
0000
0010
0001
0000
1000
0000
,
0001
0000
0100
0000
0010
1000
0010
0000
,
1000
0000
0100
0000
0010
0001
0010
0000
,
0001
0000
1000
0000
0010
0100
0010
0000
,
1000
0000
0001
0000
0010
0100
0010
0000
,
0001
0010
0001
0010
0100
1000
0100
1000
,
0010
0100
0010
0100
0001
0010
0001
0000
,
1000
0010
1000
0010
0100
0001
0100
0001
,
0010
0100
1000
0001
,
0002
0000
0000
0000
0003
1000
0100
1000
,
0100
0001
0100
1000
,
0020
0000
0000
0000
0030
0100
0001
0100
,
0001
0100
1000
0100
,
0002
0000
0003
1000
,
0001
0100
0010
1000
,
0200
0000
0300
0000
1000
0100
0000
1000
,
0000
0010
1000
0010
1010
0000
0101
0000
,
2000
0000
0000
0000
3000
0001
0100
0001
,
0100
1000
0100
0001
,
0020
0000
0000
0000
0030
0100
1000
0100
,
1000
0100
0001
0100
,
2000
0000
3000
0001
,
1000
0100
0010
0001
,
0200
0000
0300
0000
0001
0010
0000
0001
,
0000
0010
0100
0010
0100
0000
1000
0000
,
0001
0000
0100
0000
0010
1000
0000
0010
,
0000
0100
0000
0001
0100
0000
0010
0000
,
1000
0000
0100
0000
0010
0001
0000
0010
,
0000
0100
0000
1000
0100
0000
0010
0000
,
0001
0010
0100
1000
,
0001
0010
0100
1000
,
0001
0000
0000
0001
1000
0000
0000
0000
,
0010
0100
0000
0100
0001
0000
1000
0000
,
2000
0000
0000
0000
3000
0001
0100
0001
,
0100
1000
0100
0001
,
0020
0000
0000
0000
0030
0100
1000
0100
,
1000
0100
0001
0100
,
2000
0000
3000
0001
,
1000
0100
0010
0001
,
0110
0000
0000
0110
,
0000
1001
0000
0000
,
0002
0000
0000
0000
0003
1000
0100
1000
,
0100
0010
0001
0010
,
0200
0000
0000
0000
0300
0010
0001
0010
,
0001
1000
0010
0100
,
0002
0000
0003
1000
,
0001
0100
0010
1000
,
0200
0000
0300
0000
0010
0100
0000
0010
,
0000
0001
0100
0001
0100
0000
0001
0000
,
0000
0011
0000
1100
,
0000
1001
0000
0110
,
0000
1010
0000
0101
,
0000
1001
0000
0110
,
0000
0011
0000
0110
,
0000
1010
0000
0110
,
0000
1100
0000
0110
,
0000
0011
0000
1001
,
0100
0000
0000
0000
,
0000
0000
0000
0000
;
#NOTES:
     dance-single:
     :
     Hard:
     15:
     :
0000
0000
0000
0000
,
0000
0000
0000
0000
,
0000
0000
0000
0000
,
0000
0000
0000
0000
,
0000
0000
0000
0000
,
1000
0000
0000
1000
0100
0000
0010
0000
,
0001
0000
0000
0001
0100
0000
0010
0000
,
1000
0100
0010
0001
0010
0100
1000
0001
,
1001
0000
1000
0000
0010
0100
0010
0100
,
0000
0000
0001
0000
1000
0100
0001
0100
,
1000
0000
0001
0000
1000
0010
0001
0010
,
1000
0000
0010
0000
0100
0010
0001
0010
,
0100
0000
0001
0000
1000
0100
0010
0100
,
1000
0000
0100
0000
0010
0001
0100
0001
,
0010
0000
0001
0000
1000
0100
0001
0100
,
0010
0000
0001
0000
1000
0010
0001
0010
,
0100
0000
0001
0100
0001
0000
0010
0000
0100
0000
1000
0100
1000
0000
0001
0000
,
0001
0100
0001
0100
0010
1000
0010
1000
,
0100
1000
0100
1000
0001
0010
0001
0010
,
0100
0010
0100
0010
0001
1000
0001
1000
,
0010
0000
1000
0000
0010
0000
1000
0000
0001
0000
0010
0100
0010
0000
0001
0000
,
1000
0000
1000
0100
1000
0100
1000
0000
,
0001
0000
0001
0100
0001
0100
0001
0000
,
1000
0100
1000
0100
0010
0001
0010
0001
,
0100
0001
0100
0001
1000
0010
1000
0010
,
0100
0010
0100
0010
1000
0001
1000
0001
,
0010
0000
0001
0000
0010
0000
0001
0000
1000
0000
0010
0100
0010
0000
1000
0000
,
0001
0000
0001
0100
0001
0100
0001
0000
,
0001
0010
0010
1000
0010
0010
1001
0000
,
1000
0000
1000
0000
0010
0100
0001
0000
,
0100
0000
0100
0000
0001
0010
0100
0000
,
0010
0000
0010
0000
0100
1000
0001
0000
,
0100
0000
0100
0000
0001
1000
0010
0000
,
1000
0100
1000
0010
1000
0001
1000
0010
,
1000
0001
1000
0010
1000
0100
1000
0000
,
0001
0100
0001
0000
1000
0100
1000
0000
,
0010
0000
1000
0100
1000
0000
0001
0000
0010
0000
0100
0000
1000
0000
0001
0000
,
1000
0000
0001
0100
1000
0100
0001
0000
,
1000
0000
0001
0010
1000
0010
0001
0000
,
1000
0000
0001
0010
0100
1000
0001
0000
,
1000
0000
0001
0100
0010
1000
0001
0000
,
1000
0000
0010
0100
1000
0100
0010
0000
,
1000
0000
0100
0010
1000
0010
0100
0000
,
1000
0010
0100
0001
0100
0101
0000
1010
,
0000
1000
0100
1000
1100
0000
0011
0000
,
1000
0000
1000
0100
1000
0010
1000
0000
,
0001
0000
0001
0100
0001
0010
0001
0000
,
1000
0000
1000
0100
0001
0100
1000
0000
,
0001
0000
0001
0100
1000
0100
0001
0000
,
1000
0000
1000
0010
0001
0010
1000
0000
,
0001
0000
0001
0010
1000
0010
0001
0000
,
1000
0100
0010
0001
0010
0011
0000
1100
,
0000
1000
0100
1000
0100
0010
0001
0000
,
1100
0000
0101
0000
1000
0100
0000
0100
,
0000
1000
0000
0001
0100
0000
0001
0000
,
0101
0000
1100
0000
0001
0100
0000
0100
,
0000
0001
0000
1000
0100
0000
0010
0000
,
0001
0010
0001
0010
0100
1000
0100
1000
,
0001
0010
0001
0000
1000
0100
1000
0000
0001
0100
0001
0000
1000
0000
0000
0000
,
0001
0100
1000
0001
0010
1000
0001
0100
,
1000
0000
0001
0000
0010
0000
1000
0000
0001
0100
0001
0000
1000
0010
1000
0000
,
1010
0000
0010
0000
,
0110
0000
0100
0000
,
0101
0000
0001
0000
,
1001
0000
0000
0000
1000
0000
0100
0000
1000
0000
0010
0000
1000
0000
0100
0010
,
0100
0010
0000
0010
0001
0010
0100
1000
,
0010
0100
0000
0100
0001
0100
0010
1000
,
0001
0010
0010
1000
0010
0010
1001
0010
,
0100
1000
1000
0001
1001
0000
0000
0000
,
1000
0000
0010
0100
0010
0000
1000
0000
0001
0000
0010
0000
0100
0000
1000
0000
,
0001
0000
0010
0100
0010
0000
0001
0000
1000
0000
0010
0000
0100
0000
0001
0000
,
0100
0000
0001
0010
0001
0000
0100
0000
1000
0000
0100
0000
0010
0000
1000
0000
,
0100
0000
1000
0010
1000
0000
0100
0000
0001
0000
0100
0000
0010
0000
0001
0000
,
0010
0000
0100
1000
0001
0000
0100
0000
1000
0000
0100
0000
0010
0000
0100
0000
,
0010
0000
0100
0001
1000
0000
0100
0000
0001
0000
0100
0000
0010
0000
0100
0000
,
1000
0000
0001
0000
1000
0000
0010
0100
0010
0000
0100
0001
0100
0000
0001
0010
,
0001
0000
1000
0100
1000
0000
0010
1000
0010
0000
0100
0000
0001
1000
0001
1000
,
0001
1010
1000
0011
,
0001
1010
0100
0011
,
0100
1010
1000
0011
,
0001
1010
0100
0011
,
0100
1010
1000
0011
,
0001
1010
0100
0011
,
0100
1010
1000
0011
,
0001
1010
0100
0011
,
0100
0000
0000
0000
,
0000
0000
0000
0000
;
#NOTES:
     dance-double:
     :
     Easy:
     7:
     :
00000000
00000000
00000000
00000000
,
00000000
00000000
00000000
00000000
,
00000000
00000000
00000000
00000000
,
00000000
00000000
00000000
00000000
,
00000000
00000000
00000000
00000000
,
20000000
00000000
30000000
00000000
,
00020000
00000000
00030000
00000000
,
00200000
00000000
00300000
00000000
,
00000000
00001000
00010000
00011000
,
00000000
00010000
00000000
00010000
,
00000000
00000100
00000000
00000100
,
00000000
00001000
00000000
00001000
,
00000000
00000001
00000000
00000001
,
00000000
00000010
00000000
00001000
,
00000000
00010000
00000000
00001000
,
00100000
00010000
10000000
00010000
,
00100000
00001000
00010000
00000000
,
00011000
00000000
00010000
00000010
,
00001000
00000000
00000100
00000000
,
00001001
00000000
00000001
00000100
,
00000010
00000000
00001000
00000100
,
00020000
00000000
00030000
00000000
,
00002000
00000000
00003000
00000000
,
00011000
00000000
00001000
00100000
,
00010000
00000000
10000000
00000000
,
10010000
00000000
10000000
01000000
,
00100000
00000000
00010000
00100000
,
00002000
00000000
00003000
00000000
,
00020000
00000000
00030000
00000000
,
00000100
00000000
00001000
00000010
,
00000100
00000000
00000001
00000010
,
00000100
00000000
00001000
00000010
,
00010000
00000000
00001000
01000000
,
00020000
00000000
00030000
00000000
,
10000000
00000000
00010000
10000000
,
00200000
00000000
00300000
00000000
,
00100000
00000000
00100000
00000000
,
10000000
01000000
00100000
00000000
,
00010000
00100000
00001000
00000000
,
00010000
00000100
00001000
00000000
,
00000010
00000100
00000001
00000000
,
00000001
00000100
00000010
00000000
,
00001000
00000010
00010000
00001000
,
00010000
00000000
00001000
00000000
,
00100000
00000000
00010000
00000000
,
10000000
00100000
01000000
00000000
,
00010000
01000000
00001000
00000000
,
00010000
00000010
00001000
00000000
,
00000100
00000010
00000001
00000000
,
00000001
00000010
00000100
00000000
,
00001000
00000100
00010000
00001000
,
00010000
00000000
00001000
00000000
,
00100000
00000000
00100000
00000000
,
00200000
00000000
00300000
00000000
,
00002000
00000000
00003000
00000000
,
00020000
00000000
00030000
00000000
,
00000200
00000000
00000300
00000000
,
00001000
00000100
00000010
00000001
,
00000010
00000100
00001000
00000100
,
00010000
00000000
00010000
00000000
,
00001000
00000000
00001000
00000000
,
00011000
00000000
00000000
00000000
,
00110000
00000000
00000000
00000000
,
01100000
00000000
00000000
00000000
,
10010000
00000000
00000000
00000000
,
10000000
01000000
00100000
00000000
,
00100000
00001000
00010000
00000000
,
00001000
00000000
00000000
00000000
,
00010000
00000000
00000000
00000000
,
00000100
00010000
00001000
00000000
,
01000000
00001000
00010000
00000000
,
00000010
00010000
00001000
00000000
,
00100000
00001000
00010000
00000000
,
00010000
00000100
00001000
00000000
,
00000010
00000100
00000001
00001000
,
00000001
00000000
00000100
00000000
,
00001000
00000000
00010000
00000000
,
00000000
00001000
00000000
00001000
,
00000000
00100000
00000000
00100000
,
00000000
00010000
00000000
00010000
,
00000000
10000000
00000000
10000000
,
00000000
01000000
00000000
01000000
,
00000000
00100000
00000000
00100000
,
00000000
00001000
00000000
00001000
,
00000000
00010000
00000000
00010000
,
00001000
00000000
00000000
00000000
,
00000000
00000000
00000000
00000000
;
#NOTES:
     dance-double:
     :
     Medium:
     12:
     :
00000000
00000000
00000000
00000000
,
00000000
00000000
00000000
00000000
,
00000000
00000000
00000000
00000000
,
00000000
00000000
00000000
00000000
,
00000000
00000000
00000000
00000000
,
00020000
00000000
00000000
00000000
,
00032000
00000000
00000000
00000000
,
00203000
00000000
00000000
00000000
,
00000000
00000000
00310000
00000000
00010000
00100000
00010000
00000000
,
00000000
00000000
10000000
00000000
01000000
00100000
01000000
00000000
,
00100000
00000000
00001000
00000000
00010000
00001000
00010000
00000000
,
00000010
00000000
00000100
00000000
00000001
00000010
00000001
00000000
,
00000100
00000000
00000010
00000000
00001000
00000100
00001000
00000000
,
00000100
00000000
00010000
00000000
00001000
00100000
00010000
00000000
,
01000000
00000000
00100000
00000000
10000000
01000000
00100000
00000000
,
00001000
00000000
00010000
00000000
00000100
00001000
00000100
00000000
,
00000010
00000100
00000010
00000000
00000001
00000010
00000001
00000000
,
00001000
00000000
00000001
00000100
00000001
00000000
00001000
00000010
,
00001000
00000010
00000100
00000000
00001000
00000000
00010000
00000000
,
00100000
00000000
10000000
01000000
10000000
00000000
00010000
00100000
,
00010000
00100000
00001000
00000000
00010000
00000000
00000100
00000000
,
00000020
00000100
00000001
00000130
,
00000200
00001000
00000010
00001300
,
00001000
00000000
00000010
00000100
00000010
00000000
00001000
00000100
,
00001000
00000010
00001000
00000100
00010000
00001000
00100000
00000000
,
00010000
00000000
00100000
01000000
00100000
00000000
00010000
01000000
,
00010000
00100000
00010000
01000000
00001000
00010000
00001000
00000000
,
00020000
00001000
00000100
00031000
,
00001000
00010000
00000000
00000100
00001000
00000000
00000010
00000000
,
00001000
00000000
00000001
00000000
00001000
00000010
00001000
00000000
,
00000100
00000000
00010000
00000000
00001000
00100000
00001000
00000000
,
01000000
00000000
00010000
00000000
10000000
00100000
10000000
00000000
,
00010000
00000000
00100000
00000000
00010000
01000000
00010000
00000000
,
00010000
00100000
00010000
00100000
00001000
00010000
00001000
00010000
,
00000100
00001000
00000100
00001000
00000010
00000100
00000010
00000000
,
00000100
00000001
00000100
00000001
00001000
00000100
00001000
00000100
,
00010000
00001000
00100000
00010000
,
20000000
00000000
00000000
00000000
30000000
00010000
00100000
00010000
,
00100000
01000000
00100000
00001000
,
00020000
00000000
00000000
00000000
00030000
00000100
00001000
00000100
,
00001000
00000010
00000100
00000001
,
00002000
00000000
00003000
00000001
,
00000100
00001000
00010000
00100000
,
20000000
00000000
30000000
00000000
00010000
00100000
00000000
00001000
,
00000000
00010000
00000100
00001000
00001100
00000000
00000110
00000000
,
00000002
00000000
00000000
00000000
00000003
00001000
00000010
00001000
,
00000010
00000100
00000010
00010000
,
00002000
00000000
00000000
00000000
00003000
01000000
00010000
01000000
,
00010000
00100000
01000000
10000000
,
00020000
00000000
00030000
10000000
,
01000000
00010000
00001000
00000010
,
00000002
00000000
00000003
00000000
00001000
00000010
00000000
00010000
,
00000000
00001000
00010000
00001000
00010000
00000000
00100000
00000000
,
01000000
00000000
00010000
00000000
00100000
01000000
00000000
10000000
,
00000000
01000000
00000000
00010000
00001000
00000000
00000010
00000000
,
00000100
00000000
00001000
00000000
00000010
00000100
00000000
00000001
,
00000000
00000100
00000000
00000001
00001000
00000000
00000001
00000000
,
00000100
00000010
00001000
00010000
,
01000000
00100000
10000000
00010000
,
00100000
00000000
00000000
00100000
00001000
00000000
00000000
00000000
,
00010000
00000100
00000000
00000100
00001000
00000000
00000001
00000000
,
00002000
00000000
00000000
00000000
00003000
00000010
00000100
00000010
,
00000100
00001000
00010000
00100000
,
02000000
00000000
00000000
00000000
03000000
00100000
10000000
00100000
,
10000000
01000000
00010000
00001000
,
00000020
00000000
00000030
00000001
,
00000010
00000100
00010000
00001000
,
00011000
00000000
00000000
00101000
,
00000000
00110000
00000000
00000000
,
20000000
00000000
00000000
00000000
30000000
00010000
00100000
00010000
,
00100000
01000000
00100000
00001000
,
00020000
00000000
00000000
00000000
00030000
00000100
00001000
00000100
,
00001000
00000010
00000100
00000001
,
00002000
00000000
00003000
00000001
,
00000100
00001000
00010000
00100000
,
20000000
00000000
30000000
00000000
00010000
00100000
00000000
00001000
,
00000000
00010000
00000100
00001000
00000010
00000000
00001000
00000000
,
00000000
00001010
00000000
00000101
,
00000000
00000011
00000000
00001100
,
00000000
00011000
00000000
00110000
,
00000000
01100000
00000000
11000000
,
00000000
00110000
00000000
01010000
,
00000000
10100000
00000000
01100000
,
00000000
01001000
00000000
00011000
,
00000000
00010100
00000000
00000110
,
00000001
00000000
00000000
00000000
,
00000000
00000000
00000000
00000000
;
#NOTES:
     dance-double:
     :
     Hard:
     15:
     :
00000000
00000000
00000000
00000000
,
00000000
00000000
00000000
00000000
,
00000000
00000000
00000000
00000000
,
00000000
00000000
00000000
00000000
,
00000000
00000000
00000000
00000000
,
10000000
00000000
00000000
10000000
01000000
00000000
00100000
00000000
,
00001000
00000000
00000000
00001000
00010000
00000000
00000010
00000000
,
00001000
00000100
00000010
00000001
00000010
00000100
00001000
00000100
,
00001100
00000000
00001000
00000000
00000010
00010000
00000010
00010000
,
00000000
00000000
00001000
00000000
00010000
00100000
10000000
00100000
,
00010000
00000000
00001000
00000000
00001000
00000010
00000001
00000010
,
00001000
00000000
00010000
00000000
01000000
00100000
00010000
00100000
,
01000000
00000000
00010000
00000000
00001000
00000100
00000010
00000100
,
00001000
00000000
00010000
00000000
00001000
00000010
00000100
00000010
,
00001000
00000000
00010000
00000000
00001000
00000100
00000001
00000100
,
00001000
00000000
00010000
00000000
00010000
00100000
10000000
00100000
,
01000000
00000000
00010000
01000000
00010000
00000000
00100000
00000000
01000000
00000000
10000000
01000000
10000000
00000000
00010000
00000000
,
10000000
00100000
10000000
00100000
01000000
00010000
01000000
00010000
,
00100000
00001000
00100000
00001000
00010000
00000100
00010000
00000100
,
00001000
00000010
00001000
00000010
00000100
00000001
00000100
00000001
,
00000010
00000000
00000001
00000000
00000010
00000000
00000001
00000000
00001000
00000000
00000010
00000100
00000010
00000000
00001000
00000000
,
00000010
00000000
00000010
00001000
00000100
00010000
00001000
00000000
,
00010000
00000000
00001000
00100000
00010000
01000000
00100000
00000000
,
10000000
01000000
10000000
01000000
00100000
00010000
00100000
00010000
,
00001000
00000100
00001000
00000100
00000010
00000001
00000010
00000001
,
00000100
00000010
00001000
00000100
00010000
00001000
00100000
00010000
,
01000000
00000000
00100000
00000000
10000000
00000000
01000000
00000000
10000000
00000000
00100000
01000000
00100000
00000000
01000000
00000000
,
00010000
00000000
00100000
00001000
00010000
00000100
00001000
00000000
,
00000001
00000010
00000010
00001000
00000010
00000010
00001001
00000000
,
00000001
00000000
00000001
00000000
00000010
00001000
00010000
00000000
,
00001000
00000000
00001000
00000000
00010000
00100000
10000000
00000000
,
10000000
00000000
10000000
00000000
01000000
00010000
00001000
00000000
,
00010000
00000000
00010000
00000000
00001000
00000100
00000001
00000000
,
00000001
00000010
00000001
00000100
00000010
00001000
00000100
00010000
,
00001000
00100000
00010000
01000000
00100000
10000000
01000000
00000000
,
10000000
00100000
10000000
00000000
00010000
01000000
00010000
00000000
,
01000000
00000000
00001000
00010000
00001000
00000000
00010000
00000000
00000100
00000000
00001000
00000000
00000010
00000000
00010000
00000000
,
00001000
00000000
00010000
00100000
10000000
00100000
00010000
00000000
,
00001000
00000000
00001000
00000010
00000001
00000010
00001000
00000000
,
00010000
00000000
01000000
00100000
00010000
00100000
01000000
00000000
,
00010000
00000000
00001000
00000100
00000010
00000100
00001000
00000000
,
00010000
00000000
00001000
00000010
00000100
00000010
00001000
00000000
,
00010000
00000000
00001000
00000100
00000001
00000100
00001000
00000000
,
00010000
00000000
00001000
00100000
00010000
00110000
00000000
11000000
,
00000000
10000000
01000000
00100000
00101000
00000000
00011000
00000000
,
00010000
00000000
00001000
00000010
00000001
00000010
00001000
00000000
,
00010000
00000000
00010000
00100000
10000000
00100000
00010000
00000000
,
00001000
00000000
00000100
00000010
00001000
00000010
00000100
00000000
,
00001000
00000000
00010000
01000000
00100000
01000000
00010000
00000000
,
00001000
00000000
00010000
00100000
01000000
00100000
00010000
00000000
,
00001000
00000000
00010000
01000000
10000000
01000000
00010000
00000000
,
00001000
00000000
00001000
00000010
00000001
00000010
00000100
00001000
,
00010000
00100000
01000000
10000000
01000000
00100000
00010000
00000000
,
00110000
00000000
00101000
00000000
00001000
00010000
00000000
00010000
,
00000000
00001000
00000000
00000100
00000001
00000000
00000001
00000000
,
00001010
00000000
00010010
00000000
00010000
00001000
00000000
00001000
,
00000000
00010000
00000000
01000000
10000000
00000000
10000000
00000000
,
00010000
00100000
00010000
00100000
01000000
10000000
01000000
10000000
,
01000000
00100000
01000000
00000000
00100000
00010000
00100000
00000000
00001000
00010000
00001000
00000000
00010000
00000000
00000000
00000000
,
00001000
00000100
00000001
00001000
00000010
00000001
00001000
00000100
,
00000001
00001000
00000010
00000001
00001000
00010000
00100000
10000000
,
10010000
00000000
00100000
00000000
,
00101000
00000000
00010000
00000000
,
00011000
00000000
00000100
00000000
,
00001001
00000000
00000001
00000100
00000010
00001000
00000100
00010000
,
00001000
00100000
00000000
00100000
00010000
00100000
01000000
10000000
,
00100000
01000000
00000000
01000000
00010000
01000000
00100000
10000000
,
00010000
00100000
00100000
10000000
00100000
00100000
10010000
00100000
,
01000000
10000000
10000000
00010000
10010000
00000000
00000000
00000000
,
10000000
00000000
00100000
01000000
00100000
00000000
10000000
00000000
00010000
00000000
01000000
00000000
00010000
00000000
00100000
00000000
,
00001000
00000000
00010000
00001000
00010000
00000000
00000100
00000000
00001000
00000000
00000010
00000000
00000100
00000000
00000001
00000000
,
00000010
00000000
00000001
00000010
00000001
00000000
00000100
00000000
00000001
00000000
00001000
00000000
00000010
00000000
00010000
00000000
,
00000100
00000000
00010000
00001000
00010000
00000000
00001000
00000000
00100000
00000000
00010000
00000000
01000000
00000000
00100000
00000000
,
10000000
00000000
01000000
10000000
00010000
00000000
00100000
00000000
00001000
00000000
00010000
00000000
00000100
00000000
00001000
00000000
,
00000010
00000000
00000100
00000001
00001000
00000000
00000100
00000000
00010000
00000000
00001000
00000000
00100000
00000000
00010000
00000000
,
01000000
00000000
00010000
00000000
10000000
00000000
00100000
01000000
00100000
00000000
01000000
00010000
01000000
00000000
00010000
00100000
,
00010000
00000000
00100000
00001000
00100000
00000000
00001000
00010000
00001000
00000000
00010000
00000000
00000100
00010000
00000100
00010000
,
00000100
00001010
00000101
00000011
,
00001001
00001010
00010100
00011000
,
01001000
00101000
00110000
01010000
,
01100000
10100000
11000000
00110000
,
01001000
00011000
00010100
00010010
,
00001100
00000011
00000110
00001100
,
00001001
00001010
00010010
00101000
,
00110000
01100000
10010000
00110000
,
11000000
00000000
00000000
00000000
,
00000000
00000000
00000000
00000000
;
