
//----- song ID: hyno -----//
#TITLE:HyperNOAH;
#ARTIST:SK MUSIC;
#BANNER:HyperNOAH.png;
#BACKGROUND:HyperNOAH-bg.png;
#CDTITLE:./CDTitles/DDR WORLD.png;
#MUSIC:HyperNOAH.ogg;
#SAMPLESTART:84.452;
#SAMPLELENGTH:15;
#BPMS:0=152;
#BGSTAGE:16;
#NOTES:
     dance-single:
     :
     Beginner:
     3:
     :
0000
0000
0000
0000
,
0000
0000
0000
0000
,
0000
0000
0000
0000
,
0000
0000
0000
0000
,
0000
0000
0000
0000
,
0001
0000
0000
0000
,
0000
0000
0000
0000
,
1000
0000
0000
0000
,
1001
0000
0000
0000
,
0001
0000
0000
0000
,
0100
0000
0000
0000
,
0001
0000
0000
0000
,
1000
0000
0000
0000
,
0010
0000
0010
0000
,
0100
0000
0000
0000
,
0001
0000
0100
0000
,
0001
0000
0000
0000
,
1000
0000
0010
0000
,
1000
0000
0000
0000
,
0010
0000
0100
0000
,
0010
0000
0000
0000
,
0100
0000
0001
0000
,
0100
0000
0001
0000
,
1000
0000
0100
0000
,
1000
0000
0000
0000
,
0010
0000
0000
0000
,
0000
0000
0000
0000
,
1000
0000
0001
0000
,
1000
0000
0001
0000
,
0100
0000
0000
0000
,
0100
0000
0000
0000
,
0010
0000
0000
0000
,
1000
0000
0001
0000
,
1000
0000
0000
0000
,
1000
0000
0000
0000
,
0001
0000
0010
0000
,
0001
0000
0000
0000
,
0010
0000
0100
0000
,
0010
0000
0000
0000
,
0001
0000
1000
0000
,
0001
0000
0000
0000
,
0100
0000
0010
0000
,
0100
0000
0010
0000
,
1000
0000
0000
0000
,
0001
0000
0000
0000
,
0200
0000
0000
0300
,
0020
0000
0000
0030
,
0200
0000
0000
0300
,
0002
0000
0000
0003
,
1000
0000
0010
0000
,
1000
0000
0010
0000
,
1000
0000
0001
0000
,
1001
0000
0000
0000
,
0000
0000
1000
0000
,
0010
0000
1000
0000
,
0000
0000
0001
0000
,
0100
0000
0001
0000
,
0000
0000
0100
0000
,
0010
0000
0100
0000
,
0000
0000
0001
0000
,
1000
0000
1001
0000
,
0000
0000
0001
0000
,
0000
0000
0000
0000
,
0000
0000
0010
0000
,
0100
0000
0010
0000
,
0000
0000
0001
0000
,
1000
0000
0001
0000
,
0000
0000
0010
0000
,
0100
0000
0010
0000
,
0000
0000
1000
0000
,
0100
0000
1000
0000
,
0100
0000
0010
0000
,
0001
0000
1000
0000
,
0001
0000
1001
0000
,
0000
0000
1001
0000
,
0000
0000
0000
0000
;
#NOTES:
     dance-single:
     :
     Easy:
     5:
     :
0000
0000
0000
0000
,
0000
0000
0000
0000
,
0000
0000
0000
0000
,
0000
0000
0000
0000
,
0000
0000
0000
0000
,
1000
0000
0001
0000
,
0100
0000
0001
0000
,
1000
0000
0000
0000
,
1001
0000
0000
0000
,
0001
0000
0001
0000
,
0100
0010
0100
0000
,
0010
0000
0010
0000
,
1000
0001
1000
0000
,
0001
0100
0001
0100
,
0010
1000
0010
0000
,
1000
0001
1000
0100
,
0010
0001
1000
0001
,
0100
0001
1000
0100
,
0010
0000
0001
1000
,
0010
0000
0110
0000
,
0110
0000
1001
0000
,
1000
0000
0010
0100
,
0010
0000
0100
0000
,
0001
0000
1000
0000
,
0010
0100
0110
0000
,
1000
0000
0010
0000
,
0100
0001
1000
0001
,
1001
0000
0100
0000
,
0110
0000
0001
0000
,
1001
0000
0000
0000
,
0010
0000
0100
0010
,
0110
0000
0000
0000
,
1000
0001
0100
0000
,
0110
0000
0000
0000
,
0001
0010
0100
0000
,
1000
0000
0001
0000
,
1001
0000
0000
0000
,
1000
0010
1010
0000
,
0001
0010
0011
0000
,
1000
0010
0100
0010
,
1000
0001
0010
0000
,
0001
0100
0010
0100
,
0010
1000
0001
1000
,
1001
0000
0100
0010
,
0110
0000
1000
0001
,
2000
0000
3200
0000
,
0320
0000
0032
0000
,
2003
0000
3002
0000
,
0023
0000
0230
0000
,
1300
1000
0001
0001
,
0100
0100
0010
0010
,
1000
0010
1000
0001
,
1001
0000
0110
0000
,
0000
0000
1000
0001
,
0100
0010
1000
0000
,
0001
0000
0100
0000
,
0110
0000
1001
0000
,
0110
0000
0001
0000
,
1000
0000
0100
0010
,
0100
0000
1000
0001
,
0010
0001
1000
0010
,
0100
0000
0001
0000
,
1000
0000
0100
0000
,
0010
0100
0010
0000
,
0110
0000
0011
0000
,
1100
0000
1000
0010
,
1000
0001
0100
0010
,
0100
0000
0001
0010
,
0001
1000
0100
1000
,
0001
1000
0001
0001
,
0100
0010
1000
1000
,
0100
0010
0001
0100
,
0001
0100
0010
1000
,
0001
1000
1001
0000
,
0110
0000
0001
1000
,
1001
0000
0000
0000
,
0000
0000
0000
0000
;
#NOTES:
     dance-single:
     :
     Medium:
     9:
     :
0000
0000
0000
0000
,
0000
0000
0000
0000
,
0000
0000
0000
0000
,
0000
0000
0000
0000
,
0000
0000
0000
0000
,
1000
0100
0010
0001
,
1000
0000
0001
0000
,
0100
0000
0000
0010
0000
0000
0000
0000
,
0110
0000
0000
0000
,
0001
0000
0100
0020
0000
0230
0000
0300
,
0001
0000
1000
0200
0000
2300
0000
3000
,
0100
0000
0010
0002
0000
0023
0000
0030
,
0001
0000
1000
0020
0000
0130
0010
0000
,
1000
0100
1000
0100
,
0010
0001
0010
0001
,
0100
0010
0100
0000
0010
0100
0010
0000
,
1000
0100
1000
0001
0100
0000
0110
0000
,
0001
0010
0100
1000
,
0001
0000
0000
0000
0000
0000
0100
0000
0010
0000
0000
0100
0000
0000
0001
0000
,
0010
0000
0000
0100
0000
0000
0010
0000
0000
0000
0001
0000
0100
0000
0001
0000
,
0000
1000
0100
1000
0000
0010
0100
0000
,
0001
0000
1000
0010
1000
0000
0010
0000
,
0100
0001
1000
0010
,
0100
0000
0001
0100
0001
0000
0010
0000
,
0100
0010
0100
0000
1000
0000
1001
0000
,
0010
0000
0000
0110
0000
0000
1001
0000
,
0000
1000
0001
0000
0100
0000
0010
0000
,
1000
0000
0100
1000
0000
0001
0010
0001
,
0000
0100
0010
0100
0000
0010
1000
0010
,
0100
0000
0001
0000
,
1000
0000
0000
0000
0000
0100
0010
0100
,
0010
0000
0001
0000
,
0100
0000
0000
0010
0000
0000
1000
0000
0000
0000
0001
0000
0000
0100
0000
0000
,
0001
0000
0000
0000
0000
1000
0100
1000
,
0100
0000
0000
0010
0000
0000
0100
0000
0000
0000
1000
0000
0010
0000
1000
0000
,
0010
0000
0000
0100
0000
0000
0001
0000
0000
0000
0010
0000
0100
0000
0010
0000
,
0000
0000
0000
0000
0000
0000
0000
0000
0000
0000
0001
0000
0000
1000
0000
0000
,
1001
0000
0001
0000
0100
0010
0000
0000
,
1000
0000
0010
0000
0100
0010
0100
0000
,
0001
0010
0001
0000
1000
0010
1000
0000
,
0010
0100
0010
0000
1000
0000
0001
0000
,
0100
0101
1001
1100
,
1000
0000
0100
0000
0010
0001
0010
0000
,
0001
0100
0001
0000
1000
0000
0010
0000
,
0100
0001
0100
0000
0010
0000
1000
0000
,
0002
0000
0000
2003
0000
0000
3000
0000
,
0200
0000
0000
0320
0000
0000
0030
0000
,
0002
0000
0000
0203
0000
0000
0300
0000
,
0020
0000
0000
2030
0000
0000
3000
0000
,
0001
0010
0001
0010
,
0100
1000
0100
1000
,
0010
0100
0010
0000
0100
0010
0100
0000
,
0001
0010
0001
1000
0010
0100
,
0000
0000
0001
0010
,
0100
0000
1000
0000
0001
0000
0000
0100
,
0010
0000
0000
0100
0000
0000
0001
0000
1000
0000
0000
0100
0000
0000
1000
0000
,
0001
0000
0000
0010
0000
0000
0100
0000
0000
0000
1000
0000
0010
0000
1000
0000
,
0000
0001
0100
0000
0001
0000
0010
0100
,
0010
0000
0001
0000
1000
0000
0010
0100
,
0000
0000
0010
0000
0000
1000
0000
0000
0100
0000
0000
0000
1000
0000
0000
0000
,
0001
0000
0100
0000
0010
0100
0010
0000
,
1000
0000
1001
0000
0100
0000
0000
0110
,
0000
0000
1001
0000
0000
0001
1000
0000
,
0010
0000
0100
0000
0001
0000
0010
0001
,
0000
1000
0100
1000
0000
0010
0100
0010
,
0000
0100
0001
0100
0010
0000
1000
0100
,
0000
0010
0000
0000
0001
0000
0100
0010
,
0000
1000
0000
0000
0001
0000
0100
0010
,
0000
0000
1000
0000
0000
0001
0000
0000
1000
0000
0000
0000
0100
0000
0010
0000
,
0000
0001
0100
0000
0010
0000
1000
0000
,
0010
0100
0001
0010
,
0100
0010
0100
0000
1000
0010
1000
0000
,
0001
0010
0001
0000
1000
0100
1000
0100
,
0010
0000
0000
0110
0000
0000
0001
0000
1000
0000
0000
0000
,
0001
0000
1000
0000
0000
0000
1001
0000
0000
0110
0000
0000
,
1000
0001
1000
0000
0000
0000
,
0000
0000
0000
0000
;
#NOTES:
     dance-single:
     :
     Hard:
     12:
     :
0000
0000
0000
0000
,
0000
0000
0000
0000
,
0000
0000
0000
0000
,
0000
0000
0000
0000
,
0000
0000
0000
0000
,
0001
0010
0100
1000
,
0001
0000
0000
0000
0000
0000
0000
0000
0100
0000
0000
0001
0000
0000
1000
0000
,
0010
0000
0000
0100
0000
0000
0000
0000
,
1001
0000
0000
0001
0010
0100
1000
0100
,
0000
1000
0010
2000
0000
3002
0000
0103
,
0100
0001
0010
0002
0000
2003
0000
3000
,
0000
0010
0100
0020
0000
2030
0000
3001
,
0001
0010
0100
0010
0000
0001
0100
0000
,
0001
1000
0100
0010
0000
0100
0010
0001
,
1000
0010
0100
0010
0000
1000
0100
0000
,
1000
0010
1000
0001
0100
0010
0100
0001
,
0010
0100
1000
0001
0100
0010
1000
0001
,
0100
1001
1100
0110
,
0011
0000
0000
0000
1000
0000
0001
0100
0001
0000
0000
1000
0010
0000
1000
0000
,
0001
0000
0000
0010
0100
0000
0010
0000
0000
0000
0001
0000
0100
0000
0110
0000
,
0000
1000
0100
0010
0000
0001
0100
0010
,
1000
0000
0000
0000
0001
0000
0010
0000
0100
0000
0000
1000
0001
0000
1000
0000
,
0100
1000
0001
1000
0010
0100
0001
0100
,
0010
0000
0000
0000
1000
0000
0100
0010
0100
0000
0000
0000
1000
0000
0001
0000
,
0100
0000
0001
0100
0000
0001
0000
0010
0000
0100
1000
0000
0010
0000
0100
0000
,
0001
0000
0000
0011
0000
0000
1000
0000
0000
1100
0000
0000
0110
0000
0000
0000
,
0000
0001
0100
0001
1000
0010
0100
0001
,
1000
0000
0001
1001
0000
0010
0100
0110
,
0000
1000
0001
0101
0000
1000
0100
0010
,
0001
0000
0000
1000
0100
0000
0000
0010
,
0100
0000
0000
0000
1000
0010
0100
0001
,
0100
0000
0000
0001
0010
0000
0100
0010
,
0001
0000
0000
1000
0000
0000
0010
0000
0000
0000
1000
0000
0000
0100
0000
0000
,
0010
0000
0000
0001
1000
0001
1000
0100
,
0010
0000
0000
0001
0000
0100
0010
0000
0000
0000
1000
0000
0010
0000
1000
0000
,
0001
0000
0000
0100
0000
0010
0100
0000
0000
0000
0001
0000
0010
0000
0100
0000
,
0000
0000
0000
0000
0000
0000
0000
0000
0000
0000
1100
0000
0000
0110
0000
0000
,
1001
0000
0001
0010
0100
1000
0000
0010
,
1000
0010
0100
0001
1000
0001
0100
0010
,
1000
0100
1000
0001
0010
0100
0010
0001
,
1000
0000
0100
0010
0000
0100
0000
0010
0000
0001
0100
0000
0001
0000
1000
0000
,
0010
0000
0100
0100
0001
0001
1000
1000
,
0100
0010
0001
1000
0010
0100
0010
1000
,
0001
0000
0010
0100
0000
0010
0000
0001
0000
1000
0010
0000
0100
0000
0001
0000
,
1000
0000
0100
0010
0000
0001
0000
1000
0000
0010
0100
0000
0001
0000
0010
0000
,
0200
0000
0000
0320
0000
0000
0030
0000
,
0002
0000
0000
2003
0000
0000
3000
0000
,
0020
0000
0000
0230
0000
0000
0300
0000
,
0002
0000
0000
0023
0000
0000
0030
0000
,
0001
0100
0001
0100
0010
1000
0010
1000
,
0001
0010
0001
0010
0100
1000
0100
1000
,
0001
0100
0010
1000
0100
0010
0001
1000
,
1100
0001
0010
0011
1000
0010
,
0000
0000
1000
0001
,
0010
0000
0000
0000
0100
0000
0000
0000
1000
0000
0000
0000
0000
0000
0010
1000
,
0010
0000
0000
0100
0000
0000
0001
0000
1000
0000
0000
0100
0000
0000
0010
0000
,
0110
0000
0000
0011
0000
0000
1001
0000
0000
0000
0001
0000
0100
0000
0010
0000
,
0000
1000
0100
0010
0001
0000
1000
0010
,
0100
0000
0000
0010
0000
0000
0100
0000
0001
0000
0010
0000
0100
0000
1000
0000
,
0000
0000
0001
0000
0100
0010
0000
0000
1000
0000
0000
0000
0001
0000
1000
0000
,
0001
0000
0010
0000
0100
0000
1000
0000
0001
0000
0100
0010
0000
1000
0000
0001
,
0000
0010
0001
0000
1000
0000
0100
0000
1100
0000
0000
0001
0000
0000
0101
0000
,
0000
0010
0000
0000
1010
0000
0000
0000
0000
0000
0001
0000
0100
0000
0001
0000
,
1000
0010
1000
0100
0010
0000
0100
0110
,
0000
0001
0100
0110
0000
1000
0100
0110
,
0000
0001
0010
0100
1000
0000
0010
1000
,
0000
0010
0100
0001
1000
0100
0010
0011
,
0000
1100
0000
0000
1000
0100
0010
0001
,
0000
0000
0100
0000
0010
0100
0000
0001
0100
0000
0001
0000
0010
0000
0100
0000
,
0000
1000
0010
1000
0001
0010
0001
1000
,
0100
0010
0001
1000
0010
0100
0010
1000
,
0100
0010
0001
0000
1000
0100
1000
0010
,
0100
0001
0010
0001
1000
0100
0010
0001
,
1000
0000
0000
0100
0000
0000
0010
0000
0000
0001
0000
0000
1000
0000
0000
0000
1010
0000
0000
0000
0000
0000
0000
0000
,
0001
0000
0101
0000
0000
0000
1000
0001
1000
0001
1000
0001
,
0100
0010
0100
0000
0000
0000
,
0000
0000
0000
0000
;
#NOTES:
     dance-double:
     :
     Easy:
     5:
     :
00000000
00000000
00000000
00000000
,
00000000
00000000
00000000
00000000
,
00000000
00000000
00000000
00000000
,
00000000
00000000
00000000
00000000
,
00000000
00000000
00000000
00000000
,
10000000
00000000
00010000
00000000
,
01000000
00000000
00001000
00000000
,
00010000
00000000
00000000
00000000
,
00011000
00000000
00000000
00000000
,
00010000
00000000
00010000
00000000
,
00000100
00001000
00000100
00000000
,
00000010
00000000
00000010
00000000
,
00000001
00001000
00000001
00000000
,
00001000
00000100
00001000
00000100
,
00010000
00001000
00010000
00000000
,
00001000
01000000
00010000
01000000
,
00010000
10000000
00100000
01000000
,
00010000
01000000
00001000
00010000
,
00001000
00000000
00010000
00000010
,
00001000
00000000
00000001
00000000
,
00001001
00000000
00000000
00000000
,
00001000
00000000
00000100
00010000
,
00001000
00000000
00010000
00000000
,
00001000
00000000
01000000
00000000
,
00010000
10000000
10010000
00000000
,
00010000
00000000
00100000
00000000
,
00001000
00010000
00001000
00010000
,
00000010
00000000
00001000
00000000
,
00000001
00000000
00000010
00000000
,
00000110
00000000
00000000
00000000
,
00011000
00000000
00000000
00000000
,
01100000
00000000
00000000
00000000
,
10010000
00000000
00000000
00000000
,
00110000
00000000
00000000
00000000
,
00011000
00000000
00000000
00000000
,
00010000
00000000
00001000
00000000
,
00000100
00000000
00000000
00000000
,
00000001
00000010
00000001
00000000
,
00001000
00000010
00010000
00000000
,
00001000
00010000
00100000
10000000
,
00010000
01000000
00001000
00000000
,
00010000
00000010
00001000
00000010
,
00001000
00000100
00000010
00000001
,
00000011
00000000
00001000
00000100
,
00001100
00000000
00000100
00010000
,
00002000
00000000
00023000
00000000
,
02030000
00000000
23000000
00000000
,
30200000
00000000
02300000
00000000
,
03020000
00000000
00032000
00000000
,
00003100
00000100
00000010
00000010
,
00000001
00000001
00001000
00001000
,
00000010
00010000
00001000
00100000
,
00110000
00000000
11000000
00000000
,
00000000
00000000
10000000
01000000
,
00100000
00010000
00100000
00000000
,
00001000
00000000
00010000
00000000
,
00011000
00000000
00010010
00000000
,
00001010
00000000
00000001
00000000
,
00001000
00000000
00000010
00010000
,
00000010
00000000
00010000
00001000
,
00010000
00100000
10000000
00010000
,
10000000
00000000
01000000
00000000
,
00010000
00000000
00001000
00000000
,
00000010
00000001
00001000
00000000
,
00001100
00000000
00010100
00000000
,
00011000
00000000
00001000
01000000
,
00010000
00100000
01000000
10000000
,
01000000
00000000
10000000
00010000
,
00100000
00001000
00010000
00000100
,
00001000
00000001
00000010
00000010
,
00000100
00001000
00000100
00000100
,
00010000
00001000
00100000
00010000
,
00100000
00010000
01000000
00100000
,
10000000
01000000
01100000
00000000
,
00110000
00000000
00001000
00010000
,
00011000
00000000
00000000
00000000
,
00000000
00000000
00000000
00000000
;
#NOTES:
     dance-double:
     :
     Medium:
     9:
     :
00000000
00000000
00000000
00000000
,
00000000
00000000
00000000
00000000
,
00000000
00000000
00000000
00000000
,
00000000
00000000
00000000
00000000
,
00000000
00000000
00000000
00000000
,
00000001
00000010
00000100
00001000
,
00000100
00000000
00010000
00000000
,
00001000
00000000
00000000
01000000
00000000
00000000
00000000
00000000
,
01100000
00000000
00000000
00000000
,
10000000
00000000
01000000
00200000
00000000
00320000
00000000
00030000
,
00100000
00000000
00001000
00020000
00000000
00030020
00000000
00000030
,
00001000
00000000
00000001
00000200
00000000
00000320
00000000
00000030
,
00001000
00000000
00000100
00020000
00000000
00031000
00010000
00000000
,
00001000
01000000
00010000
01000000
,
00100000
10000000
00100000
10000000
,
00010000
00100000
00001000
00010000
,
00000100
00000000
00001000
00000000
00000010
00000100
00000010
00000000
,
00001000
00000001
00000100
00000010
,
00001000
00000000
00000000
00000000
00000000
00000000
00000100
00000000
00010000
00000000
00000000
00001000
00000000
00000000
00100000
00000000
,
00010000
00000000
00000000
10000000
00000000
00000000
01000000
00000000
00000000
00000000
10000000
00000000
00100000
00000000
10000000
00000000
,
00000000
00010000
00100000
00010000
00000000
00100000
00001000
00000000
,
00010000
00000010
00001000
00000010
,
00001000
00000100
00000010
00000001
,
00001000
00000010
00010000
00001000
,
01000000
00010000
01000000
00000000
00010000
00000000
10010000
00000000
,
00100000
00000000
00000000
01100000
00000000
00000000
00011000
00000000
,
00000000
00010000
00001000
00000100
,
00000001
00000000
00000010
00000100
00000000
00001000
00000100
00001000
,
00000000
00000100
00010000
00000100
00000000
00010000
00001000
00010000
,
00001000
00000000
01000000
00000000
,
00010000
00000000
00000000
00000000
00000000
10000000
00100000
10000000
,
00100000
00000000
01000000
00000000
,
00001000
00000000
00000000
00010000
00000000
00000000
00001000
00000000
00000000
00000000
00000010
00000000
00000000
00000001
00000000
00000000
,
00000010
00000000
00000000
00000000
00000000
00000001
00000100
00000001
,
00000100
00000000
00000000
00000010
00000000
00000000
00001000
00000000
00000000
00000000
00000100
00000000
00010000
00000000
00000100
00000000
,
00010000
00000000
00000000
00001000
00000000
00000000
00010000
00000000
00000000
00000000
01000000
00000000
00100000
00000000
01000000
00000000
,
00000000
00000000
00000000
00000000
00000000
00000000
00000000
00000000
00000000
00000000
10000000
00000000
00000000
00010000
00000000
00000000
,
10010000
00000000
10000000
00000000
01000000
00100000
00000000
00000000
,
00010000
00000000
00100000
00000000
00001000
00010000
00001000
00000000
,
00010000
00010000
00000010
00000010
,
00001000
00000100
00001000
00000000
00000001
00000000
00000100
00000000
,
00000001
00000001
00000100
00001000
,
00010000
00100000
10000000
00010000
,
01000000
00100000
01000000
00000000
00001000
00000000
00010000
00000000
,
00000100
00000010
00000100
00000000
00001000
00000000
00000001
00000000
,
00000200
00000000
00000000
00000320
00000000
00000000
00000030
00000000
,
00002000
00000000
00000000
00003200
00000000
00000000
00000300
00000000
,
00020000
00000000
00000000
00032000
00000000
00000000
00003000
00000000
,
02000000
00000000
00000000
03020000
00000000
00000000
00030000
00000000
,
10000000
00100000
10000000
00100000
,
01000000
00010000
01000000
00010000
,
00100000
00001000
00010000
00000000
00000100
00001000
00000001
00000000
,
00001000
00000100
00010000
00001000
01000000
00010000
,
00000000
00000000
10000000
01000000
,
00100000
00000000
00010000
00000000
10000000
00000000
00000000
00010000
,
00100000
00000000
00000000
00001000
00000000
00000000
00010000
00000000
00000010
00000000
00000000
00001000
00000000
00000000
00000010
00000000
,
00001000
00000000
00000000
00000100
00000000
00000000
00000010
00000000
00000000
00000000
00000001
00000000
00000100
00000000
00000001
00000000
,
00000000
00001000
00000100
00000000
00010000
00000000
00001000
00000000
,
01000000
00000000
00010000
00000000
10000000
00000000
00100000
01000000
,
00000000
00000000
00010000
00000000
00000000
00100000
00000000
00000000
00001000
00000000
00000000
00000000
00010000
00000000
00000000
00000000
,
00000100
00000000
00001000
00000000
00000001
00000010
00000001
00000000
,
00001000
00000000
00001001
00000000
00000010
00000000
00000000
00000110
,
00000000
00011000
00000000
00001000
,
00010000
00000000
00100000
00000000
10000000
00000000
01000000
00100000
,
00000000
00010000
00100000
00010000
00000000
00100000
00001000
00100000
,
00000000
00001000
00010000
00001000
00010000
00000000
00001000
00000100
,
00000000
00001000
00000000
00000000
00010000
00000000
00100000
00010000
,
00000000
00001000
00000000
00000000
00010000
00000000
00001000
00000010
,
00000000
00000000
00000001
00000000
00000000
00001000
00000000
00000000
00000001
00000000
00000000
00000000
00000010
00000000
00000100
00000000
,
00000000
00001000
00000100
00000000
00010000
00000000
00001000
00000000
,
01000000
00010000
00100000
01000000
,
10000000
00000000
00010000
00000000
00100000
00001000
00100000
00000000
,
00001000
00010000
00001000
00000000
00010000
00000100
00010000
00000000
,
00000010
00000000
00000000
00000110
00000000
00000000
00000001
00000000
00001000
00000000
00000000
00000000
,
00000010
00000000
00000100
00000000
00000000
00000000
00000001
00000000
00000000
00000010
00000000
00000000
,
00001000
00010000
00001000
00000000
00000000
00000000
,
00000000
00000000
00000000
00000000
;
#NOTES:
     dance-double:
     :
     Hard:
     12:
     :
00000000
00000000
00000000
00000000
,
00000000
00000000
00000000
00000000
,
00000000
00000000
00000000
00000000
,
00000000
00000000
00000000
00000000
,
00000000
00000000
00000000
00000000
,
10000000
01000000
00100000
00010000
,
01000000
00000000
00000000
00000000
00000000
00000000
00000000
00000000
00001000
00000000
00000000
00010000
00000000
00000000
00000010
00000000
,
00001000
00000000
00000000
00000001
00000000
00000000
00000000
00000000
,
00001001
00000000
00000000
00000001
00000010
00000100
00010000
00001000
,
00000000
01000000
00100000
02000000
00000000
03020000
00000000
10030000
,
10000000
01000000
00010000
00002000
00000000
00003020
00000000
00000030
,
00000000
00000001
00000100
00000002
00000000
00002003
00000000
00003100
,
00000100
00010000
00001000
00100000
00000000
00010000
01000000
00000000
,
00100000
10000000
01000000
00100000
00000000
00010000
00100000
00001000
,
00010000
00000010
00001000
00000010
00000000
00001000
00000100
00000000
,
00000010
00000001
00000100
00000001
00000100
00001000
00010000
00001000
,
01000000
00010000
00100000
01000000
10000000
00100000
01000000
00010000
,
00100000
00101000
00011000
00001010
,
00000110
00000000
00000000
00000000
00000010
00000000
00001000
00000001
00001000
00000000
00000000
00000010
00010000
00000000
00001000
00000000
,
01000000
00000000
00000000
00010000
01000000
00000000
00010000
00000000
00000000
00000000
10000000
00000000
01000000
00000000
00010000
00000000
,
00000000
00001000
00000010
00000001
00000000
00000100
00000010
00001000
,
00000100
00000000
00000000
00000000
00010000
00000000
00001000
00000000
00100000
00000000
00000000
00010000
10000000
00000000
00010000
00000000
,
01000000
00100000
01000000
00010000
00100000
00001000
00010000
00001000
,
00010000
00000000
00000000
00000000
00000010
00000000
00001000
00000010
00001000
00000000
00000000
00000000
00000001
00000000
00000010
00000000
,
00000100
00000000
00001000
00000100
00000000
00010000
00000000
00001000
00000000
00100000
00010000
00000000
01000000
00000000
00100000
00000000
,
10000000
00000000
00000000
11000000
00000000
00000000
00010000
00000000
00000000
00110000
00000000
00000000
00101000
00000000
00000000
00000000
,
00000000
00001000
00010000
00000010
00010000
00000100
00001000
00000100
,
00000010
00000000
00000001
00000100
00000000
00000001
00000010
00001000
,
00000000
00010000
01000000
10000000
00000000
01000000
00100000
00001000
,
00010000
00000000
00000000
00000100
00000010
00000000
00000000
00000100
,
00001000
00000000
00000000
00000000
00000001
00000010
00000100
00010000
,
00001000
00000000
00000000
00100000
01000000
00000000
00100000
00010000
,
10000000
00000000
00000000
00100000
00000000
00000000
10000000
00000000
00000000
00000000
01000000
00000000
00000000
00010000
00000000
00000000
,
00001000
00000000
00000000
00000100
00000010
00000100
00000001
00001000
,
00000100
00000000
00000000
00000010
00000000
00000001
00001000
00000000
00000000
00000000
00000100
00000000
00010000
00000000
00001000
00000000
,
01000000
00000000
00000000
00010000
00000000
01000000
00100000
00000000
00000000
00000000
10000000
00000000
01000000
00000000
00100000
00000000
,
00000000
00000000
00000000
00000000
00000000
00000000
00000000
00000000
00000000
00000000
00011000
00000000
00000000
00001100
00000000
00000000
,
00000110
00000000
00000001
00000100
00000010
00001000
00000000
00000100
,
00010000
00001000
00010000
00000100
00000010
00000001
00000100
00000001
,
00000010
00001000
00010000
01000000
00010000
00001000
00100000
00001000
,
00010000
00000000
00001000
00010000
00000000
00001000
00000000
01000000
00000000
00010000
01000000
00000000
00100000
00000000
10000000
00000000
,
00010000
00000000
10000000
10000000
01000000
01000000
00100000
00100000
,
00010000
00001000
00000100
00000010
00000001
00001000
00000010
00001000
,
00000001
00000000
00000010
00000100
00000000
00000010
00000000
00000001
00000000
00001000
00000010
00000000
00010000
00000000
00001000
00000000
,
00100000
00000000
00010000
10000000
00000000
00100000
00000000
01000000
00000000
00010000
00100000
00000000
01000000
00000000
10000000
00000000
,
00020000
00000000
00000000
00230000
00000000
00000000
00300000
00000000
,
00002000
00000000
00000000
00023000
00000000
00000000
00030000
00000000
,
00000020
00000000
00000000
00000230
00000000
00000000
00000300
00000000
,
00000002
00000000
00000000
00002003
00000000
00000000
00003000
00000000
,
00000001
00000010
00000001
00000010
00000100
00001000
00000100
00001000
,
00000010
00010000
00000010
00010000
00001000
00100000
00001000
00100000
,
00010000
10000000
01000000
00010000
00001000
00000010
00000001
00001000
,
00001100
00000100
00010000
00011000
00001000
00100000
,
00000000
00000000
00010000
10000000
,
00100000
00000000
00000000
00000000
01000000
00000000
00000000
00000000
00010000
00000000
00000000
00000000
00000000
00000000
10000000
01000000
,
10000000
00000000
00000000
00010000
00000000
00000000
10000000
00000000
00100000
00000000
00000000
00010000
00000000
00000000
00001000
00000000
,
00010000
00000000
00000000
00001000
00000000
00000000
00000010
00000000
00000000
00000000
00000001
00000000
00000100
00000000
00000010
00000000
,
00000000
00001000
00000100
00000010
00000001
00000000
00001000
00000100
,
00010000
00000000
00000000
00001000
00000000
00000000
00100000
00000000
00010000
00000000
01000000
00000000
00100000
00000000
10000000
00000000
,
00000000
00000000
00010000
00000000
01000000
00001000
00000000
00000000
00010000
00000000
00000000
00000000
00000010
00000000
00001000
00000000
,
00000001
00000000
00000010
00000000
00000100
00000000
00001000
00000000
00000001
00000000
00001000
00000100
00000000
00010000
00000000
00001000
,
00000000
01000000
00010000
00000000
10000000
00000000
00100000
00000000
01100000
00000000
00000000
00001000
00000000
00000000
00011000
00000000
,
00000000
00000010
00000000
00000000
00000110
00000000
00000000
00000000
00000000
00000000
00000001
00000000
00000100
00000000
00000001
00000000
,
00000100
00001000
00010000
00100000
10000000
00000000
00010000
01010000
,
00000000
01000000
00001000
00011000
00000000
00010000
00000100
00001100
,
00000000
00001000
00000010
00000100
00000001
00000000
00000100
00001000
,
00000000
00010000
00001000
00010000
01000000
00100000
00010000
10000000
,
00000000
11000000
00000000
00000000
10000000
01000000
00010000
00001000
,
00000000
00000000
00010000
00000000
00000010
00001000
00000000
00000010
00000100
00000000
00000001
00000000
00001000
00000000
00000100
00000000
,
00000000
00010000
00001000
00010000
00000010
00001000
00000010
00010000
,
00001000
00100000
00010000
01000000
00100000
10000000
01000000
10000000
,
00010000
00100000
00001000
00000000
01000000
00001000
01000000
00010000
,
00100000
00001000
00010000
00000010
00001000
00000100
00000010
00000001
,
00001000
00000000
00000000
00000010
00000000
00000000
00010000
00000000
00000000
00001000
00000000
00000000
01000000
00000000
00000000
00000000
01010000
00000000
00000000
00000000
00000000
00000000
00000000
00000000
,
00100000
00000000
10100000
00000000
00000000
00000000
00010000
01000000
00010000
01000000
00010000
01000000
,
00001000
00010000
00000100
00000000
00000000
00000000
,
00000000
00000000
00000000
00000000
;
