
//----- song ID: houu2 -----//
#VERSION:0.83;
#TITLE:鳳 (Five Flares Mix);
#ARTIST:Remixed by BEMANI Sound Team "Coyaan + U1";
#TITLETRANSLIT:Hou (Five Flares Mix);
#BANNER:Hou (Five Flares Mix).png;
#BACKGROUND:Hou (Five Flares Mix)-bg.png;
#CDTITLE:./CDTitles/DDR WORLD.png;
#MUSIC:Hou (Five Flares Mix).ogg;
#SAMPLESTART:42.288;
#SAMPLELENGTH:15;
#BPMS:0=210;
#NOTEDATA:;
#STEPSTYPE:dance-single;
#DIFFICULTY:Beginner;
#METER:6;
#NOTES:
0000
0000
0000
0000
,
0000
0000
0000
0000
,
0000
0000
0000
0000
,
0000
0000
0000
0000
,
0000
0000
0000
0000
,
0001
0000
0000
0000
,
0001
0000
0000
0000
,
0010
0000
0000
0000
,
0010
0000
0000
0000
,
1001
0000
0000
0000
,
0000
0000
0000
0000
,
1001
0000
0000
0000
,
0000
0000
0000
0000
,
1000
0000
0100
0000
,
1000
0000
0010
0000
,
1000
0000
0100
0000
,
1000
0000
0000
0000
,
1000
0000
0010
0000
,
1000
0000
0010
0000
,
0001
0000
0010
0000
,
0001
0000
0000
0000
,
0001
0000
0100
0000
,
0001
0000
0010
0000
,
0001
0000
0100
0000
,
0001
0000
0000
0000
,
0001
0000
0010
0000
,
0001
0000
0010
0000
,
1000
0000
0010
0000
,
1000
0000
0000
0000
,
2000
0000
0000
0000
,
3000
0000
0000
0000
,
0020
0000
0000
0000
,
0030
0000
0000
0000
,
0200
0000
0000
0000
,
0300
0000
0000
0000
,
0002
0000
0000
0000
,
0003
0000
0000
0000
,
0001
0000
0010
0000
,
0001
0010
0001
0000
,
0010
0000
0100
0000
,
0010
0000
0000
0000
,
1000
0000
0010
0000
,
1000
0000
0010
0000
,
0100
0010
0100
0000
,
0010
0000
0000
0000
,
0001
0000
0010
0000
,
0100
0000
1000
0000
,
0001
0010
0100
0000
,
1000
0000
0000
0000
,
1001
0000
0000
0000
,
0110
0000
0000
0000
,
1001
0000
0000
0000
,
0110
0000
0000
0000
,
1001
0000
0000
0000
,
0000
0000
0000
0000
,
2000
0000
0000
0000
,
3000
0000
0000
0000
,
0020
0000
0000
0000
,
0030
0000
0000
0000
,
0002
0000
0000
0000
,
0003
0000
0000
0000
,
0020
0000
0000
0000
,
0030
0000
0000
0000
,
1000
0000
1000
0000
,
0010
0100
0010
0000
,
1000
0000
0010
0000
,
0001
0000
0000
0000
,
0001
0000
0001
0000
,
0010
0100
0010
0000
,
0001
0000
0010
0000
,
1000
0000
0000
0000
,
1001
0000
0000
0000
,
0110
0000
0000
0000
,
1001
0000
0000
0000
,
0110
0000
0000
0000
,
1001
0000
0000
0000
,
0000
0000
0000
0000
,
0000
0000
0000
0000
,
0000
0000
0000
0000
,
0001
0001
0001
0000
,
0010
0010
0010
0000
,
0100
0100
0100
0000
,
0010
0010
0010
0000
,
1000
1000
1000
0000
,
0010
0010
0010
0000
,
0100
0000
0100
0000
,
0010
0010
0010
0000
,
0001
0010
0001
0000
,
0010
0000
0010
0000
,
1000
0010
1000
0000
,
2000
0000
0000
0000
,
3000
0000
1000
0000
,
0010
0001
0010
0000
,
0110
0000
0000
0000
,
1001
0000
0000
0000
,
0001
0010
0100
0000
,
1000
0010
0100
0000
,
0001
0100
0010
0000
,
1000
0100
0010
0000
,
0002
0000
0000
0000
,
0003
0000
0000
0000
,
2000
0000
0000
3000
,
0002
0000
0000
0003
,
0000
2002
0000
0000
,
0000
0000
0000
0000
,
3003
0000
0000
0000
;
#NOTEDATA:;
#STEPSTYPE:dance-single;
#DIFFICULTY:Easy;
#METER:10;
#NOTES:
0000
0000
0000
0000
,
0000
0000
0000
0000
,
0000
0000
0000
0000
,
0000
0000
0000
0000
,
0000
0000
0000
0000
,
0001
0000
0000
0001
0000
0000
0002
0000
,
0000
0000
0000
0003
,
1000
0000
0000
1000
0000
0000
2000
0000
,
0000
0000
0000
3000
,
1001
0000
0000
0000
,
1001
0000
0000
0000
,
0001
1000
0001
1000
,
0001
1000
0001
1000
0001
0000
0000
0000
,
1000
0100
0010
0010
,
0001
0100
0010
0010
,
1000
0010
0100
0100
,
0001
1000
0001
0000
1000
0000
0000
0000
,
0001
0010
0100
0100
,
1000
0010
0100
0100
,
0001
0010
0100
0100
,
1000
0000
0010
0000
0100
0010
0100
0000
,
0010
1000
1000
1000
,
0001
0100
0001
0000
1000
0000
0000
0000
,
0001
0010
0010
0010
,
0001
1000
0001
0000
1000
0001
1000
0000
,
0010
0000
0000
0010
0000
0000
0010
0000
,
0000
0010
0000
0000
1001
0000
1001
0000
,
0100
0000
0000
0100
0000
0000
0100
0000
,
0000
0100
0000
0000
1001
0000
1001
0000
,
1000
0100
0010
0001
,
0011
1000
1001
0000
,
0001
0100
0010
1000
,
1010
0001
1001
0000
,
1000
0010
0001
0010
,
1000
0001
1001
0000
,
0001
0010
1000
0010
,
0001
0001
1000
1000
,
0001
0100
0001
0000
0010
0000
0100
0000
,
1000
0100
1000
0000
0010
0000
0100
0000
,
0001
1000
0001
0000
0100
0000
0010
0000
,
1000
1000
0010
0000
,
1000
0100
0010
0000
0001
0000
1000
0000
,
0001
0100
0010
0000
1000
0000
0001
0000
,
1000
0001
1000
0000
0010
0100
0010
0000
,
2000
0000
0000
3000
,
1000
0001
0010
0001
,
1000
0000
0100
0000
0010
0001
1000
0000
,
0001
0010
0100
1000
,
0001
1000
0001
0000
1000
0000
0000
0000
,
0001
0100
0001
0001
,
1000
0010
1000
1000
,
0010
0100
0010
0000
0100
0010
0100
0000
,
0010
0010
0010
1001
,
2000
0000
0000
0000
,
0000
0000
0000
3000
,
0002
0000
0000
0003
,
0200
0000
0000
0300
,
0020
0000
0000
0030
,
2000
0000
0000
3000
,
2000
0000
0000
3000
,
0200
0000
0000
0300
,
0020
0000
0000
0030
,
0002
0000
0000
0003
,
0001
0000
0101
0000
,
1000
0000
1100
0000
,
0001
1000
0000
0000
0000
0000
0000
0000
,
0000
0110
0110
0000
,
1000
0000
1010
0000
,
0001
0000
0011
0000
,
1000
0001
0000
0000
0000
0000
0000
0000
,
0110
0000
0000
0000
,
1001
0000
0000
0000
,
0110
0000
0000
0000
,
1001
0000
0000
0000
,
0110
0000
0000
0000
,
2002
0000
0000
0000
,
0000
0000
0000
0000
,
0000
0000
0000
0000
,
3003
0000
0000
0000
,
1000
0100
0010
0100
,
1000
0000
0100
0000
0010
0100
1000
0000
,
0001
0100
0010
0100
,
0001
0000
0100
0000
0010
0100
0001
0000
,
1000
0010
0100
0000
0001
0000
1000
0000
,
0001
0010
0100
0000
1000
0000
0001
0000
,
1000
0000
0000
1010
0000
0000
0001
0000
,
0000
0101
0000
0000
1001
0000
0000
0000
,
1000
0000
0100
0000
0010
0001
0010
0000
,
0002
1000
1003
0000
,
0001
0000
0100
0000
0010
1000
0010
1000
,
0000
0001
0000
0001
0000
0001
0000
0001
,
0000
0000
1001
0000
1000
0010
0100
0000
,
0001
1000
0001
0000
2000
0000
3000
0000
,
0001
1000
0000
0001
1000
0000
0001
1000
,
0000
0001
1000
0000
0002
0000
0003
0000
,
1000
0000
0000
1000
0000
0000
0100
0000
,
0010
0000
0100
0000
0010
0000
0001
1000
,
0000
0001
0000
0000
0100
0000
0001
0000
,
0100
0000
0010
1000
0000
0010
1000
0000
,
0002
0000
0000
0000
,
0000
0000
0000
0000
,
0003
1000
0000
0001
,
0000
0000
0000
1000
0000
0000
0000
0000
,
0000
0220
0000
0000
,
0000
0000
0000
0000
,
0330
0000
0000
0000
;
#NOTEDATA:;
#STEPSTYPE:dance-single;
#DIFFICULTY:Medium;
#METER:14;
#BPMS:0=210,209=105,261=210,291=105,292=210,335.75=105,340=210,341=105,341.5=210,343=105,343.5=210,345=105,346=210;
#STOPS:84=0.143,91.5=0.143,100=0.0715,101.25=0.0715,102.5=0.0715,103.75=0.0715,107=0.0715,108.25=0.0715,109.5=0.0715,110.75=0.0715,303.5=0.143,304=0.143,304.5=0.143,305=0.143,323=0.0715,324.25=0.0715,325.5=0.0715,326.25=0.0715,327=0.0715,328.25=0.0715,330.5=0.0715,332.25=0.0715,333.5=0.0715,339.75=0.143;
#NOTES:
0000
0000
0000
0000
,
0000
0000
0000
0000
,
0000
0000
0000
0000
,
0000
0000
0000
0000
,
0000
0000
0000
0000
,
0001
0000
0000
0010
0000
0000
0002
0000
,
0000
0000
0000
0003
,
1000
0000
0000
0010
0000
0000
2000
0000
,
0000
0000
3001
0000
,
2002
0000
0000
0000
,
0000
0000
0000
0000
,
0000
0000
0000
3003
,
0001
0100
0001
0000
1000
0001
1000
0001
,
1000
0000
0000
0000
0010
0000
0000
0100
0000
0000
0001
0000
0100
0000
0000
0000
,
0001
0000
0000
0000
0010
0000
0000
0100
0000
0000
1000
0000
0100
0000
0000
0000
,
1000
0000
0000
0000
0010
0000
0000
0100
0000
0000
0001
0000
1000
0000
0000
0000
,
0002
0023
0230
2300
3200
0320
0032
0000
,
1003
0000
0000
0000
0010
0000
0000
0100
0000
0000
0001
0000
1000
0000
0000
0000
,
0100
0000
0000
0000
0010
0000
0000
0001
0000
0000
0100
0000
0001
0000
0000
0000
,
1000
0000
0000
0000
0010
0000
0000
0100
0000
0000
0001
0000
0010
0000
0000
0000
,
0100
1000
0100
0000
1000
0001
1000
0001
,
2000
3000
0000
0000
0000
0000
0000
0000
0001
0000
0000
0000
0000
0000
0000
0000
0100
0000
0000
0000
0000
0000
0000
0000
0001
0000
0000
0000
0000
0000
0000
0000
0000
0000
0000
0000
0000
0000
0000
0000
1000
0000
0000
0000
0000
0000
0000
0000
0000
0000
0000
0000
0000
0000
0000
0000
0100
0000
0000
0000
0000
0000
0000
0000
,
0010
0000
0000
0000
0000
0000
0000
0000
0100
0000
0000
0000
0000
0000
0000
0000
0000
0000
0000
0000
0000
0000
0000
0000
0010
0000
0000
0000
0000
0000
0000
0000
0001
0000
0000
0000
0000
0000
0000
0000
0010
0000
0000
0000
0000
0000
0000
0000
0000
0000
0000
0000
0000
0000
0000
0000
0002
0003
0000
0000
0000
0000
0000
0000
,
0100
0010
0100
0000
0001
0000
1000
1000
,
0010
0000
0100
0000
0010
0000
1000
0100
,
0000
0000
0000
0000
2000
3000
0000
0000
0000
0000
0000
0000
0200
0300
0000
0000
0000
0000
0000
0000
0000
0000
0000
0000
0010
0000
0000
0000
0000
0000
0000
0000
0001
0000
0000
0000
0000
0000
0000
0000
0000
0000
0000
0000
0020
0030
0000
0000
0000
0000
0000
0000
0002
0003
0000
0000
0000
0000
0000
0000
0000
0000
0000
0000
,
0101
0000
0000
0000
0000
0000
0000
0000
0000
0000
0000
0000
0000
0000
0000
0000
1001
0000
0000
0000
0000
0000
0000
0000
0000
0000
0000
0000
0000
0000
0000
0000
0001
0000
0000
0000
0000
0000
0000
0000
0100
0000
0000
0000
0000
0000
0000
0000
0000
0000
0000
0000
0002
0003
0000
0000
0000
0000
0000
0000
0200
0300
0000
0000
,
0000
0000
0000
0000
0000
0000
0000
0000
0010
0000
0000
0000
0000
0000
0000
0000
1000
0000
0000
0000
0000
0000
0000
0000
0000
0000
0000
0000
0020
0030
0000
0000
0000
0000
0000
0000
2000
3000
0000
0000
0000
0000
0000
0000
0000
0000
0000
0000
1010
0000
0000
0000
0000
0000
0000
0000
0000
0000
0000
0000
0000
0000
0000
0000
,
1001
2000
3200
0320
,
0032
0000
0000
0203
0000
0000
0320
0000
0000
1030
0001
1000
,
0001
0200
0302
2003
,
3200
0000
0000
0320
0000
0000
0032
0000
0000
0103
0010
0100
,
0010
2000
3020
0230
,
0302
0000
0000
0023
0000
0000
0230
0000
0000
1300
0001
1000
,
0001
2000
3200
0302
,
0203
0000
0000
0310
0001
0010
0001
0000
0000
1000
0001
1000
,
0001
0000
1000
0100
1000
0010
1000
0100
,
0010
0001
0100
0001
0010
0001
0100
0001
,
0010
0100
1000
1000
0010
0100
0001
0001
,
0010
0100
1000
0100
0001
0100
1000
0010
,
0100
0001
0010
0100
1000
0010
0100
0001
,
0010
0100
0010
0001
0100
0010
1000
0100
,
0010
0001
1000
0100
1000
0100
0001
0100
,
1000
1100
0110
0011
,
1001
0000
1000
0010
1000
0010
0000
1000
,
0100
0010
0000
0001
0100
0001
0010
0001
,
0100
0000
0001
1000
0100
1000
0000
0001
,
0010
0001
0100
1000
0100
0001
0100
0010
,
0100
0000
0001
0100
0010
1000
0001
0100
,
0010
0000
1000
0100
0010
0001
1000
0100
,
0010
0000
0001
0010
0001
0010
1000
0010
,
1000
0010
0001
0000
0100
0000
0110
0000
,
1001
2000
0000
0000
,
0000
3002
0010
2003
,
0010
3002
0100
2003
,
0100
3002
0010
1000
,
0100
2003
0010
0001
,
0100
0000
0000
0000
3002
0000
0000
0000
1003
0010
1000
0000
0100
0000
0000
0000
,
0110
0000
0000
0000
0001
1000
0000
0000
0000
0000
0000
0000
0000
0000
1000
0100
,
0010
0001
1000
0000
0020
0000
0000
0000
0130
0001
0100
0000
0001
0000
0000
0000
,
1001
0000
0000
0000
1000
0001
0000
0000
0000
0000
0000
0000
0001
0000
0100
0010
,
0000
1000
0001
0000
2000
0000
0000
0000
0000
0000
0000
0000
3200
0000
0000
0000
,
0000
0320
0000
0032
,
0000
2003
0000
0000
,
0000
0000
0000
3000
,
0000
0000
0001
0001
1000
1000
0010
0100
,
0001
0100
0010
0010
1000
1000
0100
0010
,
0001
0000
1000
1000
0100
0100
0010
0001
,
1000
0010
0100
0100
0001
0001
1000
0001
,
1000
0000
0001
0100
0010
1000
0100
0100
,
0100
1000
0001
0010
0001
1000
0010
0010
,
0010
1000
0010
1000
0000
0100
0010
0000
,
0100
0001
0000
0100
0010
0000
2002
3003
,
1000
0100
1000
0001
1000
0010
1000
0001
,
1001
0000
0110
0000
1002
1000
1003
0000
,
0001
0000
0000
0000
0000
0000
0000
0000
0010
0000
0000
0000
0000
0000
0000
0000
0001
0000
0000
0000
0000
0000
0000
0000
1000
0000
0000
0000
0000
0000
0000
0000
0001
0000
0000
0000
0000
0000
0000
0000
0100
0000
0000
0000
0000
0000
0000
0000
0001
0000
0000
0000
0000
0000
0000
0000
0020
0030
0000
0000
0000
0000
0000
0000
,
0022
0033
0000
0000
0000
0000
0000
0000
0022
0033
0000
0000
0000
0000
0000
0000
2200
3300
0000
0000
0000
0000
0000
0000
1100
0000
0000
0000
0000
0000
0000
0000
0000
0000
0000
0000
0000
0000
0000
0000
0000
0000
0000
0000
0000
0000
0000
0000
1001
0000
0000
0000
0000
0000
0000
0000
0000
0000
0000
0000
0000
0000
0000
0000
,
1000
0010
0001
0010
1000
0001
0100
1000
,
0200
0001
0301
0000
0001
0001
0000
1000
,
1000
0000
0000
0000
0001
1000
0001
0000
0000
0000
1000
0001
1000
0000
0000
0000
,
2002
0000
0000
0000
0000
0000
0000
0000
0000
0000
0000
0000
0000
0000
0000
0000
3003
0000
0000
0000
0000
0000
0000
0000
0000
0000
0000
0000
0000
0000
0000
0000
0001
0000
0000
0000
0000
0000
0000
0000
0010
0000
0000
0000
0000
0000
0000
0000
0000
0000
0000
0000
0200
0300
0000
0000
0000
0000
0000
0000
2000
3000
0000
0000
,
0000
0000
0000
0000
0000
0000
0000
0000
0001
0000
0000
0000
0000
0000
0000
0000
0100
0000
0000
0000
0000
0000
0000
0000
0001
0000
0000
0000
0000
0000
0000
0000
0000
0000
0000
0000
2000
3000
0000
0000
0000
0000
0000
0000
0000
0000
0000
0000
1001
0000
0000
0000
0000
0000
0000
0000
0000
0000
0000
0000
2000
3000
0000
0000
,
0000
0000
0000
0000
0002
0003
0000
0000
0000
0000
0000
0000
0000
0000
0000
0000
1000
0000
0000
0000
0000
0000
0000
0000
0100
0000
0000
0000
0000
0000
0000
0000
0010
0000
0000
0000
0000
0000
0000
0000
0001
0000
0000
0000
0000
0000
0000
0000
0000
0000
0000
0000
2000
3000
0000
0000
0000
0000
0000
0000
0002
0003
0000
0000
,
0000
0000
0000
0000
2000
3000
0000
0000
0000
0000
0000
0000
0000
0000
0000
0000
0010
0000
0000
0000
0000
0000
0000
0000
0100
0000
0000
0000
0000
0000
0000
0000
0000
0000
0000
0000
0020
0030
0000
0000
0000
0000
0000
0000
0200
0300
0000
0000
0000
0000
0000
0000
0020
0030
0000
0000
0000
0000
0000
0000
0200
0000
0000
0000
,
0000
0000
0000
0000
0000
0000
0000
0300
,
0002
0000
0003
2000
0000
3000
0000
0020
,
0000
0030
0200
0000
,
0000
0000
0000
0000
,
0000
0300
0000
0000
;
#NOTEDATA:;
#STEPSTYPE:dance-single;
#DIFFICULTY:Hard;
#METER:16;
#BPMS:0=210,209=105,261=210,291=105,292=210,335.75=105,340=210,341=105,341.5=210,343=105,343.5=210,345=105,346=210;
#STOPS:84=0.143,91.5=0.143,100=0.0715,101.25=0.0715,102.5=0.0715,103.75=0.0715,107=0.0715,108.25=0.0715,109.5=0.0715,110.75=0.0715,303.5=0.143,304=0.143,304.5=0.143,305=0.143,323=0.0715,324.25=0.0715,325.5=0.0715,326.25=0.0715,327=0.0715,328.25=0.0715,330.5=0.0715,332.25=0.0715,333.5=0.0715,339.75=0.143;
#NOTES:
0000
0000
0000
0000
,
0000
0000
0000
0000
,
0000
0000
0000
0000
,
0000
0000
0000
0000
,
0000
0000
0000
0000
,
0010
0000
0000
0100
0000
0000
2002
0000
,
0000
0000
0000
3003
,
0100
0000
0000
0010
0000
0000
2002
0000
,
0000
3003
2000
0000
,
3001
0000
1000
0001
0000
1001
0000
0001
,
1000
0000
0001
0000
0000
0000
1001
0000
1000
0000
0001
0000
1000
0000
0001
1000
,
0001
1000
0001
1000
0001
1000
0001
1000
,
0001
1000
0001
0000
1000
0001
1000
0000
0001
0100
0001
0100
0010
1000
0010
1000
,
0010
0000
0000
0000
1000
0000
0000
0100
0000
0000
1000
0000
0100
0000
0010
0100
,
0010
0000
0000
0000
0001
0000
0000
0100
0000
0000
0001
0000
0100
0000
0010
0100
,
0010
0000
0000
0000
1000
0000
0000
0001
0000
0000
1000
0000
0001
0000
0100
0010
,
0200
0302
0023
0230
2300
3020
0032
0023
,
1030
0000
0000
0000
0001
0000
0000
0010
0000
0000
0001
0000
0100
0000
0010
1000
,
0010
0000
0000
0000
1000
0000
0000
0100
0000
0000
0010
0000
0001
0000
0100
0001
,
0100
0000
0000
0000
0001
0000
0000
1000
0000
0000
0100
0000
0010
0000
0001
1000
,
0001
0000
0000
0000
0010
0001
0010
0000
0001
0100
0001
0000
1000
0001
1000
0001
,
2000
3000
0000
0000
0000
0000
0000
0000
0001
0000
0000
0000
0000
0000
0000
0000
0001
0000
0000
0000
0000
0000
0000
0000
0010
0000
0000
0000
0000
0000
0000
0000
0001
0000
0000
0000
0000
0000
0000
0000
0001
0000
0000
0000
0000
0000
0000
0000
0100
0000
0000
0000
0000
0000
0000
0000
0010
0000
0000
0000
0000
0000
0000
0000
,
0010
0000
0000
0000
0000
0000
0000
0000
1000
0000
0000
0000
0000
0000
0000
0000
0100
0000
0000
0000
0000
0000
0000
0000
0100
0000
0000
0000
0000
0000
0000
0000
1000
0000
0000
0000
0000
0000
0000
0000
0010
0000
0000
0000
0000
0000
0000
0000
0100
0000
0000
0000
0000
0000
0000
0000
0002
0003
0000
0000
0000
0000
0000
0000
,
1000
1000
0100
1000
1000
0010
0100
0100
,
0001
0010
0010
0001
1000
0100
1000
0010
,
0100
0000
0000
0000
0002
0003
0000
0000
0000
0000
0000
0000
0020
0030
0000
0000
0000
0000
0000
0000
0200
0300
0000
0000
1000
0000
0000
0000
0000
0000
0000
0000
0001
0000
0000
0000
0000
0000
0000
0000
0100
0000
0000
0000
2000
3000
0000
0000
0000
0000
0000
0000
0200
0300
0000
0000
0000
0000
0000
0000
0002
0003
0000
0000
,
1000
0000
0000
0000
0000
0000
0000
0000
0100
0000
0000
0000
0000
0000
0000
0000
0010
0000
0000
0000
0000
0000
0000
0000
0001
0000
0000
0000
0000
0000
0000
0000
1000
0000
0000
0000
0000
0000
0000
0000
0010
0000
0000
0000
0000
0000
0000
0000
0001
0000
0000
0000
2000
3000
0000
0000
0000
0000
0000
0000
0200
0300
0000
0000
,
0000
0000
0000
0000
0002
0003
0000
0000
1000
0000
0000
0000
0000
0000
0000
0000
0100
0000
0000
0000
0000
0000
0000
0000
0001
0000
0000
0000
0200
0300
0000
0000
0000
0000
0000
0000
2000
3000
0000
0000
0000
0000
0000
0000
0002
0003
0000
0000
0010
0000
0000
0000
0000
0000
0000
0000
0100
0000
0000
0000
0000
0000
0000
0000
,
1000
0000
0000
0001
0000
0000
1000
0000
0000
0000
0001
0000
1000
0000
0000
0000
0001
0000
0010
0000
0000
0000
0100
0000
,
0010
0000
0100
1000
0010
1000
0010
1000
0010
0100
0001
0100
,
0001
0100
0001
1000
0000
0010
0100
0000
0001
0100
0000
0001
,
0010
0000
0100
0010
0001
0010
0001
0010
0001
1000
0100
1000
,
0100
1000
0100
1000
0000
1000
0010
0000
0010
0001
0000
0001
,
0010
0000
0010
0100
0010
0100
0001
0100
0001
1000
0100
1000
,
0100
0010
0100
1000
0000
1000
0100
0000
0100
0001
0000
0001
,
0100
0000
0100
0010
0001
0010
0001
0100
0001
0100
0010
0100
,
0010
0000
0000
0000
0100
0000
0000
0000
0010
0000
0000
0000
0100
0000
0000
0000
0000
0000
0001
0000
0000
1000
0000
0000
0001
0000
0000
0000
0000
0000
0100
0000
0000
0000
0000
0000
0010
0000
0000
0000
0000
0000
1000
0000
0000
0100
0000
0000
,
1000
0000
0001
0000
0010
0000
0100
1000
0100
0000
0010
0000
0001
0000
1000
0010
,
1000
0000
0001
0000
1000
0000
0100
0010
0001
0000
1000
0000
0001
0000
0010
0100
,
1000
0000
0001
0000
0100
0000
0010
1000
0001
0000
1000
0000
0010
0100
0010
0000
,
1000
0001
1000
0000
0001
0000
0010
0001
0010
0000
0100
0000
1000
0000
0001
0100
,
0001
0000
1000
0000
0010
0000
0100
0010
0100
0000
0001
0000
0010
0000
0100
0000
,
1000
0001
1000
0000
0001
0000
0100
0010
1000
0000
0100
0000
0010
0000
0001
0000
,
0010
0000
0000
0100
0000
0000
1000
0000
0000
0000
0000
0000
0001
0000
0000
0000
0100
0000
0000
0000
0010
0000
0000
0000
1000
0000
0000
0000
0100
0000
0000
0000
0010
0000
0000
0000
0001
0000
0000
0000
0100
0000
0000
0000
0010
0000
0000
0000
,
1000
0000
0000
0000
0001
0100
0001
0000
1000
0000
0100
0000
0010
0000
0001
0000
,
0100
0000
0010
0000
1000
0001
1000
0000
0010
0000
0100
0000
0001
0000
1000
0000
,
0001
0000
0100
0000
0001
0010
0100
0000
1000
0000
0010
0000
0100
0000
0001
0000
,
1000
0000
0010
0000
1000
0100
0010
0000
0001
0000
0100
0001
1000
0000
0010
0000
,
0100
0001
1000
0000
0010
0000
1000
0000
0100
0000
0010
0000
0001
0000
0010
0000
,
1000
0000
0010
0000
0001
1000
0001
1000
0001
0000
0100
0000
0010
0000
1000
0000
,
0100
1000
0010
0100
1000
0100
0001
1000
,
0100
0000
0010
0000
0002
0000
0000
0000
1003
0000
0000
0000
0001
1000
0001
1000
,
0001
0020
0000
0000
,
0000
0000
0000
0000
0000
0000
0230
0000
0000
0000
0000
0000
0000
0000
0000
1300
0010
0100
0002
0000
0000
0000
0000
0000
,
0000
0000
0000
1003
0100
1000
0200
0000
0000
0000
0000
0000
0000
0000
0000
1300
0001
0100
0020
0000
0000
0000
0000
0000
,
0130
0000
0000
0001
0010
0100
2000
0000
0000
0000
0000
0000
0000
0000
0000
3001
0100
0010
2000
0000
0000
0000
0000
0000
,
0000
0000
0000
0000
0000
0000
3001
0000
0010
0000
0001
0000
0020
0000
0000
0000
0000
0000
0000
0000
0000
0000
0000
0000
0000
0000
0000
0000
0000
0000
0031
0000
1000
0000
0001
0000
0100
0000
0000
0010
0000
0000
0100
0000
0000
0000
0000
0000
,
0001
0000
1000
0000
0001
0000
0000
0000
2000
0000
0000
0000
0000
0000
0000
0000
3001
0000
0100
0000
0001
0000
0000
0000
1001
0000
0000
0000
0000
0000
1000
0100
,
0010
0000
0000
0000
0001
0202
0000
0000
0000
0000
0000
0000
0303
0000
1000
1000
,
0010
0000
0000
0000
0000
0000
0100
0000
0000
0010
0000
0000
0100
0000
0000
0010
0000
0000
0100
0000
0000
0000
0000
0000
0002
0000
0000
0000
0000
0000
0000
0000
0000
0000
0000
0000
0000
0000
0000
0000
0000
0000
0000
0000
0000
0000
0000
0000
0003
0000
0000
0000
0000
0000
0000
0000
0000
0000
0000
0000
1000
0000
0000
0000
0010
0000
0000
0000
1000
0000
0000
0000
0001
0000
0000
0000
0000
0000
0000
0000
0000
0000
0000
0000
0000
0000
0000
0000
0000
0000
1000
0000
0000
0100
0000
0000
,
1000
0000
0000
0000
0000
0000
0010
0000
0000
0100
0000
0000
0001
0000
0000
0100
0000
0000
0000
0000
0000
0100
0000
0000
0001
0000
0000
0000
1000
0000
0000
0000
0100
0000
0000
0000
0010
0000
0000
0000
0000
0000
0001
0000
0000
0010
0000
0000
,
0000
0000
1000
0000
0010
0001
0010
0001
0020
0000
0000
0000
0000
0000
0000
0000
0000
0000
0000
0000
0000
0000
0000
0000
0002
0000
0000
0000
0000
0000
0000
0000
,
0030
2000
0003
0020
,
3000
0200
0000
0000
,
0000
0000
0000
0330
,
0000
0000
1000
0100
0001
0100
1000
0010
,
0100
0001
1000
0100
0001
0100
1000
0010
,
0001
0010
0100
0001
0010
1000
0001
0100
,
1000
0001
1000
0100
0001
1000
0010
0001
,
1000
0000
0010
0000
0100
0000
0100
0000
0001
0000
0001
0000
1000
0001
1000
0000
,
0010
0000
0100
0000
0001
0000
0001
0000
0010
0000
0010
0000
0100
1000
0100
0000
,
0010
0001
1000
1100
0000
0001
0011
0000
,
1000
0000
0000
0000
0000
0000
0000
0000
1010
0000
0000
0000
0000
0000
0000
0000
0000
0000
0000
0000
0000
0000
0000
0000
0001
0000
0000
0000
0000
0000
0000
0000
0011
0000
0000
0000
0000
0000
0000
0000
0000
0000
0000
0000
0000
0000
0000
0000
2000
3000
0000
0000
0000
0000
0000
0000
2000
3000
0000
0000
0000
0000
0000
0000
,
0001
0000
1000
0010
1000
0000
0001
0000
0100
0000
0010
0100
0010
0000
1000
0000
,
0001
0010
1000
0010
0002
1000
1003
0000
,
0001
0000
0000
0000
0000
0000
0000
0000
1000
0000
0000
0000
0100
0000
0000
0000
1000
0000
0000
0000
0000
0000
0000
0000
0010
0000
0000
0000
0000
0000
0000
0000
0120
0000
0000
0000
0000
0000
0000
0000
0130
0000
0000
0000
0000
0000
0000
0000
0201
0000
0000
0000
0000
0000
0000
0000
0002
0303
0000
0000
0000
0000
0000
0000
,
2200
3300
0000
0000
0000
0000
0000
0000
0202
0303
0000
0000
0000
0000
0000
0000
2200
3300
0000
0000
0000
0000
0000
0000
0101
0000
0000
0000
0000
0000
0000
0000
0000
0000
0000
0000
0000
0000
0000
0000
0000
0000
0000
0000
0000
0000
0000
0000
1001
0000
0000
0000
0000
0000
0000
0000
1000
0000
0000
0000
0010
0000
0000
0000
,
1000
0000
0001
0000
0100
0000
0010
0100
0010
0000
1000
0000
0100
0000
0010
0000
,
0002
0000
1000
0000
1003
0000
0000
0000
0001
0000
0100
0010
0100
0000
0001
0000
,
0010
0100
0010
0000
0001
0000
0100
0010
0100
0000
1000
0000
0100
0010
0100
0000
,
0002
0000
0000
0000
0000
0000
0000
0000
0000
0000
0000
0000
0000
0000
0000
0000
2003
0000
0000
0000
0000
0000
0000
0000
0000
0000
0000
0000
0000
0000
0000
0000
3001
0000
0000
0000
0000
0000
0000
0000
0011
0000
0000
0000
0000
0000
0000
0000
0000
0000
0000
0000
2000
3000
0000
0000
0000
0000
0000
0000
2020
3030
0000
0000
,
0000
0000
0000
0000
0000
0000
0000
0000
0001
0000
0000
0000
0000
0000
0000
0000
1000
0000
0000
0000
0000
0000
0000
0000
1001
0000
0000
0000
0000
0000
0000
0000
0000
0000
0000
0000
0220
0330
0000
0000
0000
0000
0000
0000
0000
0000
0000
0000
1001
0000
0000
0000
0000
0000
0000
0000
0000
0000
0000
0000
2000
3000
0000
0000
,
0000
0000
0000
0000
0002
0003
0000
0000
0000
0000
0000
0000
0000
0000
0000
0000
1000
0000
0000
0000
0000
0000
0000
0000
0100
0000
0000
0000
0000
0000
0000
0000
0001
0000
0000
0000
0000
0000
0000
0000
0100
0000
0000
0000
0000
0000
0000
0000
0000
0000
0000
0000
2000
3000
0000
0000
0000
0000
0000
0000
0002
0003
0000
0000
,
0000
0000
0000
0000
0200
0300
0000
0000
0000
0000
0000
0000
0000
0000
0000
0000
0010
0000
0000
0000
0000
0000
0000
0000
0100
0000
0000
0000
0000
0000
0000
0000
0000
0000
0000
0000
0002
0003
0000
0000
0000
0000
0000
0000
2000
3000
0000
0000
0000
0000
0000
0000
0002
0003
0000
0000
0000
0000
0000
0000
2002
0000
0000
0000
,
0000
0000
0000
0000
0000
0000
0000
3003
,
0001
0000
0000
0000
0100
0000
0000
0000
0001
0000
0000
0000
0100
0000
0000
0000
0001
0000
0000
0000
0000
0000
0000
0000
2000
3000
0000
0000
0020
0030
0000
0000
2000
3000
0000
0000
0020
0030
0000
0000
2000
3000
0000
0000
0000
0000
0000
0000
0000
0000
0000
0000
0000
0000
0000
0000
0010
0000
0000
0000
0100
0000
0000
0000
,
0010
0100
0010
0100
0020
0000
0000
0000
1030
0000
0001
0000
1000
0000
0001
0000
,
1000
0000
0001
0000
1000
0000
0001
0000
1000
0001
1000
0001
1000
0001
1000
0001
,
1000
0001
1000
0002
0000
0000
0000
0000
0000
0000
0000
0000
0000
0000
0000
0000
,
0000
0000
0000
0000
,
0000
0000
0000
0000
,
0000
0000
0000
0000
,
0000
0003
0000
0000
;
#NOTEDATA:;
#STEPSTYPE:dance-single;
#DIFFICULTY:Challenge;
#METER:18;
#BPMS:0=210,209=105,261=210,291=105,292=210,335.75=105,340=210,341=105,341.5=210,343=105,343.5=210,345=105,346=210;
#STOPS:84=0.143,91.5=0.143,100=0.0715,101.25=0.0715,102.5=0.0715,103.75=0.0715,107=0.0715,108.25=0.0715,109.5=0.0715,110.75=0.0715,303.5=0.143,304=0.143,304.5=0.143,305=0.143,323=0.0715,324.25=0.0715,325.5=0.0715,326.25=0.0715,327=0.0715,328.25=0.0715,330.5=0.0715,332.25=0.0715,333.5=0.0715,339.75=0.143;
#NOTES:
0000
0000
0000
0000
,
0000
0000
0000
0000
,
0000
0000
0000
0000
,
0000
0000
0000
0000
,
0000
0000
0000
0000
,
0011
0000
0000
1100
0000
0000
2002
0000
,
0000
0000
0000
3003
,
1010
0000
0000
0101
0000
0000
2002
0000
,
0000
3003
2000
0000
,
3010
0000
0100
0010
0000
0110
0000
0010
,
0100
0000
0010
0000
0000
0000
0110
0000
0100
0000
0010
0000
0100
0000
0010
0100
,
0010
0000
0100
0000
0010
0000
0100
0010
0100
0000
0010
0000
0100
0000
0010
0100
,
0010
0100
0010
0100
0010
0100
0010
0100
0010
1000
0001
0100
0010
1000
0001
0100
,
0010
0000
0000
0000
1000
0000
0001
0100
0000
0001
0100
0000
0001
0000
0010
0100
,
0010
0000
0000
0000
0001
0000
1000
0100
0000
1000
0100
1000
0100
0000
0010
0100
,
0010
0000
0000
0000
0001
0000
0100
0010
0000
1000
0100
0000
0010
0000
0001
1000
,
0001
0010
0120
0130
1200
1300
2001
3001
,
1001
0000
0000
0000
0001
0000
1000
0100
0000
1000
0100
0000
1000
0000
0010
0100
,
0010
0000
0000
0000
1000
0000
0001
0100
0000
0001
0100
0001
0100
0000
0010
0100
,
0010
0000
0000
0000
1000
0000
0100
0010
0000
0001
0100
0000
0010
0000
1000
0001
,
1000
0000
0000
0000
0001
0010
0100
1000
0010
0100
0001
1000
0100
0010
0001
1000
,
0200
0300
0000
0000
0000
0000
0000
0000
1000
0000
0000
0000
0001
0000
0000
0000
1000
0000
0000
0000
0000
0000
0000
0000
0010
0000
0000
0000
0000
0000
0000
0000
1000
0000
0000
0000
0001
0000
0000
0000
1000
0000
0000
0000
0000
0000
0000
0000
0100
0000
0000
0000
0000
0000
0000
0000
0010
0000
0000
0000
0001
0000
0000
0000
,
0010
0000
0000
0000
0001
0000
0000
0000
1000
0000
0000
0000
0010
0000
0000
0000
0100
0000
0000
0000
0001
0000
0000
0000
0100
0000
0000
0000
0001
0000
0000
0000
1000
0000
0000
0000
0100
0000
0000
0000
0010
0000
0000
0000
0001
0000
0000
0000
1000
0000
0000
0000
0100
0000
0000
0000
0020
0030
0000
0000
0000
0000
0000
0000
,
0001
1000
0001
0000
0010
0000
0001
1000
0001
0000
0100
0000
0010
1000
0010
1000
,
0001
0010
0100
1000
0100
1000
0001
0100
0010
1000
0001
0100
0010
1000
0010
1000
,
0001
0000
0000
0000
0020
0030
0000
0000
0002
0003
0000
0000
0020
0030
0000
0000
0002
0003
0000
0000
2000
3000
0000
0000
0100
0000
0000
0000
1000
0000
0000
0000
0100
0000
0000
0000
1000
0000
0000
0000
0001
0000
0000
0000
0200
0300
0000
0000
0002
0003
0000
0000
0200
0300
0000
0000
0002
0003
0000
0000
2000
3000
0000
0000
,
0002
0000
0000
0000
0000
0000
0000
0000
0203
0000
0000
0000
0000
0000
0000
0000
2300
0000
0000
0000
0000
0000
0000
0000
3200
0000
0000
0000
0000
0000
0000
0000
0301
0000
0000
0000
1000
0000
0000
0000
0010
0000
0000
0000
0100
0000
0000
0000
0001
0000
0000
0000
0020
0030
0000
0000
0002
0003
0000
0000
2000
3000
0000
0000
,
0200
0300
0000
0000
0020
0030
0000
0000
0001
0000
0000
0000
1000
0000
0000
0000
0100
0000
0000
0000
1000
0000
0000
0000
0001
0000
0000
0000
0200
0300
0000
0000
0020
0030
0000
0000
2000
3000
0000
0000
0002
0003
0000
0000
0200
0300
0000
0000
0020
0000
0000
0000
0000
0000
0000
0000
2030
0000
0000
0000
0000
0000
0000
0000
,
3200
0000
0000
0302
0000
0000
0103
0000
0010
0000
0100
0000
0010
0000
0001
0000
0010
0000
0001
0000
1000
0000
0010
0000
,
0100
0001
0010
0100
1000
0100
1000
0010
1000
0001
0100
0001
,
0010
0001
0010
0001
0100
1000
0100
0010
1000
0001
1000
0100
,
0001
0100
0010
0001
0010
0100
0010
0100
1000
0010
0100
0001
,
0100
0001
1000
0010
0100
0010
1000
0001
1000
0100
0010
0100
,
1000
0001
1000
0001
1000
0010
0100
0001
0100
0001
1000
0100
,
0010
0001
0010
0001
1000
0100
0010
0100
1000
0001
1000
0010
,
0100
0010
1000
0001
0100
0010
1000
0100
0010
0001
0100
0100
,
1000
0000
0000
0000
0100
0000
0000
0000
0100
0000
0000
0000
0001
0000
0000
0000
0000
0000
1000
0000
0000
0100
0000
0000
1000
0000
0000
0000
0000
0000
0010
0000
0000
0000
0000
0000
0100
0000
0000
0000
0000
0000
0001
0000
0000
0010
0000
0000
,
0001
0010
0001
0000
0100
0000
0010
1000
0001
0000
0010
0000
0001
0000
0010
0100
,
1000
0001
1000
0000
0010
0000
1000
0100
0010
0000
0001
0000
0100
0000
0010
1000
,
0001
1000
0001
0000
0100
0000
0010
1000
0001
0000
1000
0000
0001
0010
0100
1000
,
0001
0010
0100
1000
0001
0000
0100
0010
1000
0000
0001
0000
1000
0000
0001
1000
,
0100
0010
0100
0000
1000
0000
0010
0100
0010
0000
1000
0000
0001
0000
0100
0000
,
1000
0100
0001
0000
1000
0000
0100
0010
0100
0000
1000
0000
0001
0000
0010
0100
,
0010
0000
0000
0100
0000
0000
1000
0000
0000
0100
0000
0000
1000
0000
0000
0000
0001
0000
0000
0000
0010
0000
0000
0000
1000
0000
0000
0000
0001
0000
0000
0000
0100
0000
0000
0000
1000
0000
0000
0000
0001
0000
0000
0000
1000
0000
0000
0000
,
0001
0000
0000
0000
1000
0010
0100
0010
1000
0000
0001
0000
0010
0000
0100
1000
,
0100
1000
0001
1000
0100
0010
0001
1000
0001
0000
0100
0000
0010
1000
0100
0000
,
0010
0001
0100
0000
0010
1000
0001
0010
0001
0000
0100
0000
0001
0000
0010
0100
,
1000
0010
0100
0010
0100
0001
0010
0100
1000
0000
0001
0000
2000
0000
3020
0000
,
0230
0000
0302
0000
1003
0000
0010
0100
0010
0100
0010
0000
1000
0000
0001
0010
,
0100
0010
0001
0010
0100
0000
1000
0001
1000
0001
1000
0000
0010
0000
0100
0001
,
1000
0001
0100
0001
1000
0000
0010
0100
0010
1000
0010
0000
0100
0000
0001
1000
,
0100
1000
0001
1000
0100
0000
0000
0000
0010
0000
0000
0000
0100
0010
0100
0000
,
1001
0020
0000
0000
,
0000
0000
0000
0000
0000
0000
0230
0000
0000
0000
0000
0000
0000
0000
0000
1300
0001
0010
0200
0000
0000
0000
0000
0000
,
0000
0000
0000
0301
1000
0010
0200
0000
0000
0000
0000
0000
0000
0000
0000
1300
0001
1000
0200
0000
0000
0000
0000
0000
,
0310
0000
0000
0010
0001
1000
0020
0000
0000
0000
0000
0000
0000
0000
0000
0031
1000
0100
0020
0000
0000
0000
0000
0000
,
0000
0000
0000
0000
0000
0000
0130
0000
0001
0000
1000
0000
0020
0000
0000
0000
0000
0000
0000
0000
0000
0000
0000
0000
0000
0000
0000
0000
0000
0000
0130
0000
1000
0000
0001
0000
0010
0000
0000
0010
0000
0000
0001
0000
0000
0001
0000
0000
,
1000
0000
1000
0000
0100
0000
0100
0000
2000
0000
0000
0000
0000
0000
0000
0000
3001
0000
0001
0000
0001
0000
0000
0000
0011
0000
0000
0000
0000
0000
0001
0100
,
0001
0000
0001
0001
1000
2020
0000
0000
0000
0000
0000
0000
3030
0000
1010
1000
,
1001
0000
0000
0000
0000
0000
0001
0000
0000
0010
0000
0000
0001
0000
0000
0010
0000
0000
0001
0000
0000
0010
0000
0000
0002
0000
0000
0000
0000
0000
0000
0000
0000
0000
0000
0000
0000
0000
0000
0000
0000
0000
0000
0000
0000
0000
0000
0000
1003
0000
0000
0000
0000
0000
0000
0000
0000
0000
0000
0000
0001
0000
0000
0000
0010
0000
0000
0000
0100
0000
0000
0000
1000
0000
0000
0000
0000
0000
0000
0000
0000
0000
0000
0000
0000
0000
0000
0000
0000
0000
1000
0000
0000
0010
0000
0000
,
1000
0000
0000
0000
0000
0000
1000
0000
0000
1000
0000
0000
0001
0000
0000
0101
0000
0000
0000
0000
0000
0101
0000
0000
0001
0000
0000
0000
0100
0000
0000
0000
1000
0000
0000
0000
1100
0000
0000
0000
0000
0000
0001
0000
0000
0101
0000
0000
,
0000
0000
0110
0000
1000
0001
1000
0001
2000
0000
0000
0000
0000
0000
0000
0000
0000
0000
0000
0000
3000
0000
0000
0000
0220
0000
0000
0000
0000
0000
0000
0000
,
0000
0330
2002
0000
0000
3003
0220
0000
,
0000
0330
2002
0000
0000
0000
0000
0000
,
0000
0000
0000
3003
,
0000
0000
0000
0000
1000
0000
0100
0000
0010
0000
0001
1000
0010
0000
0100
0001
,
1000
0010
0100
0000
0001
0000
1000
0000
0100
0000
0010
0001
1000
0000
0010
0100
,
0001
1000
0100
0000
0010
0000
0100
0000
1000
0000
0001
0100
0010
0000
1000
0001
,
0010
0100
1000
0000
0001
0000
0100
0000
0010
0000
1000
0100
0010
0000
0001
1000
,
0010
0100
0001
0000
0010
0000
0100
0000
1000
0100
0010
0000
0001
0100
0010
0000
,
1000
0100
0010
0000
0001
0000
0100
0000
0010
0100
0001
0000
0010
0100
1000
0000
,
0010
0100
0001
0000
2000
0000
0200
0000
3300
0000
0020
0000
0002
0000
0033
0000
,
0002
0000
0000
0000
0000
0000
0000
0000
0200
0000
0000
0000
0000
0000
0000
0000
0303
0000
0000
0000
0000
0000
0000
0000
0020
0000
0000
0000
0000
0000
0000
0000
2000
0000
0000
0000
0000
0000
0000
0000
3030
0000
0000
0000
0000
0000
0000
0000
0200
0300
0000
0000
0000
0000
0000
0000
0200
0300
0000
0000
0000
0000
0000
0000
,
1100
1000
1010
0001
0011
0001
0101
0100
,
1001
0000
0100
0000
1001
0000
0100
0000
2001
0000
0010
0000
3010
0000
1000
0100
,
0010
0000
0000
0000
0000
0000
0000
0000
0001
0000
0000
0000
0000
0000
0000
0000
0011
0000
0000
0000
0000
0000
0000
0000
1001
0000
0000
0000
0000
0000
0000
0000
1000
0000
0000
0000
0000
0000
0000
0000
0100
0000
0000
0000
0000
0000
0000
0000
1100
0000
0000
0000
0000
0000
0000
0000
2002
3003
0000
0000
0000
0000
0000
0000
,
0220
0330
0000
0000
0000
0000
0000
0000
2002
3003
0000
0000
0000
0000
0000
0000
0220
0330
0000
0000
0000
0000
0000
0000
1001
0000
0000
0000
0000
0000
0000
0000
0000
0000
0000
0000
0000
0000
0000
0000
0000
0000
0000
0000
0000
0000
0000
0000
1001
0000
0000
0000
0000
0000
0000
0000
1000
0000
0000
0000
0100
0000
0000
0000
,
0010
0000
0011
0000
1001
0000
1000
0001
0100
0000
0110
0000
1010
0000
1000
0010
,
0100
0000
0101
0000
1001
0000
0000
0000
0002
0000
0103
0010
1010
0000
2000
0000
,
3100
0010
0011
0000
0002
0000
0013
0100
1100
0000
2000
0000
3010
0100
0101
0000
,
2002
0000
0000
0000
0000
0000
0000
0000
3003
0000
0000
0000
0000
0000
0000
0000
0001
0000
0000
0000
1000
0000
0000
0000
0001
0000
0000
0000
1000
0000
0000
0000
0001
0000
0000
0000
0100
0000
0000
0000
0100
0000
0000
0000
1000
0000
0000
0000
0001
0000
0000
0000
2000
3000
0000
0000
0020
0030
0000
0000
0020
0030
0000
0000
,
0002
0003
0000
0000
2000
3000
0000
0000
0001
0000
0000
0000
1000
0000
0000
0000
0001
0000
0000
0000
1000
0000
0000
0000
1001
0000
0000
0000
0000
0000
0000
0000
0000
0000
0000
0000
0022
0033
0000
0000
0000
0000
0000
0000
0000
0000
0000
0000
1100
0000
0000
0000
0000
0000
0000
0000
0000
0000
0000
0000
2000
3000
0000
0000
,
0020
0030
0000
0000
0200
0300
0000
0000
0000
0000
0000
0000
0000
0000
0000
0000
0001
0000
0000
0000
0100
0000
0000
0000
0010
0000
0000
0000
0001
0000
0000
0000
1000
0000
0000
0000
0100
0000
0000
0000
0010
0000
0000
0000
0000
0000
0000
0000
0000
0000
0000
0000
0002
0003
0000
0000
0020
0030
0000
0000
0200
0300
0000
0000
,
0020
0030
0000
0000
2000
3000
0000
0000
0000
0000
0000
0000
0000
0000
0000
0000
0100
0000
0000
0000
0001
0000
0000
0000
0100
0000
0000
0000
0000
0000
0000
0000
0000
0000
0000
0000
2000
3000
0000
0000
0200
0300
0000
0000
0220
0330
0000
0000
0000
0000
0000
0000
0002
0003
0000
0000
0020
0030
0000
0000
0220
0030
0000
0000
,
0000
0000
0000
0000
0000
0000
2300
0000
0000
0000
3001
0000
0001
0100
0001
0000
0000
0000
0110
0000
0000
0000
1010
0000
0000
0000
2002
0000
0000
0000
3003
0000
,
1000
0000
0000
0000
0100
0000
0000
0000
0001
0000
0000
0000
0100
0000
0000
0000
1000
0000
0000
0000
0000
0000
0000
0000
0002
0003
0000
0000
0200
0300
0000
0000
2000
3000
0000
0000
0200
0300
0000
0000
0002
0003
0000
0000
0000
0000
0000
0000
0000
0000
0000
0000
0000
0000
0000
0000
1000
0000
0000
0000
0100
0000
0000
0000
,
0010
0001
0100
0010
2000
0000
0000
0000
3001
0100
0001
0100
1000
0100
1000
0100
,
0010
0001
0010
0001
0010
1000
0010
1000
0001
0100
0010
1000
0001
0100
0010
1000
,
0100
0010
0001
2000
0000
0000
0000
0000
0000
0000
0000
0000
0000
0000
0000
0000
,
0000
0000
0000
0000
,
0000
0000
0000
0000
,
0000
0000
0000
0000
,
0000
3000
0000
0000
;
#NOTEDATA:;
#STEPSTYPE:dance-double;
#DIFFICULTY:Easy;
#METER:10;
#NOTES:
00000000
00000000
00000000
00000000
,
00000000
00000000
00000000
00000000
,
00000000
00000000
00000000
00000000
,
00000000
00000000
00000000
00000000
,
00000000
00000000
00000000
00000000
,
00001000
00000000
00000000
00001000
00000000
00000000
00002000
00000000
,
00000000
00000000
00000000
00003000
,
00010000
00000000
00000000
00010000
00000000
00000000
00020000
00000000
,
00000000
00000000
00000000
00030000
,
00011000
00000000
00000000
00000000
,
00011000
00000000
00000000
00000000
,
00001000
00010000
00001000
00010000
,
00001000
00010000
00001000
00010000
00001000
00000000
00000000
00000000
,
00001000
00100000
00010000
00010000
,
01000000
00100000
10000000
10000000
,
01000000
00100000
00010000
00100000
,
00001000
00010000
00001000
00000000
00010000
00000000
00000000
00000000
,
00001000
00010000
00000100
00000100
,
00001000
00000010
00000100
00000100
,
00000001
00001000
00000100
00000100
,
00000010
00000000
00000000
00000000
00000001
00001000
00000001
00000000
,
00001000
00000100
00000100
00000100
,
00010000
00001000
00010000
00000000
00001000
00000000
00000000
00000000
,
00100000
00010000
00010000
00010000
,
10000000
00010000
10000000
00000000
00100000
00000000
00000000
00000000
,
10000000
00000000
00000000
10000000
00000000
00000000
01000000
00000000
,
00000000
01000000
00000000
00000000
00010000
00000000
00001000
00000000
,
00000010
00000000
00000000
00000010
00000000
00000000
00000001
00000000
,
00000000
00000001
00000000
00000000
00001000
00000000
00000001
00000000
,
00001000
00000100
00010000
00001000
,
00100000
00010000
10010000
00000000
,
10000000
00100000
01000000
00001000
,
00010000
00001000
00011000
00000000
,
00010000
00001000
00000010
00000001
,
00000010
00000010
00001001
00000000
,
00000001
00000100
00001000
00010000
,
00001000
00001000
00010000
00010000
,
00001000
00100000
00001000
00000000
01000000
00000000
00010000
00000000
,
00100000
01000000
00100000
00000000
00010000
00000000
10000000
00000000
,
01000000
00100000
01000000
00000000
00100000
00000000
00001000
00000000
,
00010000
00001000
00010000
00000000
00001000
00000000
00000000
00000000
,
00010000
00000010
00010000
00000000
00000010
00000000
00001000
00000000
,
00000100
00000010
00000100
00000000
00000010
00000000
00000001
00000000
,
00001000
00000001
00001000
00000000
00000010
00000000
00000100
00000000
,
00000002
00000000
00000000
00000003
,
00000001
00000010
00000100
00001000
,
00000100
00010000
00000100
00000000
00010000
00000000
00000000
00000000
,
00001000
00100000
00010000
00100000
,
01000000
10000000
01000000
00000000
10000000
00000000
00000000
00000000
,
10000000
01000000
00010000
00001000
,
00000010
00000000
00000001
00000000
00001000
00000001
00001000
00000000
,
00000001
00000100
00001000
00010000
,
00001000
00001000
00001000
00000000
,
00011000
00000000
00000000
00000000
,
00000000
00000000
00000000
00000000
,
00002000
00000000
00000000
00003000
,
00020000
00000000
00000000
00030000
,
00200000
00000000
00000000
00300000
,
20000000
00000000
00000000
30000000
,
02000000
00000000
00000000
03000000
,
00020000
00000000
00000000
00030000
,
00002000
00000000
00000000
00003000
,
00000020
00000000
00000000
00000030
,
00000001
00000000
00000011
00000000
,
00000010
00000100
00001000
00000000
,
00000100
00010000
00000000
00000000
00000000
00000000
00000000
00000000
,
00000000
00011000
00011000
00000000
,
00001000
00000000
01001000
00000000
,
01000000
00010000
01000000
00000000
,
00100000
01000000
00000000
00000000
00000000
00000000
00000000
00000000
,
01100000
00000000
00000000
00000000
,
10010000
00000000
00000000
00000000
,
01100000
00000000
00000000
00000000
,
01000000
00000000
00001000
00000000
,
00010000
00000000
00000000
00000000
,
00022000
00000000
00000000
00000000
,
00000000
00000000
00000000
00000000
,
00000000
00000000
00000000
00000000
,
00033000
00000000
00000000
00000000
,
00010000
00000100
00001000
00000100
,
00000010
00000000
00000001
00000000
00001000
00000001
00001000
00000000
,
00000001
00000100
00000010
00001000
,
00000010
00000000
00010000
00000000
00001000
00010000
00001000
00000000
,
00010000
00000000
00001000
00000000
00100000
00010000
00100000
00000000
,
01000000
00000000
10000000
00000000
00010000
10000000
00010000
00000000
,
10000000
00000000
00000000
11000000
00000000
00000000
01000000
00000000
,
00000000
01100000
00000000
00000000
00100000
00000000
00001000
00000000
,
00010000
00000000
00000100
00000000
00001000
00000100
00001000
00000000
,
00000010
00000010
00000010
00000000
,
00000010
00000000
00000100
00000000
00000001
00001000
00000001
00001000
,
00000000
00000010
00000000
00000010
00000000
00000100
00000000
00000100
,
00000000
00000000
00001001
00000000
00000001
00000010
00000100
00000000
,
00001000
00000100
00010000
00000000
00002000
00000000
00003000
00000000
,
00010000
00001000
00000000
00010000
00001000
00000000
00010000
00001000
,
00000000
00010000
00001000
00000000
00020000
00000000
00030000
00000000
,
00001000
00000000
00000000
00100000
00000000
00000000
00001000
00000000
,
01000000
00000000
00010000
00000000
01000000
00000000
00100000
01000000
,
00000000
00010000
00000000
00000000
10000000
00000000
01000000
00000000
,
00100000
00000000
00010000
00100000
00000000
00010000
00100000
00000000
,
00002000
00000000
00000000
00000000
,
00000000
00000000
00000000
00000000
,
00003000
00010000
00000000
00001000
,
00000000
00000000
00000000
00010000
00000000
00000000
00000000
00000000
,
00000000
00022000
00000000
00000000
,
00000000
00000000
00000000
00000000
,
00033000
00000000
00000000
00000000
;
#NOTEDATA:;
#STEPSTYPE:dance-double;
#DIFFICULTY:Medium;
#METER:14;
#BPMS:0=210,209=105,261=210,291=105,292=210,335.75=105,340=210,341=105,341.5=210,343=105,343.5=210,345=105,346=210;
#STOPS:84=0.143,91.5=0.143,100=0.0715,101.25=0.0715,102.5=0.0715,103.75=0.0715,107=0.0715,108.25=0.0715,109.5=0.0715,110.75=0.0715,303.5=0.143,304=0.143,304.5=0.143,305=0.143,323=0.0715,324.25=0.0715,325.5=0.0715,326.25=0.0715,327=0.0715,328.25=0.0715,330.5=0.0715,332.25=0.0715,333.5=0.0715,339.75=0.143;
#NOTES:
00000000
00000000
00000000
00000000
,
00000000
00000000
00000000
00000000
,
00000000
00000000
00000000
00000000
,
00000000
00000000
00000000
00000000
,
00000000
00000000
00000000
00000000
,
00001000
00000000
00000000
00001000
00000000
00000000
00020000
00000000
,
00000000
00000000
00000000
00030000
,
00010000
00000000
00000000
00010000
00000000
00000000
00002000
00000000
,
00000000
00000000
00013000
00000000
,
00022000
00000000
00000000
00000000
,
00000000
00000000
00000000
00000000
,
00000000
00000000
00000000
00033000
,
00001000
00010000
00001000
00000000
00010000
00001000
00010000
00001000
,
00011000
00000000
00000000
00000000
00001000
00000000
00000000
00010000
00000000
00000000
00000100
00000000
00001000
00000000
00000000
00000000
,
00000001
00000000
00000000
00000000
00000010
00000000
00000000
00000100
00000000
00000000
00001000
00000000
00000100
00000000
00000000
00000000
,
00010000
00000000
00000000
00000000
00001000
00000000
00000000
00100000
00000000
00000000
00010000
00000000
01000000
00000000
00000000
00000000
,
00200000
20300000
32000000
03200000
00302000
00023000
00030200
00002300
,
00003001
00000000
00000000
00000000
00000010
00000000
00000000
00000100
00000000
00000000
00001000
00000000
00000100
00000000
00000000
00000000
,
00010000
00000000
00000000
00000000
00001000
00000000
00000000
01000000
00000000
00000000
00010000
00000000
00100000
00000000
00000000
00000000
,
00010000
00000000
00000000
00000000
10000000
00000000
00000000
00100000
00000000
00000000
01000000
00000000
00010000
00000000
00000000
00000000
,
10000000
00000000
01000000
00100000
01000000
00100000
00010000
00000000
,
00200000
00300000
00000000
00000000
00010000
00000000
00000000
00000000
00100000
00000000
00000000
00000000
00010000
00000000
00000000
00000000
00000000
00000000
00000000
00000000
00100000
00000000
00000000
00000000
00000000
00000000
00000000
00000000
00100000
00000000
00000000
00000000
,
00000000
00000000
00000000
00000000
00001000
00000000
00000000
00000000
00010000
00000000
00000000
00000000
00001000
00000000
00000000
00000000
00000000
00000000
00000000
00000000
00100000
00000000
00000000
00000000
00000000
00000000
00000000
00000000
00002000
00003000
00000000
00000000
,
00010000
00001000
00010000
00000000
00000100
00000000
00000100
00000000
,
00001000
00000010
00001000
00000000
00000001
00000000
00001000
00001000
,
00000000
00000000
00000000
00000000
00000200
00000300
00000000
00000000
00000000
00000000
00000000
00000000
00000200
00000300
00000000
00000000
00000000
00000000
00000000
00000000
00000000
00000000
00000000
00000000
00010000
00000000
00000000
00000000
00000000
00000000
00000000
00000000
00010000
00000000
00000000
00000000
00000000
00000000
00000000
00000000
00000000
00000000
00000000
00000000
00002000
00003000
00000000
00000000
00000000
00000000
00000000
00000000
00002000
00003000
00000000
00000000
00000000
00000000
00000000
00000000
00000000
00000000
00000000
00000000
,
00011000
00000000
00000000
00000000
00000000
00000000
00000000
00000000
00000000
00000000
00000000
00000000
00000000
00000000
00000000
00000000
00011000
00000000
00000000
00000000
00000000
00000000
00000000
00000000
00000000
00000000
00000000
00000000
00000000
00000000
00000000
00000000
00001000
00000000
00000000
00000000
00000000
00000000
00000000
00000000
00001000
00000000
00000000
00000000
00000000
00000000
00000000
00000000
00000000
00000000
00000000
00000000
02000000
03000000
00000000
00000000
00000000
00000000
00000000
00000000
02000000
03000000
00000000
00000000
,
00000000
00000000
00000000
00000000
00000000
00000000
00000000
00000000
00010000
00000000
00000000
00000000
00000000
00000000
00000000
00000000
00010000
00000000
00000000
00000000
00000000
00000000
00000000
00000000
00000000
00000000
00000000
00000000
20000000
30000000
00000000
00000000
00000000
00000000
00000000
00000000
20000000
30000000
00000000
00000000
00000000
00000000
00000000
00000000
00000000
00000000
00000000
00000000
00100000
00000000
00000000
00000000
00000000
00000000
00000000
00000000
00000000
00000000
00000000
00000000
00000000
00000000
00000000
00000000
,
10010000
20000000
32000000
03200000
,
00320000
00000000
00000000
00130000
00001000
00100000
00001000
00000000
00000000
00010000
00001000
00010000
,
00001000
00020000
00030200
00002300
,
00003020
00000000
00000000
00000130
00000001
00000100
00000001
00000000
00000000
00001000
00000001
00001000
,
00000001
00002000
00003200
00000320
,
00000230
00000000
00000000
00010300
00001000
00010000
00001000
00000000
00000000
01000000
00010000
01000000
,
00010000
20000000
30200000
02300000
,
03020000
00000000
00000000
00130000
00001000
00100000
00001000
00000000
00000000
00010000
00001000
00010000
,
00001000
00000000
00010000
00000010
00001000
00000010
00000100
00000001
,
00001000
00000001
00000010
00000100
00001000
00000100
00010000
00001000
,
00100000
00010000
10000000
10000000
00100000
01000000
00010000
00010000
,
00100000
01000000
10000000
01000000
00100000
01000000
00010000
00001000
,
00000010
00000100
00000010
00000001
00000100
00000010
00000100
00001000
,
00000100
00000010
00010000
00001000
00100000
00010000
01000000
00100000
,
10000000
01000000
00010000
01000000
10000000
00010000
00100000
00001000
,
00010000
00011000
00010100
00001100
,
00000110
00000000
00000001
00000010
00000100
00001000
00000000
00000100
,
00010000
00001000
00000000
00010000
00001000
00010000
00001000
00100000
,
00010000
00000000
01000000
00100000
01000000
00100000
10000000
00010000
,
10000000
00000000
00010000
10000000
01000000
00000000
00010000
00001000
,
00010000
00000000
00001000
00010000
00001000
00000010
00000001
00001000
,
00000001
00000000
00001000
00000001
00000100
00001000
00010000
00100000
,
10000000
00000000
00100000
10000000
00010000
00100000
00001000
00010000
,
00000100
00001000
00000001
00000000
00000001
00000000
00000001
00000000
,
00001001
00000002
00000000
00000000
,
00000000
00002003
00000001
00003200
,
00001000
00020300
00000100
00032000
,
00010000
02003000
00010000
03200000
,
10000000
02300000
00010000
03002000
,
00010000
00000000
00000000
00000000
00023000
00000000
00000000
00000000
00030100
00001000
00000100
00000000
00000010
00000000
00000000
00000000
,
00000110
00000000
00000000
00000000
00000001
00001000
00000000
00000000
00000000
00000000
00000000
00000000
00000000
00000000
00000001
00000100
,
00000010
00010000
00000010
00000000
00020000
00000000
00000000
00000000
00031000
00100000
00001000
00000000
01000000
00000000
00000000
00000000
,
01100000
00000000
00000000
00000000
10000000
00010000
00000000
00000000
00000000
00000000
00000000
00000000
10000000
00000000
01000000
00010000
,
00000000
00001000
00000010
00000000
00000002
00000000
00000000
00000000
00000000
00000000
00000000
00000000
00000203
00000000
00000000
00000000
,
00000000
00002300
00000000
00023000
,
00000000
00032000
00000000
00000000
,
00000000
00000000
00000000
00003000
,
00000000
00000000
00010000
00010000
00001000
00001000
01000000
00010000
,
10000000
01000000
00100000
00100000
00001000
00001000
00010000
00000100
,
00001000
00000001
00000100
00000100
00000010
00000010
00001000
00000100
,
00010000
00001000
01000000
01000000
00010000
00010000
10000000
00100000
,
10000000
00000000
00010000
10000000
00100000
01000000
00010000
00010000
,
00100000
00100000
00001000
00010000
00000010
00001000
00000001
00000001
,
00000100
00000100
00000001
00001000
00000000
00000010
00010000
00000000
,
00001000
00000000
00000000
00000000
00000000
00000000
00000000
00000000
01000000
00000000
00000000
00000000
00000000
00000000
00000000
00000000
00000000
00000000
00000000
00000000
00000000
00000000
00000000
00000000
00010000
00000000
00000000
00000000
00000000
00000000
00000000
00000000
10000000
00000000
00000000
00000000
00000000
00000000
00000000
00000000
00100000
00000000
00000000
00000000
00000000
00000000
00000000
00000000
02000000
03000000
00000000
00000000
00000000
00000000
00000000
00000000
02000000
03000000
00000000
00000000
00000000
00000000
00000000
00000000
,
00010000
01000000
00010000
01000000
00001000
00010000
00001000
00010000
,
00011000
00000000
00010010
00000000
00001020
00001000
00001030
00000000
,
00000001
00000000
00000000
00000000
00000000
00000000
00000000
00000000
00000010
00000000
00000000
00000000
00000000
00000000
00000000
00000000
00000001
00000000
00000000
00000000
00000000
00000000
00000000
00000000
00000010
00000000
00000000
00000000
00000000
00000000
00000000
00000000
00000100
00000000
00000000
00000000
00000000
00000000
00000000
00000000
00001000
00000000
00000000
00000000
00000000
00000000
00000000
00000000
00000100
00000000
00000000
00000000
00000000
00000000
00000000
00000000
00020000
00030000
00000000
00000000
00000000
00000000
00000000
00000000
,
00020200
00030300
00000000
00000000
00000000
00000000
00000000
00000000
00022000
00033000
00000000
00000000
00000000
00000000
00000000
00000000
00202000
00303000
00000000
00000000
00000000
00000000
00000000
00000000
00011000
00000000
00000000
00000000
00000000
00000000
00000000
00000000
00000000
00000000
00000000
00000000
00000000
00000000
00000000
00000000
00000000
00000000
00000000
00000000
00000000
00000000
00000000
00000000
00011000
00000000
00000000
00000000
00000000
00000000
00000000
00000000
00000000
00000000
00000000
00000000
00000000
00000000
00000000
00000000
,
00001000
01000000
00010000
00100000
01000000
10000000
11000000
00000000
,
10000000
00000000
00010000
00000000
01010000
00000000
00000000
00000000
01000000
00100000
01000000
00000000
00000000
00000000
00100000
01000000
,
00100000
00000000
00000000
00000000
01000000
00100000
01000000
00000000
00000000
00000000
00100000
00000000
00010000
00000000
00001000
00000000
,
00000200
00000000
00000000
00000000
00000000
00000000
00000000
00000000
00000000
00000000
00000000
00000000
00000000
00000000
00000000
00000000
00000301
00000000
00000000
00000000
00000000
00000000
00000000
00000000
00000000
00000000
00000000
00000000
00000000
00000000
00000000
00000000
00000001
00000000
00000000
00000000
00000000
00000000
00000000
00000000
00000010
00000000
00000000
00000000
00000000
00000000
00000000
00000000
00000000
00000000
00000000
00000000
00000200
00000300
00000000
00000000
00000000
00000000
00000000
00000000
00002000
00003000
00000000
00000000
,
00000000
00000000
00000000
00000000
00000000
00000000
00000000
00000000
00000100
00000000
00000000
00000000
00000000
00000000
00000000
00000000
00010000
00000000
00000000
00000000
00000000
00000000
00000000
00000000
00001000
00000000
00000000
00000000
00000000
00000000
00000000
00000000
00000000
00000000
00000000
00000000
00020000
00030000
00000000
00000000
00000000
00000000
00000000
00000000
00000000
00000000
00000000
00000000
00011000
00000000
00000000
00000000
00000000
00000000
00000000
00000000
00000000
00000000
00000000
00000000
00002000
00003000
00000000
00000000
,
00000000
00000000
00000000
00000000
02000000
03000000
00000000
00000000
00000000
00000000
00000000
00000000
00000000
00000000
00000000
00000000
00010000
00000000
00000000
00000000
00000000
00000000
00000000
00000000
00100000
00000000
00000000
00000000
00000000
00000000
00000000
00000000
01000000
00000000
00000000
00000000
00000000
00000000
00000000
00000000
10000000
00000000
00000000
00000000
00000000
00000000
00000000
00000000
00000000
00000000
00000000
00000000
00200000
00300000
00000000
00000000
00000000
00000000
00000000
00000000
02000000
03000000
00000000
00000000
,
00000000
00000000
00000000
00000000
00020000
00030000
00000000
00000000
00000000
00000000
00000000
00000000
00000000
00000000
00000000
00000000
00100000
00000000
00000000
00000000
00000000
00000000
00000000
00000000
00001000
00000000
00000000
00000000
00000000
00000000
00000000
00000000
00000000
00000000
00000000
00000000
00020000
00030000
00000000
00000000
00000000
00000000
00000000
00000000
00002000
00003000
00000000
00000000
00000000
00000000
00000000
00000000
00020000
00030000
00000000
00000000
00000000
00000000
00000000
00000000
00002000
00000000
00000000
00000000
,
00000000
00000000
00000000
00000000
00000000
00000000
00000000
00003000
,
00020000
00000000
00030000
00002000
00000000
00003000
00000000
00000020
,
00000000
00000030
00000220
00000000
,
00000000
00000000
00000000
00000000
,
00000000
00000330
00000000
00000000
;
#NOTEDATA:;
#STEPSTYPE:dance-double;
#DIFFICULTY:Hard;
#METER:16;
#BPMS:0=210,209=105,261=210,291=105,292=210,335.75=105,340=210,341=105,341.5=210,343=105,343.5=210,345=105,346=210;
#STOPS:84=0.143,91.5=0.143,100=0.0715,101.25=0.0715,102.5=0.0715,103.75=0.0715,107=0.0715,108.25=0.0715,109.5=0.0715,110.75=0.0715,303.5=0.143,304=0.143,304.5=0.143,305=0.143,323=0.0715,324.25=0.0715,325.5=0.0715,326.25=0.0715,327=0.0715,328.25=0.0715,330.5=0.0715,332.25=0.0715,333.5=0.0715,339.75=0.143;
#NOTES:
00000000
00000000
00000000
00000000
,
00000000
00000000
00000000
00000000
,
00000000
00000000
00000000
00000000
,
00000000
00000000
00000000
00000000
,
00000000
00000000
00000000
00000000
,
00001000
00000000
00100000
00010000
00000000
01000000
00200000
00000000
,
00000000
00000000
00000000
00300000
,
01000000
00000000
00001000
00010000
00000000
00000100
00000020
00000000
,
00000000
00000000
00002030
00000000
,
00013000
00000000
00001000
00010000
00000000
00011000
00000000
00001000
,
00010000
00001000
00000000
00010000
00001000
00010000
00000000
00001000
,
00010000
00001000
00010000
00001000
00010000
00001000
00010000
00001000
,
00010000
00001000
00010000
00000000
00001000
00010000
00001000
00000000
00100000
00001000
00100000
00000000
00010000
00100000
00010000
00000000
,
10000000
00000000
00000000
00000000
00100000
00000000
00000000
01000000
00000000
00000000
00010000
00000000
10000000
00000000
01000000
00100000
,
01000000
00000000
00000000
00000000
00010000
00000000
00000000
00001000
00000000
00000000
00010000
00000000
00001000
00000000
00010000
00000100
,
00010000
00000000
00000000
00000000
00000100
00000000
00000000
00001000
00000000
00000000
00000010
00000000
00000100
00000000
00000001
00001000
,
00000002
00000203
00000320
00002030
00023000
02030000
03200000
20300000
,
30010000
00000000
00000000
00000000
01010000
00000000
00000000
10000000
00000000
00000000
01000000
00000000
00100000
00000000
00010000
00100000
,
00001000
00000000
00000000
00000000
00011000
00000000
00000000
00010000
00000000
00000000
00000100
00000000
00001000
00000000
00000010
00000100
,
00000010
00000000
00000000
00000000
00000110
00000000
00000000
00000001
00000000
00000000
00000010
00000000
00000100
00000000
00001000
00000100
,
00001000
00000000
00000000
00000000
00000100
00010000
00000100
00000000
00010000
00001000
00010000
00000000
00001000
01000000
00001000
00000000
,
02000000
03000000
00000000
00000000
00000000
00000000
00000000
00000000
00010000
00000000
00000000
00000000
00000000
00000000
00000000
00000000
00010000
00000000
00000000
00000000
00000000
00000000
00000000
00000000
10000000
00000000
00000000
00000000
00000000
00000000
00000000
00000000
01000000
00000000
00000000
00000000
00000000
00000000
00000000
00000000
01000000
00000000
00000000
00000000
00000000
00000000
00000000
00000000
00100000
00000000
00000000
00000000
00000000
00000000
00000000
00000000
00010000
00000000
00000000
00000000
00000000
00000000
00000000
00000000
,
00010000
00000000
00000000
00000000
00000000
00000000
00000000
00000000
00100000
00000000
00000000
00000000
00000000
00000000
00000000
00000000
00001000
00000000
00000000
00000000
00000000
00000000
00000000
00000000
00010000
00000000
00000000
00000000
00000000
00000000
00000000
00000000
00010000
00000000
00000000
00000000
00000000
00000000
00000000
00000000
00010000
00000000
00000000
00000000
00000000
00000000
00000000
00000000
00000000
00000000
00000000
00000000
00000000
00000000
00000000
00000000
00002000
00003000
00000000
00000000
00000000
00000000
00000000
00000000
,
00010000
00010000
00000100
00001000
00001000
00000100
00000010
00000010
,
00000001
00001000
00000001
00000001
00000001
00000000
00001000
00000001
,
00000100
00000000
00000000
00000000
00002000
00003000
00000000
00000000
00000000
00000000
00000000
00000000
00020000
00030000
00000000
00000000
00000000
00000000
00000000
00000000
00200000
00300000
00000000
00000000
10000000
00000000
00000000
00000000
00000000
00000000
00000000
00000000
00010000
00000000
00000000
00000000
00000000
00000000
00000000
00000000
10000000
00000000
00000000
00000000
02000000
03000000
00000000
00000000
00000000
00000000
00000000
00000000
00020000
00030000
00000000
00000000
00000000
00000000
00000000
00000000
00002000
00003000
00000000
00000000
,
00000010
00000000
00000000
00000000
00000000
00000000
00000000
00000000
00000001
00000000
00000000
00000000
00000000
00000000
00000000
00000000
00000100
00000000
00000000
00000000
00000000
00000000
00000000
00000000
00000001
00000000
00000000
00000000
00000000
00000000
00000000
00000000
00000010
00000000
00000000
00000000
00000000
00000000
00000000
00000000
00001000
00000000
00000000
00000000
00000000
00000000
00000000
00000000
00010000
00000000
00000000
00000000
02000000
03000000
00000000
00000000
00000000
00000000
00000000
00000000
20000000
30000000
00000000
00000000
,
00000000
00000000
00000000
00000000
00020000
00030000
00000000
00000000
10000000
00000000
00000000
00000000
00000000
00000000
00000000
00000000
00100000
00000000
00000000
00000000
00000000
00000000
00000000
00000000
00010000
00000000
00000000
00000000
00002000
00003000
00000000
00000000
00000000
00000000
00000000
00000000
00000200
00000300
00000000
00000000
00000000
00000000
00000000
00000000
00000002
00000003
00000000
00000000
00001000
00000000
00000000
00000000
00000000
00000000
00000000
00000000
00000001
00000000
00000000
00000000
00000000
00000000
00000000
00000000
,
00001000
00001001
00000001
00000011
,
00000010
00000000
00000000
00000100
00001000
00000100
00001000
00000100
00001000
00000100
00010000
00000100
,
00010000
00000100
00010000
00000100
00000000
00000000
00010000
00000000
00000000
00011000
00000000
00000000
,
00101000
00000000
00000000
00100000
00001000
00100000
00001000
00100000
00001000
00100000
00010000
00100000
,
00010000
00110000
00010000
10010000
,
10000000
00000000
00000000
00100000
10000000
00100000
10000000
00100000
10000000
00100000
01000000
00100000
,
01000000
00100000
01000000
00010000
00000000
00000000
01010000
00000000
00000000
01000000
00000000
00000000
,
01001000
00000000
00000000
00001000
00010000
00001000
00010000
00001000
00010000
00000100
00001000
00000100
,
00001000
00000000
00000000
00000000
00000100
00000000
00000000
00000000
00001000
00000000
00000000
00000000
00000001
00000000
00000000
00000000
00000000
00000000
00000010
00000000
00000000
00000100
00000000
00000000
00000010
00000000
00000000
00000000
00000000
00000000
00000001
00000000
00000000
00000000
00000000
00000000
00001000
00000000
00000000
00000000
00000000
00000000
00000100
00000000
00000000
00010000
00000000
00000000
,
00000100
00000000
00010000
00000000
00001000
00000000
01000000
00010000
01000000
00000000
00100000
00000000
10000000
00000000
00010000
00100000
,
00010000
00000000
10000000
00000000
01000000
00000000
00100000
00010000
00100000
00000000
00001000
00000000
00010000
00000000
00001000
00010000
,
00001000
00000000
00010000
00000000
00000100
00000000
00001000
00000000
00000010
00001000
00000010
00000000
00001000
00000100
00000010
00000000
,
00000001
00001000
00000001
00000000
00000100
00000000
00000010
00000100
00000010
00000000
00000100
00000000
00001000
00000000
00010000
00001000
,
00010000
00000000
00001000
00000000
01000000
00000000
00100000
01000000
00100000
00000000
10000000
00000000
00010000
00000000
00100000
00000000
,
01000000
10000000
00010000
00000000
10000000
00000000
01000000
00100000
00010000
00000000
00100000
00000000
00001000
00000000
00010000
00000000
,
00000100
00000000
00000000
00001000
00000000
00000000
00000100
00000000
00000000
00000000
00000000
00000000
00001000
00000000
00000000
00000000
00000100
00000000
00000000
00000000
00000010
00000000
00000000
00000000
00000100
00000000
00000000
00000000
00000010
00000000
00000000
00000000
00000001
00000000
00000000
00000000
00001000
00000000
00000000
00000000
00000001
00000000
00000000
00000000
00001000
00000000
00000000
00000000
,
00000001
00000000
00001000
00001000
00000010
00010000
00000100
00010000
,
00001000
00100000
00010000
00010000
01000000
00100000
10000000
00010000
,
00100000
01000000
10000000
01000000
00010000
00001000
00000010
00000001
,
00001000
00000000
00000010
00000000
00000100
00000001
00000100
00000000
00000010
00001000
00000010
00000000
00010000
00001000
00010000
00000000
,
00001000
01000000
00001000
00000000
01000000
00000000
00010000
00000000
10000000
00000000
00100000
00000000
01000000
00000000
00010000
00000000
,
10000000
00000000
01000000
00000000
00100000
01000000
00100000
01000000
00100000
00000000
00001000
00000000
00010000
00000000
00000100
00000000
,
00001000
00000001
00000010
00001000
00010000
00001000
00000100
00000001
,
00001000
00000000
00000100
00000000
00020000
00000000
00000000
00000000
00031000
00000000
00000000
00000000
00010000
00001000
00010000
00001000
,
00010000
00002000
00000000
00000000
,
00000000
00000000
00000000
00000000
00000000
00000000
02003000
00000000
00000000
00000000
00000000
00000000
00000000
00000000
00000000
03010000
00100000
00010000
00200000
00000000
00000000
00000000
00000000
00000000
,
00000000
00000000
00000000
01300000
10000000
01000000
20000000
00000000
00000000
00000000
00000000
00000000
00000000
00000000
00000000
30010000
00100000
00001000
00020000
00000000
00000000
00000000
00000000
00000000
,
00031000
00000000
00000000
00010000
00000100
00010000
00000200
00000000
00000000
00000000
00000000
00000000
00000000
00000000
00000000
00001300
00000010
00001000
00000020
00000000
00000000
00000000
00000000
00000000
,
00000000
00000000
00000000
00000000
00000000
00000000
00000130
00000000
00000001
00000000
00000100
00000000
00000002
00000000
00000000
00000000
00000000
00000000
00000000
00000000
00000000
00000000
00000000
00000000
00000000
00000000
00000000
00000000
00000000
00000000
00001003
00000000
00000100
00000000
00001000
00000000
00000100
00000000
00000000
00010000
00000000
00000000
00000100
00000000
00000000
00000000
00000000
00000000
,
00010000
00000000
00001000
00000000
00010000
00000000
00000000
00000000
00002000
00000000
00000000
00000000
00000000
00000000
00000000
00000000
01003000
00000000
00010000
00000000
01000000
00000000
00000000
00000000
01100000
00000000
00000000
00000000
00000000
00000000
00100000
10000000
,
00100000
00000000
00000000
00000000
10000000
00020000
00000000
00000000
00000000
00000000
00000000
00000000
00030000
00000000
10000000
10000000
,
01000000
00000000
00000000
00000000
00000000
00000000
00100000
00000000
00000000
01000000
00000000
00000000
00100000
00000000
00000000
00000000
00000000
00000000
00010000
00000000
00000000
00100000
00000000
00000000
00020000
00000000
00000000
00000000
00000000
00000000
00000000
00000000
00000000
00000000
00000000
00000000
00000000
00000000
00000000
00000000
00000000
00000000
00000000
00000000
00000000
00000000
00000000
00000000
00030000
00000000
00000000
00000000
00000000
00000000
00000000
00000000
00000000
00000000
00000000
00000000
00100000
00000000
00000000
00000000
00010000
00000000
00000000
00000000
00100000
00000000
00000000
00000000
00001000
00000000
00000000
00000000
00000000
00000000
00000000
00000000
00000000
00000000
00000000
00000000
00000000
00000000
00000000
00000000
00000000
00000000
00010000
00000000
00000000
00001000
00000000
00000000
,
00010000
00000000
00000000
00000000
00000000
00000000
00001000
00000000
00000000
00010000
00000000
00000000
00000100
00000000
00000000
00001000
00000000
00000000
00000000
00000000
00000000
00001000
00000000
00000000
00000010
00000000
00000000
00000000
00000100
00000000
00000000
00000000
00000010
00000000
00000000
00000000
00000100
00000000
00000000
00000000
00000000
00000000
00000001
00000000
00000000
00001000
00000000
00000000
,
00000000
00000000
00001000
00000000
00000001
00001000
00000001
00001000
00000002
00000000
00000000
00000000
00000000
00000000
00000000
00000000
00000000
00000000
00000000
00000000
00000000
00000000
00000000
00000000
00002003
00000000
00000000
00000000
00000000
00000000
00000000
00000000
,
00000000
00023000
00000000
20030000
,
00000000
00020000
00000000
00000000
,
00000000
00000000
00000000
30030000
,
00000000
00000000
10000000
10000000
01000000
00100000
00010000
00100000
,
00001000
00010000
00000100
00000100
00001000
00000010
00000100
00000001
,
00001000
00000001
00000010
00000010
00000100
00001000
00000100
00010000
,
00001000
00100000
00010000
00010000
00100000
00010000
01000000
00100000
,
10000000
01000000
00100000
00100000
00010000
00010000
00100000
00001000
,
00010000
00000000
00000100
00000000
00001000
00000000
00001000
00000000
00000001
00000000
00000001
00000000
00001000
00000001
00001000
00000001
,
00001000
00000000
00000001
00000101
00000000
00001000
00001010
00000000
,
00010000
00000000
00000000
00000000
00000000
00000000
00000000
00000000
01010000
00000000
00000000
00000000
00000000
00000000
00000000
00000000
00000000
00000000
00000000
00000000
00000000
00000000
00000000
00000000
10000000
00000000
00000000
00000000
00000000
00000000
00000000
00000000
10100000
00000000
00000000
00000000
00000000
00000000
00000000
00000000
00000000
00000000
00000000
00000000
00000000
00000000
00000000
00000000
20000000
30000000
00000000
00000000
00000000
00000000
00000000
00000000
20000000
30000000
00000000
00000000
00000000
00000000
00000000
00000000
,
00010000
00000000
10000000
00100000
10000000
00000000
00010000
00000000
00100000
00000000
00001000
00010000
00001000
00000000
00010000
00000000
,
00021000
00000000
00030010
00000000
00020010
00000000
00031000
00000000
00011000
00000000
00000000
00000000
00011000
00000000
00001000
00010000
,
00000100
00000000
00000000
00000000
00000000
00000000
00000000
00000000
00001000
00000000
00000000
00000000
00000010
00000000
00000000
00000000
00001000
00000000
00000000
00000000
00000000
00000000
00000000
00000000
00000100
00000000
00000000
00000000
00000000
00000000
00000000
00000000
00000010
00000000
00000000
00000000
00000000
00000000
00000000
00000000
00000001
00000000
00000000
00000000
00001000
00000000
00000000
00000000
00000001
00000000
00000000
00000000
00000000
00000000
00000000
00000000
00000020
00000030
00000000
00000000
00000000
00000000
00000000
00000000
,
00000022
00000033
00000000
00000000
00000000
00000000
00000000
00000000
00002200
00003300
00000000
00000000
00000000
00000000
00000000
00000000
00220000
00330000
00000000
00000000
00000000
00000000
00000000
00000000
11000000
00000000
00000000
00000000
00000000
00000000
00000000
00000000
00000000
00000000
00000000
00000000
00000000
00000000
00000000
00000000
00000000
00000000
00000000
00000000
00000000
00000000
00000000
00000000
10010000
00000000
00000000
00000000
00000000
00000000
00000000
00000000
00010000
00000000
00000000
00000000
01000000
00000000
00000000
00000000
,
00100000
00000000
10000000
00000000
11000000
00000000
01000000
00100000
00010000
00000000
00100000
00000000
00001000
00000000
00010000
00000000
,
00000200
00001000
00001300
00000000
00000001
00001000
00000100
00010000
,
00001000
01000000
00100000
00010000
00001000
00000100
00000010
00010000
,
00001000
00000000
00000000
00000000
00000000
00000000
00000000
00000000
00010000
00000000
00000000
00000000
00001000
00000000
00000000
00000000
00010000
00000000
00000000
00000000
00001000
00000000
00000000
00000000
00010000
00000000
00000000
00000000
00000000
00000000
00000000
00000000
00001000
00000000
00000000
00000000
00000000
00000000
00000000
00000000
00010000
00000000
00000000
00000000
00000000
00000000
00000000
00000000
00000000
00000000
00000000
00000000
00200000
00300000
00000000
00000000
00000000
00000000
00000000
00000000
20000000
30000000
00000000
00000000
,
00000000
00000000
00000000
00000000
00000000
00000000
00000000
00000000
01000000
00000000
00000000
00000000
00000000
00000000
00000000
00000000
00010000
00000000
00000000
00000000
00000000
00000000
00000000
00000000
00001000
00000000
00000000
00000000
00000000
00000000
00000000
00000000
00000000
00000000
00000000
00000000
00022000
00033000
00000000
00000000
00000000
00000000
00000000
00000000
00000000
00000000
00000000
00000000
00011000
00000000
00000000
00000000
00000000
00000000
00000000
00000000
00000000
00000000
00000000
00000000
00020000
00030000
00000000
00000000
,
00000000
00000000
00000000
00000000
00002000
00003000
00000000
00000000
00000000
00000000
00000000
00000000
00000000
00000000
00000000
00000000
00000010
00000000
00000000
00000000
00000000
00000000
00000000
00000000
00000001
00000000
00000000
00000000
00000000
00000000
00000000
00000000
00000100
00000000
00000000
00000000
00000000
00000000
00000000
00000000
00001000
00000000
00000000
00000000
00000000
00000000
00000000
00000000
00000000
00000000
00000000
00000000
00020000
00030000
00000000
00000000
00000000
00000000
00000000
00000000
00200000
00300000
00000000
00000000
,
00000000
00000000
00000000
00000000
20000000
30000000
00000000
00000000
00000000
00000000
00000000
00000000
00000000
00000000
00000000
00000000
00100000
00000000
00000000
00000000
00000000
00000000
00000000
00000000
00010000
00000000
00000000
00000000
00000000
00000000
00000000
00000000
00000000
00000000
00000000
00000000
00002000
00003000
00000000
00000000
00000000
00000000
00000000
00000000
00020000
00030000
00000000
00000000
00000000
00000000
00000000
00000000
00002000
00003000
00000000
00000000
00000000
00000000
00000000
00000000
00022000
00000000
00000000
00000000
,
00000000
00000000
00000000
00000000
00000000
00000000
00000000
00033000
,
00001000
00000000
00000000
00000000
00100000
00000000
00000000
00000000
00001000
00000000
00000000
00000000
00100000
00000000
00000000
00000000
00001000
00000000
00000000
00000000
00000000
00000000
00000000
00000000
00020000
00030000
00000000
00000000
00000200
00000300
00000000
00000000
00020000
00030000
00000000
00000000
00000200
00000300
00000000
00000000
00020000
00030000
00000000
00000000
00000000
00000000
00000000
00000000
00000000
00000000
00000000
00000000
00000000
00000000
00000000
00000000
00000010
00000000
00000000
00000000
00010000
00000000
00000000
00000000
,
00000010
00010000
00000010
00010000
00002000
00000000
00000000
00000000
00013000
00000000
00001000
00000000
00010000
00000000
00001000
00000000
,
00010000
00000000
00001000
00000000
00010000
00000000
00001000
00000000
00010000
00001000
00010000
00001000
00010000
00001000
00010000
00001000
,
00010000
00001000
00010000
00002000
00000000
00000000
00000000
00000000
00000000
00000000
00000000
00000000
00000000
00000000
00000000
00000000
,
00000000
00000000
00000000
00000000
,
00000000
00000000
00000000
00000000
,
00000000
00000000
00000000
00000000
,
00000000
00003000
00000000
00000000
;
#NOTEDATA:;
#STEPSTYPE:dance-double;
#DIFFICULTY:Challenge;
#METER:18;
#BPMS:0=210,209=105,261=210,291=105,292=210,335.75=105,340=210,341=105,341.5=210,343=105,343.5=210,345=105,346=210;
#STOPS:84=0.143,91.5=0.143,100=0.0715,101.25=0.0715,102.5=0.0715,103.75=0.0715,107=0.0715,108.25=0.0715,109.5=0.0715,110.75=0.0715,303.5=0.143,304=0.143,304.5=0.143,305=0.143,323=0.0715,324.25=0.0715,325.5=0.0715,326.25=0.0715,327=0.0715,328.25=0.0715,330.5=0.0715,332.25=0.0715,333.5=0.0715,339.75=0.143;
#NOTES:
00000000
00000000
00000000
00000000
,
00000000
00000000
00000000
00000000
,
00000000
00000000
00000000
00000000
,
00000000
00000000
00000000
00000000
,
00000000
00000000
00000000
00000000
,
00001000
00010000
00001000
00100000
01000000
00100000
00002000
00000000
,
00000000
00000000
00013000
00011000
,
00010000
00001000
00010000
00000100
00000010
00000100
00020000
00000000
,
00000000
00000000
00031000
00000000
,
00022000
00000000
00000000
00000000
,
00000000
00000000
00000000
00000000
,
00000000
00000000
00000000
00000000
,
00000000
00000000
00000000
00000000
00033000
00000000
00000000
00000000
00010000
00001000
00010000
00001000
00100000
00010000
00100000
00010000
,
00100000
00000000
00000000
00000000
00010000
00000000
01000000
00010000
00000000
01000000
00010000
00000000
10000000
00000000
01000000
00100000
,
01000000
00000000
00000000
00000000
10000000
00000000
00010000
00100000
00000000
00010000
00100000
00001000
00100000
00000000
00001000
00010000
,
00001000
00000000
00000000
00000000
00010000
00000000
00000010
00001000
00000000
00000010
00001000
00000000
00000001
00000000
00000010
00000100
,
00000020
00000032
00000203
00002300
00023000
02030000
23000000
00000000
,
30010000
00000000
00000000
00000000
01000000
00000000
00010000
00100000
00000000
00010000
00100000
00000000
00001000
00000000
00010000
00001000
,
00010000
00000000
00000000
00000000
00000100
00000000
00001000
00000010
00000000
00001000
00000100
00001000
00000100
00000000
00000010
00000100
,
00000010
00000000
00000000
00000000
00000001
00000000
00001000
00000010
00000000
00001000
00000100
00000000
00010000
00000000
00001000
00010000
,
00001000
00000000
00000000
00000000
00010000
00001000
00010000
00001000
01000000
00010000
01000000
00010000
10000000
00010000
10000000
00010000
,
20000000
30000000
00000000
00000000
00000000
00000000
00000000
00000000
00010000
00000000
00000000
00000000
00100000
00000000
00000000
00000000
00010000
00000000
00000000
00000000
00000000
00000000
00000000
00000000
01000000
00000000
00000000
00000000
00000000
00000000
00000000
00000000
00001000
00000000
00000000
00000000
00010000
00000000
00000000
00000000
00001000
00000000
00000000
00000000
00000000
00000000
00000000
00000000
00010000
00000000
00000000
00000000
00000000
00000000
00000000
00000000
00000010
00000000
00000000
00000000
00001000
00000000
00000000
00000000
,
00000010
00000000
00000000
00000000
00000000
00000000
00000000
00000000
00000100
00000000
00000000
00000000
00000000
00000000
00000000
00000000
00000001
00000000
00000000
00000000
00000010
00000000
00000000
00000000
00000001
00000000
00000000
00000000
00000000
00000000
00000000
00000000
00000100
00000000
00000000
00000000
00000000
00000000
00000000
00000000
00001000
00000000
00000000
00000000
00010000
00000000
00000000
00000000
00001000
00000000
00000000
00000000
00000000
00000000
00000000
00000000
00020000
00030000
00000000
00000000
00000000
00000000
00000000
00000000
,
00001000
00100000
00001000
00000000
01000000
00000000
00010000
00100000
00010000
00000000
01000000
00000000
00100000
10000000
00010000
00000000
,
00100000
01000000
10000000
00000000
01000000
00100000
00010000
00100000
00001000
00010000
00000100
00000000
00001000
00000100
00000010
00000001
,
00001000
00000000
00000000
00000000
00000200
00000300
00000000
00000000
00002000
00003000
00000000
00000000
00000200
00000300
00000000
00000000
00020000
00030000
00000000
00000000
00002000
00003000
00000000
00000000
00010000
00000000
00000000
00000000
00001000
00000000
00000000
00000000
00100000
00000000
00000000
00000000
00010000
00000000
00000000
00000000
00100000
00000000
00000000
00000000
00020000
00030000
00000000
00000000
20000000
30000000
00000000
00000000
00200000
00300000
00000000
00000000
20000000
30000000
00000000
00000000
00200000
00300000
00000000
00000000
,
01000000
00000000
00000000
00000000
00000000
00000000
00000000
00000000
00010000
00000000
00000000
00000000
00000000
00000000
00000000
00000000
10000000
00000000
00000000
00000000
00000000
00000000
00000000
00000000
00000000
00000000
00000000
00000000
00000000
00000000
00000000
00000000
01000000
00000000
00000000
00000000
00100000
00000000
00000000
00000000
01000000
00000000
00000000
00000000
00100000
00000000
00000000
00000000
00010000
00000000
00000000
00000000
00200000
00300000
00000000
00000000
00002000
00003000
00000000
00000000
00200000
00300000
00000000
00000000
,
00002000
00003000
00000000
00000000
00020000
00030000
00000000
00000000
00001000
00000000
00000000
00000000
00010000
00000000
00000000
00000000
00000010
00000000
00000000
00000000
00001000
00000000
00000000
00000000
00000010
00000000
00000000
00000000
00002000
00003000
00000000
00000000
00000200
00000300
00000000
00000000
00000020
00000030
00000000
00000000
00000002
00000003
00000000
00000000
00002000
00003000
00000000
00000000
00000001
00000000
00000000
00000000
00000000
00000000
00000000
00000000
00000100
00000000
00000000
00000000
00000000
00000000
00000000
00000000
,
00000010
00000000
00000000
00001000
00000010
00001000
00000010
00001000
00000010
00001000
00000100
00001000
,
00000100
00001000
00000100
00010000
00000000
00010000
00001000
00000000
00001000
01000000
00000000
01000000
,
00010000
00000000
00000000
10000000
01000000
10000000
01000000
10000000
01000000
00100000
00010000
00100000
,
00010000
00100000
00010000
00100000
00000000
00100000
00001000
00000000
00001000
00010000
00000000
00010000
,
00000100
00000000
00000000
00001000
00000100
00000010
00000001
00001000
00000010
00000100
00000010
00000100
,
00001000
00010000
00001000
00010000
00100000
00010000
00100000
01000000
00100000
10000000
00100000
10000000
,
00010000
10000000
00010000
10000000
00000000
10000000
01000000
00000000
01000000
00010000
00000000
00010000
,
00001000
00000000
00001000
00000010
00000001
00000010
00000100
00001000
00000100
00010000
00000100
00010000
,
00001000
00000000
00000000
00000000
00010000
00000000
00000000
00000000
00001000
00000000
00000000
00000000
00010000
00000000
00000000
00000000
00000000
00000000
00001000
00000000
00000000
00010000
00000000
00000000
00001000
00000000
00000000
00000000
00000000
00000000
01000000
00000000
00000000
00000000
00000000
00000000
00010000
00000000
00000000
00000000
00000000
00000000
00100000
00000000
00000000
00010000
00000000
00000000
,
00100000
00000000
01000000
00000000
10000000
00000000
00100000
01000000
00100000
00000000
01000000
00000000
00010000
00000000
00100000
00001000
,
00100000
00000000
00001000
00000000
00010000
00001000
00010000
00000000
00001000
00000000
00000010
00000000
00001000
00000000
00010000
00001000
,
00010000
00001000
00010000
00000000
00001000
00000000
00000100
00000000
00000001
00000000
00001000
00000000
00000100
00000010
00000001
00000000
,
00000100
00000010
00001000
00000000
00000001
00000000
00000100
00001000
00010000
00000000
00100000
00000000
10000000
00000000
01000000
00100000
,
01000000
00000000
10000000
00000000
00100000
00000000
01000000
00001000
00010000
00000000
00000100
00000000
00001000
00000000
00000001
00000010
,
00000100
00001000
00000001
00000000
00000010
00000000
00001000
00010000
00001000
00000000
00010000
00000000
01000000
00000000
10000000
00000000
,
00010000
00000000
00000000
00100000
00000000
00000000
01000000
00000000
00000000
10000000
00000000
00000000
00100000
00000000
00000000
00000000
01000000
00000000
00000000
00000000
00001000
00000000
00000000
00000000
00010000
00000000
00000000
00000000
00000100
00000000
00000000
00000000
00000010
00000000
00000000
00000000
00000100
00000000
00000000
00000000
00010000
00000000
00000000
00000000
00001000
00000000
00000000
00000000
,
01000000
00000000
00000000
00000000
00100000
00000000
00000000
00000000
00010000
00000000
00000000
00000000
00001000
00000000
00000000
00010000
00000000
00000000
00001000
00000000
00000000
00000000
00000000
00000000
00010000
00000000
00000000
00000000
00000000
00000000
00000010
00000000
00000000
00000000
00000000
00000000
00001000
00000000
00000000
00000000
00000000
00000000
00000001
00000000
00000000
00000100
00000000
00000000
,
00000001
00000100
00000001
00000000
00000010
00000100
00001000
00000000
00000100
00000000
00010000
00001000
00010000
00000000
00001000
00000000
,
00100000
00000000
00010000
00000000
01000000
00100000
10000000
00000000
01000000
00000000
00010000
00000000
00001000
00000000
00000010
00000000
,
00000001
00000010
00000001
00000000
00000100
00000010
00001000
00000000
00000100
00010000
00001000
00000000
00200000
00000000
00320000
00000000
,
02030000
00000000
03200000
00000000
10300000
00000000
00010000
01000000
00010000
01000000
00010000
00000000
00100000
00000000
00001000
00010000
,
00000100
00010000
00001000
00010000
00000100
00000000
00001000
00000010
00001000
00000010
00001000
00000000
00000100
00000000
00000010
00000001
,
00001000
00000001
00000010
00000001
00001000
00000000
00000100
00010000
00001000
00010000
00001000
00000000
00100000
00000000
00010000
00100000
,
01000000
00100000
00010000
00100000
01000000
00000000
00000000
00000000
00100000
00000000
00000000
00000000
00010000
10000000
00010000
00000000
,
10010000
20000000
00000000
00000000
,
00000000
00000000
00000000
00000000
00000000
00000000
32000000
00000000
00000000
00000000
00000000
00000000
00000000
00000000
00000000
03010000
00001000
00000010
00000002
00000000
00000000
00000000
00000000
00000000
,
00000000
00000000
00000000
00001003
00000010
00001000
00000020
00000000
00000000
00000000
00000000
00000000
00000000
00000000
00000000
00001030
00000001
00000010
00002000
00000000
00000000
00000000
00000000
00000000
,
00013000
00000000
00000000
00010000
00001000
00010000
00200000
00000000
00000000
00000000
00000000
00000000
00000000
00000000
00000000
10300000
00010000
00100000
02000000
00000000
00000000
00000000
00000000
00000000
,
00000000
00000000
00000000
00000000
00000000
00000000
03010000
00000000
00001000
00000000
00100000
00000000
00020000
00000000
00000000
00000000
00000000
00000000
00000000
00000000
00000000
00000000
00000000
00000000
00000000
00000000
00000000
00000000
00000000
00000000
01030000
00000000
00100000
00000000
00010000
00000000
00001000
00000000
00000000
00001000
00000000
00000000
00000100
00000000
00000000
00000100
00000000
00000000
,
00000001
00000000
00000001
00000000
00001000
00000000
00001000
00000000
00000200
00000000
00000000
00000000
00000000
00000000
00000000
00000000
00000310
00000000
00000010
00000000
00000010
00000000
00000000
00000000
00000011
00000000
00000000
00000000
00000000
00000000
00000001
00001000
,
00000001
00000000
00000001
00001000
00000100
00020000
00000000
00000000
00000000
00000000
00000000
00000000
00030000
00000000
00010100
00010000
,
00001000
00000000
00000000
00000000
00000000
00000000
00100000
00000000
00000000
00000000
00000000
00000000
00010000
00000000
00000000
00100000
00000000
00000000
00010000
00000000
00000000
00100000
00000000
00000000
00020000
00000000
00000000
00000000
00000000
00000000
00000000
00000000
00000000
00000000
00000000
00000000
00000000
00000000
00000000
00000000
00000000
00000000
00000000
00000000
00000000
00000000
00000000
00000000
10030000
00000000
00000000
00000000
00000000
00000000
00000000
00000000
00000000
00000000
00000000
00000000
00100000
00000000
00000000
00000000
01000000
00000000
00000000
00000000
00100000
00000000
00000000
00000000
01000000
00000000
00000000
00000000
00000000
00000000
00000000
00000000
00000000
00000000
00000000
00000000
00000000
00000000
00000000
00000000
00000000
00000000
00010000
00000000
00000000
10000000
00000000
00000000
,
00010000
00000000
00000000
00000000
00000000
00000000
10000000
00000000
00000000
01000000
00000000
00000000
00010000
00000000
00000000
00011000
00000000
00000000
00000000
00000000
00000000
00011000
00000000
00000000
00001000
00000000
00000000
00000000
00000010
00000000
00000000
00000000
00000001
00000000
00000000
00000000
00001000
00000000
00000000
00000000
00000000
00000000
00000100
00000000
00000000
00000001
00000000
00000000
,
00000000
00000000
00000100
00000000
00000010
00000100
00000010
00000100
00000020
00000000
00000000
00000000
00000000
00000000
00000000
00000000
00000000
00000000
00000000
00000000
00000030
00000000
00000000
00000000
00000220
00000000
00000000
00000000
00000000
00000000
00000000
00000000
,
00000000
00000330
00022000
00000000
00000000
00033000
02200000
00000000
,
00000000
03300000
20020000
00000000
00000000
00000000
00000000
00000000
,
00000000
00000000
00000000
30030000
,
00000000
00000000
10000000
01000000
00010000
00000100
00000010
00000001
,
00001000
00000010
00000100
00001000
00010000
00100000
00010000
00001000
,
00010000
01000000
00100000
00001000
00000010
00000100
00010000
00001000
,
00000100
00000001
00000010
00001000
00100000
01000000
10000000
00010000
,
00100000
00000000
00001000
00000000
00010000
00000000
00000010
00000000
00001000
00000000
00000001
00000100
00000001
00000100
00000010
00000000
,
00001000
00000000
00000010
00000000
00010000
00000000
00001000
00000000
00100000
00000000
00010000
00100000
00010000
00100000
01000000
00000000
,
10000000
00010000
20000000
31000000
11000000
00020000
00130000
00110000
,
00200000
00000000
00000000
00000000
00000000
00000000
00000000
00000000
00301000
00000000
00000000
00000000
00000000
00000000
00000000
00000000
00011000
00000000
00000000
00000000
00000000
00000000
00000000
00000000
00020000
00000000
00000000
00000000
00000000
00000000
00000000
00000000
00030100
00000000
00000000
00000000
00000000
00000000
00000000
00000000
00001100
00000000
00000000
00000000
00000000
00000000
00000000
00000000
00002002
00000003
00000000
00000000
00000000
00000000
00000000
00000000
00000002
00003003
00000000
00000000
00000000
00000000
00000000
00000000
,
00001001
00000000
00001000
00000000
00001100
00000000
00001000
00000000
00001010
00000000
00010010
00000000
00011000
00000000
00001000
00100000
,
00010000
01000000
01010000
00010000
10020000
10000000
10030000
00000000
,
11000000
00000000
00000000
00000000
00000000
00000000
00000000
00000000
01000000
00000000
00000000
00000000
00000000
00000000
00000000
00000000
01100000
00000000
00000000
00000000
00000000
00000000
00000000
00000000
01000000
00000000
00000000
00000000
00000000
00000000
00000000
00000000
01010000
00000000
00000000
00000000
00000000
00000000
00000000
00000000
00010000
00000000
00000000
00000000
00000000
00000000
00000000
00000000
00011000
00000000
00000000
00000000
00000000
00000000
00000000
00000000
00002000
00003000
00000000
00000000
00000000
00000000
00000000
00000000
,
00020200
00030300
00000000
00000000
00000000
00000000
00000000
00000000
00002020
00003030
00000000
00000000
00000000
00000000
00000000
00000000
00000202
00000303
00000000
00000000
00000000
00000000
00000000
00000000
00000110
00000000
00000000
00000000
00000000
00000000
00000000
00000000
00000000
00000000
00000000
00000000
00000000
00000000
00000000
00000000
00000000
00000000
00000000
00000000
00000000
00000000
00000000
00000000
00001001
00000000
00000000
00000000
00000000
00000000
00000000
00000000
00001000
00000000
00000000
00000000
00000000
00000000
00000000
00000000
,
00001100
00010100
00011000
00000000
00011000
00100000
00011000
00000010
,
00011000
00000000
01000000
00000000
00011000
00000000
00000000
00000000
00002000
00000000
00103000
01000000
00100000
00000000
00002000
00000000
,
00013000
00001000
00010000
00000000
00000020
00000000
00000130
00000010
00000100
00000000
00000020
00000000
00010030
00001000
00010000
00000000
,
00002000
00000000
00000000
00000000
00000000
00000000
00000000
00000000
00003000
00000000
00000000
00000000
00000000
00000000
00000000
00000000
00010000
00000000
00000000
00000000
00001000
00000000
00000000
00000000
00010000
00000000
00000000
00000000
00001000
00000000
00000000
00000000
00010000
00000000
00000000
00000000
00001000
00000000
00000000
00000000
00100000
00000000
00000000
00000000
00000000
00000000
00000000
00000000
00000000
00000000
00000000
00000000
02000000
03000000
00000000
00000000
20000000
30000000
00000000
00000000
00200000
00300000
00000000
00000000
,
00000000
00000000
00000000
00000000
00000000
00000000
00000000
00000000
00010000
00000000
00000000
00000000
00001000
00000000
00000000
00000000
00000100
00000000
00000000
00000000
00000001
00000000
00000000
00000000
00001000
00000000
00000000
00000000
00000000
00000000
00000000
00000000
00000000
00000000
00000000
00000000
00000002
00000003
00000000
00000000
00000010
00000000
00000000
00000000
00000000
00000000
00000000
00000000
00000100
00000000
00000000
00000000
00002000
00003000
00000000
00000000
00000000
00000000
00000000
00000000
00020000
00030000
00000000
00000000
,
00200000
00300000
00000000
00000000
02000000
03000000
00000000
00000000
00000000
00000000
00000000
00000000
00000000
00000000
00000000
00000000
10000000
00000000
00000000
00000000
00000000
00000000
00000000
00000000
00010000
00000000
00000000
00000000
00100000
00000000
00000000
00000000
00001000
00000000
00000000
00000000
00010000
00000000
00000000
00000000
00001000
00000000
00000000
00000000
00000000
00000000
00000000
00000000
00000000
00000000
00000000
00000000
00020000
00030000
00000000
00000000
00002000
00003000
00000000
00000000
00000020
00000030
00000000
00000000
,
00000002
00000003
00000000
00000000
00002000
00003000
00000000
00000000
00000000
00000000
00000000
00000000
00000000
00000000
00000000
00000000
00000001
00000000
00000000
00000000
00001000
00000000
00000000
00000000
00000001
00000000
00000000
00000000
00000000
00000000
00000000
00000000
00000000
00000000
00000000
00000000
00000002
00000003
00000000
00000000
00000200
00000300
00000000
00000000
00002000
00003000
00000000
00000000
00000000
00000000
00000000
00000000
00020000
00030000
00000000
00000000
00200000
00300000
00000000
00000000
20000000
00000000
00000000
00000000
,
00000000
00000000
00000000
00000000
00000000
00000000
32000000
00000000
00000000
00000000
03010000
00000000
00001000
00010000
00001000
00000000
00000000
00000000
00010100
00000000
00000000
00000000
00001100
00000000
00000000
00000000
00002002
00000000
00000000
00000000
00003003
00000000
,
00000001
00000000
00000000
00000000
00000100
00000000
00000000
00000000
00001000
00000000
00000000
00000000
00000000
00000000
00000000
00000000
00010000
00000000
00000000
00000000
00000000
00000000
00000000
00000000
00200000
00300000
00000000
00000000
20000000
30000000
00000000
00000000
02000000
03000000
00000000
00000000
00000000
00000000
00000000
00000000
00020000
00030000
00000000
00000000
00000000
00000000
00000000
00000000
00000000
00000000
00000000
00000000
00000000
00000000
00000000
00000000
00001000
00000000
00000000
00000000
00000010
00000000
00000000
00000000
,
00001000
00000010
00000001
00000010
00000002
00000000
00000003
00000000
00000001
00000100
00000010
00000000
00001000
00000100
00010000
00000000
,
00001000
00100000
00010000
00000000
01000000
00100000
10000000
00000000
01000000
00100000
00010000
00000000
00100000
00001000
00010000
00000000
,
00000100
00001000
00000001
00000020
00000000
00000000
00000000
00000000
00000000
00000000
00000000
00000000
00000000
00000000
00000000
00000000
,
00000000
00000000
00000000
00000000
,
00000000
00000000
00000000
00000000
,
00000000
00000000
00000000
00000000
,
00000000
00000030
00000000
00000000
;
