
//----- song ID: homs2 -----//
#TITLE:Homesick Pt.2&3;
#ARTIST:covered by 不知火フレア;
#ARTISTTRANSLIT:covered by Shiranui Flare;
#BANNER:Homesick Pt.2&3 (cover).png;
#BACKGROUND:Homesick Pt.2&3 (cover)-bg.png;
#CDTITLE:./CDTitles/DDR WORLD.png;
#MUSIC:Homesick Pt.2&3 (cover).ogg;
#SAMPLESTART:45.832;
#SAMPLELENGTH:15;
#DISPLAYBPM:178;
#BPMS:0=177,4=178;
#BGSTAGE:16;
#NOTES:
     dance-single:
     :
     Beginner:
     2:
     :
0000
0000
0000
0000
,
0000
0000
0000
0000
,
0000
0000
0000
0000
,
0000
0000
0000
0000
,
0000
0000
0000
0000
,
0000
0000
0000
0000
,
1000
0000
0000
0000
,
0000
0000
0000
0000
,
0001
0000
0000
0000
,
1001
0000
0000
0000
,
1000
0000
0000
0000
,
1000
0000
0000
0000
,
0001
0000
0000
0000
,
0001
0000
0000
0000
,
1000
0000
0000
0000
,
1000
0000
0000
0000
,
0001
0000
0000
0000
,
0000
0000
0000
0000
,
0010
0000
0000
0000
,
0000
0000
0000
0000
,
0010
0000
0000
0000
,
0000
0000
0000
0000
,
0100
0000
0000
0000
,
0000
0000
0000
0000
,
0100
0000
0000
0000
,
0000
0000
0000
0000
,
1000
0000
0000
0000
,
1000
0000
0000
0000
,
1000
0000
0000
0000
,
0000
0000
0000
0000
,
0001
0000
0000
0000
,
0001
0000
0000
0000
,
0001
0000
0000
0000
,
0000
0000
0000
0000
,
0010
0000
0000
0000
,
0010
0000
0000
0000
,
0010
0000
0000
0000
,
0000
0000
0000
0000
,
0100
0000
0000
0000
,
0100
0000
0000
0000
,
0100
0000
0000
0000
,
0000
0000
0000
0000
,
1000
0000
0000
0000
,
1000
0000
0000
0000
,
1000
0000
0000
0000
,
0000
0000
0000
0000
,
0001
0000
0000
0000
,
0001
0000
0000
0000
,
0001
0000
0000
0000
,
0000
0000
0000
0000
,
0010
0000
0000
0000
,
0000
0000
0000
0000
,
0010
0000
0000
0000
,
0000
0000
0000
0000
,
0100
0000
0000
0000
,
0000
0000
0000
0000
,
0100
0000
0000
0000
,
0000
0000
0000
0000
,
1000
0000
0000
0000
,
1000
0000
0000
0000
,
1000
0000
0000
0000
,
0000
0000
0000
0000
,
0001
0000
0000
0000
,
0001
0000
0000
0000
,
0001
0000
0000
0000
,
0000
0000
0000
0000
,
1000
0000
0000
0000
,
0000
0000
0000
0000
,
0010
0000
0000
0000
,
0000
0000
0000
0000
,
0100
0000
0000
0000
,
0000
0000
0000
0000
,
0001
0000
0000
0000
,
0001
0000
0000
0000
,
0001
0000
0000
0000
,
0000
0000
0000
0000
,
1000
0000
0000
0000
,
1000
0000
0000
0000
,
1000
0000
0000
0000
,
0000
0000
0000
0000
,
0000
0000
0000
0000
,
1001
0000
0000
0000
,
1000
0000
0000
0000
,
1000
0000
0000
0000
,
1000
0000
0000
0000
,
0000
0000
0000
0000
,
0001
0000
0000
0000
,
0001
0000
0000
0000
,
0001
0000
0000
0000
,
0000
0000
0000
0000
,
0010
0000
0000
0000
,
0010
0000
0000
0000
,
0010
0000
0000
0000
,
0000
0000
0000
0000
,
0100
0000
0000
0000
,
0100
0000
0000
0000
,
0100
0000
0000
0000
,
0000
0000
0000
0000
,
1000
0000
0000
0000
,
1000
0000
0000
0000
,
0001
0000
0000
0000
,
0001
0000
0000
0000
,
1000
0000
0000
0000
,
1000
0000
0000
0000
,
1000
0000
0000
0000
,
0000
0000
0000
0000
,
1000
0000
0000
0000
,
0000
0000
0000
0000
;
#NOTES:
     dance-single:
     :
     Easy:
     6:
     :
0000
0000
0000
0000
,
0000
0000
0000
0000
,
0000
0000
0000
0000
,
0000
0000
0000
0000
,
0000
0000
0000
0000
,
0000
0000
0000
0000
,
1000
0000
0000
0000
,
0001
0000
0000
0000
,
1000
0000
0001
0000
,
1001
0000
0000
0000
,
1000
0100
1000
0000
,
0001
0100
0001
0000
,
1000
0000
0001
0000
,
1000
0000
0001
0000
,
0001
0000
0010
0000
,
0100
0000
1000
0000
,
0100
0000
0010
0000
,
0001
0000
0000
0000
,
1000
0000
1000
0000
,
0001
0000
0001
0000
,
0010
0001
1000
0000
,
0010
1000
0001
0000
,
0010
0000
0010
0000
,
0100
0000
0100
0000
,
0010
0001
0010
0100
,
1000
0100
0010
0000
,
0001
0001
0010
0000
,
0010
0010
0100
0000
,
0100
0100
1000
0000
,
1000
1000
0010
0000
,
1000
1000
0001
0001
,
0010
0010
0100
0100
,
1000
0000
1000
0000
,
0001
0000
0001
0000
,
1000
0100
0010
0000
,
0001
0100
0010
0000
,
1000
1000
0001
0001
,
1000
0001
1001
0000
,
0002
0000
0023
0000
,
0230
0000
2300
0000
,
3010
0010
0100
0001
,
1000
0100
0010
0000
,
0001
0010
0001
0000
,
1000
0010
1000
0000
,
0010
0010
0100
0100
,
0010
0100
0110
0000
,
2000
0000
3200
0000
,
0320
0000
0032
0000
,
0103
0100
0010
1000
,
0001
0000
0000
0000
,
0001
0000
0001
0000
,
1000
0000
1000
0000
,
0010
1000
0001
0000
,
0010
0001
1000
0000
,
0010
0000
0010
0000
,
0100
0000
0100
0000
,
0010
1000
0010
0100
,
0001
0100
0010
0000
,
1000
1000
0010
0000
,
0010
0010
0100
0000
,
0100
0100
0001
0000
,
0001
0001
0010
0000
,
0001
0001
1000
1000
,
0010
0010
0100
0100
,
0020
0000
0000
0000
,
0000
0000
0030
0000
,
0200
0000
0000
0300
,
0001
0010
0100
1000
,
0002
0000
0003
0000
,
2000
0000
3000
0000
,
0020
0000
0030
0000
,
0200
0000
0300
0000
,
0001
0000
0001
0000
,
1000
0010
0100
0000
,
0001
0000
0001
0000
,
1000
0100
0010
0000
,
0002
0000
1003
0000
,
2000
0000
3001
0000
,
0001
0010
0100
0000
,
0010
0100
1000
0000
,
0100
1000
0100
0010
,
0000
0000
0001
0000
,
1000
0100
0010
0000
,
0001
0100
0010
0000
,
1000
1000
0001
0001
,
1000
0001
1001
0000
,
0002
0000
0023
0000
,
0230
0000
2300
0000
,
3010
0010
0100
0001
,
1000
0000
0000
0000
,
0001
1000
0100
0000
,
1000
0001
0100
0000
,
0010
0010
0100
0100
,
0010
0100
0110
0000
,
0002
0000
2003
0000
,
3020
0000
0230
0000
,
0301
0001
0100
0010
,
1000
0100
1000
0000
,
0001
0010
0001
0000
,
1000
0010
1000
0000
,
0001
0010
0100
1000
,
0010
0100
0001
0000
,
2000
0000
3200
0000
,
0320
0000
0032
0000
,
1003
1000
0010
0100
,
0001
0010
0100
1000
,
0002
0000
0000
0003
,
0000
0000
0000
0000
;
#NOTES:
     dance-single:
     :
     Medium:
     11:
     :
0000
0000
0000
0000
,
0000
0000
0000
0000
,
0000
0000
0000
0000
,
0000
0000
0000
0000
,
0000
0000
0000
0000
,
0000
0000
0000
0000
,
0001
0000
0000
0000
,
0000
0000
0000
0000
,
1000
0100
1000
0100
1000
0100
0010
0001
,
0000
1001
0000
0000
0000
0000
0001
0000
,
0010
0100
0010
0100
0010
0100
1000
0010
,
0000
0010
0100
0010
0100
0010
1000
0000
,
0100
0010
0100
0010
0100
0010
0100
1000
,
0000
0001
0000
0010
0000
0100
0010
0002
,
0000
0000
0013
0000
0100
1000
0000
0001
,
0000
1000
0000
0010
0000
1000
0100
0010
,
0001
0010
0001
0010
0001
0010
0000
0010
,
0000
0010
0100
1000
0000
1000
0000
0001
,
0000
0000
0000
0000
0000
0000
0000
0001
,
0000
0000
0000
0000
0000
1000
0100
1000
,
0010
0000
0000
0000
0000
0000
0000
0010
,
0000
0010
0000
0000
0010
0000
0010
0000
,
1000
0000
0000
0000
0000
0000
0000
0100
,
0000
0100
0000
0000
0000
0000
0000
0000
,
0100
1000
0100
0010
0000
0100
0010
0001
,
0000
0010
0001
1000
0000
0001
0100
0010
,
1000
0010
0100
0001
0001
0000
0000
1000
,
0000
1000
0000
1000
1100
0000
0000
0000
,
0110
0000
0000
0010
0010
0000
0000
0001
,
0000
0001
0000
0001
0001
0000
0000
0000
,
1000
0000
0000
1000
1000
0000
0000
0100
,
0000
0100
0000
0100
0100
0000
0000
0000
,
0010
0000
0000
0010
0010
0000
0000
0101
,
0000
0001
1000
0001
1001
0000
1000
0000
,
1100
0000
0000
1000
1000
0100
0010
0100
,
0000
0100
0000
0100
0000
0010
0001
0000
,
0001
0000
0001
0000
1000
0100
0010
0001
,
0000
0010
0000
0100
0000
0000
0000
0000
,
0000
0000
1000
0100
0000
1000
0100
1000
,
0001
0010
0100
1000
0000
0000
0000
0000
,
0010
0100
0010
0100
0010
0001
0000
0001
,
0000
0001
0010
1000
0000
0000
0001
0000
,
0010
0100
0010
0100
0010
0100
1000
0010
,
0000
0010
0100
0010
0100
0010
1000
0000
,
0100
0010
0100
0010
0100
0010
0100
1000
,
0000
0001
0000
0010
0000
0100
0010
0002
,
0000
0000
0013
0000
0100
1000
0000
0001
,
0000
1000
0000
0010
0000
1000
0100
0010
,
0001
0010
0001
0010
0001
0010
0001
0010
,
0000
0010
0000
0100
0000
1000
0000
0010
,
0000
0000
0000
0000
0000
0000
0000
0010
,
0000
0000
0000
0000
0000
1000
0100
1000
,
0010
0000
0000
0000
0000
0000
0000
0010
,
0000
0010
0000
0000
0010
0000
0010
0000
,
1000
0000
0000
0000
0000
0000
0000
0100
,
0000
0100
0000
0000
0000
0000
0000
0000
,
0100
1000
0100
0010
0000
0100
0010
0001
,
0000
0010
0001
1000
0000
0001
0100
0010
,
1000
0010
0100
0001
0001
0000
0000
1000
,
0000
1000
0000
1000
1100
0000
0000
0000
,
0110
0000
0000
0010
0010
0000
0000
0001
,
0000
0001
0000
0001
0001
0000
0000
0000
,
0010
0000
0000
0010
0010
0000
0000
0001
,
0000
1000
0100
0011
1000
0100
0010
1001
,
0000
0000
0000
0000
,
0000
0000
0000
0000
,
0000
0000
0000
0000
,
1000
0000
0100
0000
0010
0001
0000
0010
,
0000
0000
0000
0000
,
0000
0000
0000
0000
,
0000
0100
0001
0000
,
0100
0000
1000
0000
,
1000
0000
0000
0000
,
0000
1000
0100
0001
0000
0001
0100
1000
,
0001
0000
0000
0000
,
0000
1000
0010
0001
0000
0001
0010
1000
,
0001
0000
0000
0000
0000
0000
0000
0001
,
0000
0000
0000
0000
,
0001
1000
0100
0010
0000
0100
0010
0001
,
0000
0010
0001
1000
0000
0001
1000
0100
,
0000
1000
0100
0010
0000
0100
0010
0001
,
0000
2002
0000
0000
0000
3003
0000
0000
,
0210
0010
0010
0010
,
0310
0000
0100
1000
0000
1000
0100
0000
,
0120
0100
0100
0100
,
0130
0001
0100
0010
0000
0000
0000
0000
,
0000
0000
1000
0100
0000
1000
0100
1000
,
0001
0010
0100
1000
0000
0000
0000
0000
,
0000
0000
1000
0010
0000
0100
0000
0100
,
0001
0010
0100
1000
0000
1000
0100
0010
,
0001
0000
1000
0010
0000
0100
0000
0100
,
0001
0010
0100
1000
0000
0000
0000
0000
,
0000
0000
1000
0010
0000
0100
0000
0100
,
0001
0010
0100
1000
0000
0000
0000
0000
,
0000
0000
1000
0100
0000
1000
0100
1000
,
0001
0010
0100
1000
0000
0000
0000
0000
,
0001
0000
0000
0000
0000
0000
0000
0001
,
0000
0010
0100
1000
0000
0001
0000
0000
,
0010
0100
0010
0100
0010
0100
1000
0010
,
0000
0010
0100
0010
0100
0010
1000
0000
,
0100
0010
0100
0010
0100
0010
0100
1000
,
0000
0001
0000
1000
0000
0000
0000
0000
,
0000
0000
1000
0100
0000
1000
0100
1000
,
0001
0010
0100
1000
0000
0000
0000
0000
,
0001
0000
0000
0000
0000
0000
0000
0010
,
0000
0010
0100
1000
0000
0002
0000
2000
,
0000
0000
0000
0000
,
0000
0000
0000
0000
,
0000
3003
0000
0000
0000
0000
0000
0000
,
0000
0000
0000
0000
;
#NOTES:
     dance-single:
     :
     Hard:
     14:
     :
0000
0000
0000
0000
,
0000
0000
0000
0000
,
0000
0000
0000
0000
,
0000
0000
0000
0000
,
0000
0000
0000
0000
,
0000
0000
0000
0000
0000
1000
0100
0020
,
0000
0000
0031
0000
0010
0001
0000
0001
,
0000
0001
0000
0100
0000
0010
1000
0000
,
1000
0100
1000
0100
1000
0100
0010
0001
,
0000
0000
1000
0100
1000
0000
0001
0010
0001
0000
1000
0010
1000
0000
0001
0100
,
0001
0100
0001
0100
0001
0100
0010
0110
,
0000
0100
0010
0100
0010
0100
0101
0000
,
1010
0010
1000
0010
1000
0010
1000
0101
,
0000
0000
1100
0000
0000
0000
0110
0000
0000
0000
1000
0000
0001
0010
0001
0010
,
0001
0000
1000
0000
0001
0010
0000
1100
,
0000
0101
0000
0110
0000
1000
0100
0010
,
0001
0010
0001
0010
0001
0010
0000
0010
,
0000
0001
0100
1000
0000
0100
0000
0002
,
0000
0000
0100
0103
0001
1000
0000
1000
,
0000
0100
0000
0010
0001
0100
1000
0100
,
0010
0100
0010
0100
0001
0010
1000
0010
,
0000
0010
0000
0010
0001
0000
1000
0100
,
0002
0000
0000
0103
0010
0100
0000
0110
,
0000
1001
0000
0101
0000
1010
0000
0000
,
0010
1000
0100
0010
0000
0100
0010
0001
,
0000
0010
0001
1000
0000
0010
0100
1000
,
0001
0010
0100
0001
0101
0000
0000
1100
,
0000
1100
0000
0001
0011
0000
0000
0000
,
0110
1000
0001
0100
1000
0100
0000
0001
,
0000
0001
0000
0001
1000
0100
1000
0000
,
0010
1000
0100
0001
0100
0000
0000
0110
,
0000
1100
0000
0001
1001
0000
0000
0000
,
0001
0000
0000
0001
0001
0000
0000
0101
,
0000
0000
0001
0000
1000
0000
0001
0000
1001
0000
1000
0100
0010
0000
0001
0100
,
0010
0000
0000
1000
1000
0100
0001
0100
,
0000
0100
0000
0100
0000
1000
0010
0001
,
0010
0000
0010
0000
0100
0010
0100
0001
,
0000
1000
0000
0010
0000
1000
0100
0002
,
0000
0000
0103
1000
0000
1000
0100
1000
,
0001
0010
0100
1000
0000
1000
0100
0000
,
0010
0100
0010
0100
0010
0001
0000
0010
,
0000
0000
0001
0000
0010
0000
0100
0000
0000
0000
1000
0100
1000
0000
0010
0100
,
0010
0100
0001
0100
0001
0100
0001
0011
,
0000
0010
0001
0010
0001
0010
1001
0000
,
1010
0010
1000
0010
1000
0010
1000
0110
,
0000
0000
1010
0000
0000
0000
0011
0000
0000
0000
1000
0100
1000
0000
0001
0010
,
0001
0000
0001
0000
0001
0010
0000
1100
,
0000
0101
0000
1001
0000
1000
0100
0010
,
0001
0010
0001
0010
0001
0010
0000
0001
,
0000
1000
0100
0001
0000
0100
0000
1000
,
0000
0000
0000
1000
1000
0000
0000
0010
,
0000
0100
0000
0010
0010
1000
0100
0001
,
0100
0000
0000
0100
0100
0000
0000
0010
,
0000
0100
0000
0010
0010
0000
0001
0000
,
1000
0000
0000
0001
0100
1000
0000
0100
,
0000
0100
0000
0100
0010
0100
0000
0100
,
0010
1000
0100
0010
0000
0100
0010
0001
,
0000
0000
0010
0000
0001
0000
1000
0000
0000
0000
0010
0000
0100
0000
1000
0100
,
0010
1000
0100
1000
1001
0000
0000
0001
,
0000
0001
0000
0001
0101
0000
1000
0000
,
1100
0000
0000
0100
0100
0000
0000
1000
,
0000
1000
0000
1000
1000
0000
0001
0000
,
0010
0000
0000
0010
0010
0000
0000
0001
,
0000
1000
0100
0001
1000
0010
0001
1001
,
0000
0000
2000
3000
0200
0300
0002
0003
,
2000
3000
0020
0030
0002
0003
2000
3000
,
0001
0000
0001
0001
0000
0100
0000
0010
,
1000
0000
0100
0000
0010
0001
0000
0010
,
0001
0000
0000
0000
2000
3000
0000
0000
0200
0300
0000
0000
0002
0003
0000
0000
,
0200
0300
0000
0000
2000
3000
0000
0000
0020
0030
0000
0000
0002
0003
0000
0000
,
0010
1000
0001
0000
,
0010
0000
0001
0000
0010
0000
0001
0000
1000
0000
0001
0010
0100
0000
1000
0010
,
0100
0000
0000
0001
0010
0001
0000
0001
,
0000
1000
0100
0001
0000
0001
0100
1000
,
0001
0000
0001
0000
0001
0010
0001
0001
,
0000
1000
0010
0001
0000
0001
0010
1000
,
0001
0000
0000
0000
0001
0010
1000
0010
,
0000
0010
0000
0001
0000
0000
1000
0100
,
0001
0100
1000
1010
0000
1000
0010
1100
,
0000
0001
0100
0011
0000
0001
1000
0110
,
0000
0001
0010
0101
0000
0010
0100
1001
,
0000
0000
1000
0100
0010
0000
0100
0010
0001
0000
0010
0001
1000
0000
0001
1000
,
0010
0010
0010
0010
0010
0010
0010
0010
,
0010
0100
1000
0100
0000
0100
1000
0100
,
0010
0010
0010
0010
0010
0010
0010
0010
,
0010
1000
0001
0100
0000
0000
0000
0000
,
0000
0000
0001
1000
0000
1000
0100
1000
,
0001
0010
0100
1000
0000
0000
0000
0000
,
0000
0000
1000
0010
0000
0100
0000
0010
,
0001
0010
1000
0100
0000
1000
0100
0010
,
0001
0010
1000
0010
0001
0100
1000
0100
,
0001
0010
0100
1000
0000
0100
0010
0001
,
1000
0100
0001
0100
1000
0010
0001
0010
,
1000
0001
0010
0100
0000
1000
0010
1000
,
0000
0000
1000
0100
0000
1000
0100
1000
,
0001
0010
0100
1000
0000
1000
0100
0010
,
0001
0100
0001
0100
0001
0100
0001
1000
,
0000
0000
0001
0000
0010
0000
0100
0000
0000
0000
1000
0100
1000
0000
0010
0100
,
0010
0100
0001
0100
0001
0100
0001
0011
,
0000
0010
0001
0010
0001
0010
1001
0000
,
1010
0010
1000
0010
1000
0010
1000
0110
,
0000
1010
0000
0011
0000
1000
0100
0002
,
0000
0000
0103
1000
0000
1000
0010
1000
,
0001
0010
0100
1000
0000
1000
0100
0010
,
0001
0010
0001
0010
0001
0010
0000
0010
,
0000
0000
0100
1000
0100
0000
0010
0001
0010
0000
0002
0000
0000
0000
2000
0000
,
0000
0000
0000
0000
,
0000
0000
0000
0000
,
0000
3003
0000
0000
0000
0000
0000
0000
,
0000
0000
0000
0000
;
#NOTES:
     dance-single:
     :
     Challenge:
     14:
     :
0000
0000
0000
0000
,
0000
0000
0000
0000
,
0000
0000
0000
0000
,
0000
0000
0000
0000
,
0000
0000
0000
0000
,
0000
0000
0000
0000
0000
1000
0100
0020
,
0000
0000
0031
0000
1000
0010
0000
0100
,
0000
0010
0000
0200
0000
0301
0010
1000
,
0010
0100
0010
0001
0100
0010
0000
1001
,
0000
0000
1000
0000
1000
0000
0001
1000
0010
0000
0010
0000
0010
1000
0010
0000
,
1000
0001
1000
0001
0010
0100
1000
0020
,
0000
0130
0010
1000
0010
0100
0001
0000
,
0010
0100
0010
1000
0010
0100
1000
0101
,
0000
0000
1010
0000
0000
0000
1001
0000
0000
0000
1000
0001
1000
0001
1000
0001
,
1000
0100
0010
0001
0010
0100
0000
1100
,
0000
0101
0000
1001
0000
0001
0010
0100
,
0010
1000
0010
0100
1000
0010
0000
0110
,
0000
0101
0000
1100
0000
1001
0000
2000
,
0000
0000
3000
0001
0100
0010
0000
2000
,
0000
0000
3020
0000
0230
0000
0301
0100
,
0010
1000
0001
0100
0001
0010
0100
1000
,
0000
1000
0000
0001
0010
0100
1000
0001
,
0020
0000
0000
0130
1000
0010
0000
0110
,
0000
0101
0000
1000
0100
0010
0000
0100
,
0020
0000
0031
2000
0000
3002
0000
0103
,
0000
0010
2000
0000
0000
3000
0000
0000
,
1010
0000
0101
0000
0001
0010
0100
1000
,
0010
0100
0010
1000
0000
0100
1000
0001
,
0010
0100
0010
1000
0010
0100
0010
0001
,
0000
0002
0000
0103
0010
1000
0001
0100
,
0000
0001
0100
0010
1000
0100
0010
0001
,
0100
1000
0100
0010
1000
0100
0010
0200
,
0000
0300
0000
0001
2000
0000
3020
0230
,
0000
0000
0000
0300
,
1200
0000
0300
0010
0001
1000
0100
0110
,
0000
0011
0000
0201
0000
0310
1000
0001
,
0011
0000
2100
0000
3010
0100
0001
1100
,
0000
0011
0000
1001
0000
0001
1000
0020
,
0000
0000
0230
0000
0301
2000
0000
3020
,
0000
0130
0001
0200
0000
0310
1000
0001
,
0010
0100
0010
0001
1000
0010
0000
0100
,
0001
0000
1000
0000
0100
0000
0010
0000
0000
0000
0001
0010
0001
0000
1000
0100
,
1000
0001
1000
0001
0010
0100
1000
0020
,
0000
0130
0010
1000
0010
0100
0001
0000
,
0010
0100
0010
1000
0010
0100
1000
0101
,
0000
0000
1010
0000
0000
0000
1001
0000
0000
0000
1000
0001
1000
0000
0001
1000
,
0001
0100
0010
1000
0010
0100
0000
0101
,
0000
1100
0000
1001
0000
1000
0010
0100
,
0010
0001
0010
0100
0001
0100
0000
0110
,
0000
0101
0000
1100
0000
1001
0000
2000
,
0000
0000
3000
0010
0100
0001
0000
2000
,
0000
0000
3200
0000
0320
0000
0031
0100
,
0010
1000
0001
0100
0001
0010
0001
0200
,
0000
0301
1000
0001
0010
0100
1000
0001
,
0020
0000
0000
0130
1000
0010
0000
0110
,
0000
0101
0000
1000
0100
0010
0000
0100
,
0020
0000
0031
2000
0000
3002
0000
0103
,
0000
0010
2000
0000
0000
3000
0000
0000
,
1010
0000
0101
0000
0001
0010
0100
1000
,
0010
0100
0010
1000
0000
0200
0000
0320
,
0000
0130
0010
1000
0010
0001
0000
0010
,
0000
0020
0000
0130
0010
0001
1000
0100
,
0000
1000
0100
0010
0001
0100
0010
1000
,
0100
0001
0100
0010
0001
0100
0010
0200
,
0000
0001
0010
1000
,
0320
0001
0100
1030
,
0020
0000
0130
0010
0000
1000
0000
0002
,
0000
0000
1003
0000
1000
0010
0000
0120
,
0000
1000
0100
0001
,
0230
1000
0010
0301
,
0000
2002
0000
3003
,
0021
0000
0000
0000
0000
0000
0000
0000
0130
0000
1000
0100
1000
0000
0001
0010
,
0002
0000
0000
1003
0010
1000
0001
0100
,
0000
0200
0000
0310
0000
0010
0100
0000
,
0002
0000
0000
0000
0023
0000
0000
0000
0130
0000
1000
0000
0001
0010
0100
0000
,
0000
0200
0000
0310
0000
0010
0100
0000
,
2000
0000
0000
0000
3010
0100
0001
0010
,
0000
0100
0000
0020
0000
0000
0032
0000
,
2003
0000
0000
3010
0200
0000
0000
0001
,
0000
0010
0000
1000
0000
0010
0000
0002
,
0000
0000
0000
0000
0000
0000
0000
0000
0000
0000
0000
0000
0000
0303
0000
0000
,
0000
0000
1000
0001
1000
0001
1000
0001
1000
0000
0020
0000
0000
0000
0000
0000
,
2030
0000
3000
0100
0010
0001
1000
1010
,
0000
0110
0000
0102
0000
1003
0010
0100
,
0101
0000
0120
0000
1030
0001
0100
0110
,
0000
1010
0000
1001
0000
0001
1000
0020
,
0000
0000
1030
0000
0100
0001
0000
0101
,
0000
0110
0000
2100
0000
3010
0100
0001
,
0010
0100
0010
1000
0001
0100
0000
0010
,
0000
0000
1001
0000
0001
0000
1000
0000
1001
0000
1000
0001
1000
0000
0001
0000
,
0020
0000
0030
0100
1000
0010
0100
0101
,
0000
1001
0000
1200
0000
0310
0001
1000
,
1010
0000
1001
0000
0011
0100
1000
1001
,
0000
0101
0000
0110
0000
0100
0001
0020
,
0000
0000
2030
0000
3010
0001
0000
1000
,
0000
0001
0000
1000
0000
0010
0100
0001
,
0010
0100
0010
1000
0001
0100
0000
1000
,
0000
0000
0010
0000
0100
0000
0001
0000
0000
0000
0010
0001
0010
0000
0100
1000
,
0100
0010
0100
0010
0001
1000
0100
0020
,
0000
0130
0010
1000
0010
0100
1000
0000
,
0010
0100
0010
0001
0010
0100
0001
1100
,
0000
0011
0000
0110
0000
0010
0100
2000
,
0000
0000
3002
0000
0013
0100
0000
0010
,
0000
0001
0000
2000
0000
3010
0100
0001
,
0010
0100
0010
1000
0001
0100
0000
0010
,
0000
0001
0000
0100
0000
0010
0000
2000
,
0000
0000
0000
0000
,
0000
0000
0000
0000
,
0000
3000
0000
0000
0000
0000
0000
0000
,
0000
0000
0000
0000
;
#NOTES:
     dance-double:
     :
     Easy:
     6:
     :
00000000
00000000
00000000
00000000
,
00000000
00000000
00000000
00000000
,
00000000
00000000
00000000
00000000
,
00000000
00000000
00000000
00000000
,
00000000
00000000
00000000
00000000
,
00000000
00000000
00000000
00000000
,
10000000
00000000
00000000
00000000
,
01000000
00000000
00000000
00000000
,
00100000
00000000
00001000
00000000
,
00011000
00000000
00000000
00000000
,
00010000
00001000
00010000
00000000
,
00001000
00010000
00001000
00000000
,
00010000
00000000
00000100
00000000
,
00001000
00000000
00000010
00000000
,
00001000
00000000
00000000
00000000
,
00000001
00000000
00000000
00000000
,
00000100
00000000
00001000
00000000
,
00010000
00000000
00000000
00000000
,
00001000
00000000
00100000
00000000
,
00010000
00000000
00010000
00000000
,
10000000
00100000
01000000
00000000
,
00100000
01000000
00010000
00000000
,
00100000
00000000
00001000
00000000
,
00010000
00000000
00010000
00000000
,
00000100
00001000
00000100
00000000
,
00000010
00000001
00000010
00000000
,
00000001
00000000
00000100
00000000
,
00001000
00000000
00010000
00000000
,
00001000
00100000
00010000
00000000
,
01000000
00100000
10000000
00000000
,
00010000
10000000
01000000
00000000
,
00100000
00010000
00100000
01000000
,
10000000
00000000
01000000
00000000
,
00010000
00000000
00001000
00000000
,
00010000
00000100
00001000
00000000
,
00001000
00000010
00000100
00000000
,
00000001
00000001
00001000
00001000
,
00000001
00001000
00001001
00000000
,
00000002
00000000
00000203
00000000
,
00002300
00000000
00023000
00000000
,
00031000
00001000
00010000
00100000
,
01000000
00100000
10000000
00000000
,
00010000
00100000
00010000
00000000
,
10000000
01000000
10000000
00000000
,
01000000
00000000
00010000
00000000
,
00001000
00000000
00000010
00000000
,
00000002
00000000
00002003
00000000
,
00003020
00000000
00020030
00000000
,
00031000
00001000
00100000
00010000
,
10000000
00000000
00000000
00000000
,
10000000
00000000
01000000
00000000
,
00100000
00000000
00010000
00000000
,
00100000
00001000
00010000
00000000
,
00000100
00001000
00000001
00000000
,
00000001
00000000
00000010
00000000
,
00000100
00000000
00001000
00000000
,
00000100
00010000
00001000
00000000
,
00100000
00010000
10000000
00000000
,
00010000
00100000
01000000
00000000
,
00100000
01000000
00010000
00000000
,
00001000
00010000
00001000
00000000
,
00010000
00000100
00001000
00000000
,
00000001
00000000
00001000
00000000
,
00000010
00000000
00010000
00000000
,
00002000
00000000
00000000
00000000
,
00000000
00000000
00003000
00000000
,
00020000
00000000
00000000
00030000
,
00001000
00010000
00100000
01000000
,
00020000
00000000
00030000
00000000
,
20000000
00000000
30000000
00000000
,
02000000
00000000
03000000
00000000
,
00200000
00000000
00300000
00000000
,
00010000
00000000
00010000
00000000
,
00100000
00001000
00010000
00000000
,
00000100
00000000
00000100
00000000
,
00001000
00000010
00000100
00000000
,
00000002
00000000
00001003
00000000
,
00002000
00000000
00003001
00000000
,
00000001
00000010
00000100
00000000
,
00000010
00000100
00001000
00000000
,
00000100
00010000
00001000
00010000
,
00000000
00000000
00001000
00000000
,
00100000
00010000
01000000
00000000
,
00100000
10000000
01000000
00000000
,
00100000
00100000
00001000
00001000
,
00010000
00001000
00011000
00000000
,
00020000
00000000
00032000
00000000
,
00003020
00000000
00000032
00000000
,
00000013
00000010
00000100
00001000
,
00000010
00000000
00000000
00000000
,
00000010
00001000
00000100
00000000
,
00000010
00000001
00000100
00000000
,
00000010
00000010
00010000
00010000
,
00001000
00010000
00011000
00000000
,
00002000
00000000
00023000
00000000
,
00230000
00000000
20300000
00000000
,
31000000
01000000
00100000
00001000
,
00010000
00000100
00001000
00000000
,
00000001
00000010
00000001
00000000
,
00001000
00000010
00001000
00000000
,
00000001
00000010
00000100
00001000
,
00000100
00010000
00001000
00000000
,
00020000
00000000
00032000
00000000
,
00203000
00000000
02300000
00000000
,
13000000
10000000
01000000
00100000
,
00010000
00100000
00001000
00010000
,
00002000
00000000
00000000
00003000
,
00000000
00000000
00000000
00000000
;
#NOTES:
     dance-double:
     :
     Medium:
     12:
     :
00000000
00000000
00000000
00000000
,
00000000
00000000
00000000
00000000
,
00000000
00000000
00000000
00000000
,
00000000
00000000
00000000
00000000
,
00000000
00000000
00000000
00000000
,
00000000
00000000
00000000
00000000
,
10000000
00000000
00000000
00000000
,
00000000
00000000
00000000
00000000
,
10000000
01000000
10000000
01000000
10000000
00100000
00010000
00001000
,
00000000
00011000
00000000
00000000
00000000
00000000
00010000
00000000
,
00001000
00010000
00001000
00010000
00001000
00010000
00100000
00010000
,
00000000
00001000
00010000
00001000
00010000
00001000
00100000
00000000
,
00001000
00010000
00001000
00010000
00001000
00010000
01000000
00100000
,
00000000
00001000
00000000
00010000
00000000
00000100
00000010
00000002
,
00000000
00000000
00000013
00000000
00000100
00001000
00000000
00001000
,
00000000
00010000
00000000
00100000
00000000
01000000
00010000
00001000
,
00010000
00001000
00010000
00001000
00000100
00000010
00000000
00000010
,
00000000
00000100
00001000
00010000
00000000
00010000
00000000
00010000
,
00000000
00000000
00000000
00000000
00000000
00000000
00000000
00001000
,
00000000
00000000
00000000
00000000
00000000
01000000
00010000
01000000
,
00001000
00000000
00000000
00000000
00000000
00000000
00000000
00001000
,
00000000
00001000
00000000
00000000
00010000
00000000
00010000
00000000
,
00000100
00000000
00000000
00000000
00000000
00000000
00000000
00010000
,
00000000
00010000
00000000
00000000
00000000
00000000
00000000
00000000
,
00001000
00010000
00001000
00000100
00000000
00001000
00000100
00000010
,
00000000
00000100
00000001
00000010
00000000
00000010
00001000
00010000
,
00000100
00001000
00001000
00000010
00000010
00000000
00000000
00000010
,
00000000
00000010
00000000
00000010
00001010
00000000
00000000
00000000
,
00000110
00000000
00000000
00000100
00000100
00000000
00000000
00000001
,
00000000
00000001
00000000
00000001
00000001
00000000
00000000
00000000
,
00000100
00000000
00000000
00000100
00000100
00000000
00000000
00001000
,
00000000
00001000
00000000
00001000
00001000
00000000
00000000
00000000
,
00010000
00000000
00000000
00010000
00010000
00000000
00000000
00011000
,
00000000
00001000
00100000
00001000
01001000
00000000
01000000
00000000
,
01010000
00000000
00000000
01000000
01000000
00100000
00010000
00100000
,
00000000
00100000
00000000
00100000
00000000
00010000
00001000
00000000
,
00010000
00000000
00010000
00000000
00010000
00001000
00000100
00000010
,
00000000
00010000
00000000
00001000
00000000
00000000
00000000
00000000
,
00000000
00000000
00100000
00001000
00000000
00100000
00001000
00010000
,
00000010
00000100
00001000
00010000
00000000
00000000
00000000
00000000
,
00001000
00010000
00001000
00010000
00001000
00000100
00000000
00000010
,
00000000
00000100
00001000
00010000
00000000
00000000
00010000
00000000
,
00001000
00010000
00001000
00010000
00001000
00010000
00100000
00010000
,
00000000
00001000
00010000
00001000
00010000
00001000
00100000
00000000
,
00001000
00010000
00001000
00010000
00001000
00010000
01000000
00100000
,
00000000
00001000
00000000
00010000
00000000
00000100
00000010
00000002
,
00000000
00000000
00000013
00000000
00000100
00010000
00000000
00001000
,
00000000
00100000
00000000
00010000
00000000
01000000
00100000
00010000
,
00001000
00010000
00001000
00010000
00001000
00010000
00001000
00010000
,
00000000
00001000
00000000
01000000
00000000
01000000
00000000
01000000
,
00000000
00000000
00000000
00000000
00000000
00000000
00000000
00001000
,
00000000
00000000
00000000
00000000
00000000
01000000
00010000
01000000
,
00001000
00000000
00000000
00000000
00000000
00000000
00000000
00001000
,
00000000
00001000
00000000
00000000
00010000
00000000
00010000
00000000
,
00000100
00000000
00000000
00000000
00000000
00000000
00000000
00010000
,
00000000
00010000
00000000
00000000
00000000
00000000
00000000
00000000
,
00001000
00010000
00001000
00000100
00000000
00001000
00000100
00000010
,
00000000
00000100
00000001
00000010
00000000
00000010
00001000
00010000
,
00000100
00001000
00001000
00000010
00000010
00000000
00000000
00000010
,
00000000
00000010
00000000
00000010
00001010
00000000
00000000
00000000
,
00000110
00000000
00000000
00000100
00000100
00000000
00000000
00000001
,
00000000
00000001
00000000
00000001
00000001
00000000
00000000
00000000
,
00000100
00000000
00000000
00000100
00000100
00000000
00000000
00000010
,
00000000
00000010
00010000
00000010
00001010
00000010
00000100
00001001
,
00000000
00000000
00000000
00000000
,
00000000
00000000
00000000
00000000
,
00000000
00000000
00000000
00000000
,
00001000
00000000
00000100
00000000
00000010
00000001
00000000
00000010
,
00000000
00000000
00000000
00000000
,
00000000
00000000
00000000
00000000
,
00000000
00000100
00000010
00000000
,
00001000
00000000
00010000
00000000
,
00100000
00000000
00000000
00000000
,
00000000
00010000
00001000
00000010
00000000
00000010
00001000
00010000
,
00001000
00000000
00000000
00000000
,
00000000
00010000
00001000
00000100
00000000
00000100
00001000
00010000
,
00200000
00000000
00000000
00000000
00000000
00000000
00000000
00320000
,
00000000
00000000
00000000
00130000
00000000
00000000
01000000
00000000
,
00100000
10000000
01000000
00010000
00000000
00010000
00001000
00000010
,
00000000
00001000
00000010
00000001
00000000
00000100
00000010
00001000
,
00000000
00001000
00000100
00000010
00000000
00001000
00000010
00000001
,
00000000
00002002
00000000
00000000
00000000
00003003
00000000
00000000
,
00002100
00000100
00000100
00000100
,
00003100
00001000
00010000
00100000
00000000
00100000
00010000
00000000
,
00120000
00100000
00100000
00100000
,
01030000
00010000
00100000
00010000
00000000
00000000
00000000
00000000
,
00000000
00000000
00100000
00001000
00000000
00100000
00001000
00010000
,
00000010
00000100
00001000
00010000
00000000
00000000
00000000
00000000
,
00000000
00000000
00010000
00000100
00000000
00000010
00000000
00000100
,
00000010
00000100
00001000
00010000
00000000
00001000
00000100
00000010
,
00000001
00000000
00001000
00000100
00000000
00000100
00000000
00000010
,
00000001
00000100
00001000
00010000
00000000
00000000
00000000
00000000
,
00000000
00000000
01000000
00010000
00000000
00010000
00000000
00001000
,
00000010
00001000
00010000
01000000
00000000
00000000
00000000
00000000
,
00000000
00000000
00100000
00001000
00000000
00100000
00001000
00010000
,
00000010
00000100
00001000
00010000
00000000
00000000
00000000
00000000
,
00010000
00000000
00000000
00000000
00000000
00000000
00000000
00000100
,
00000000
00001000
00010000
00100000
00000000
00000000
00100000
00000000
,
00001000
00010000
00001000
00010000
00001000
00010000
00100000
00010000
,
00000000
00001000
00010000
00001000
00010000
00001000
00100000
00000000
,
00001000
00010000
00001000
00010000
00001000
00010000
01000000
00100000
,
00000000
00001000
00000000
00100000
00000000
00000000
00000000
00000000
,
00000000
00000000
00100000
00001000
00000000
00100000
00001000
00010000
,
00000010
00000100
00001000
00010000
00000000
00000000
00000000
00000000
,
00010000
00000000
00000000
00000000
00000000
00000000
00000000
00001000
,
00000000
00000100
00001000
00010000
00000000
00002000
00000000
00020000
,
00000000
00000000
00000000
00000000
,
00000000
00000000
00000000
00000000
,
00000000
00033000
00000000
00000000
00000000
00000000
00000000
00000000
,
00000000
00000000
00000000
00000000
;
#NOTES:
     dance-double:
     :
     Hard:
     15:
     :
00000000
00000000
00000000
00000000
,
00000000
00000000
00000000
00000000
,
00000000
00000000
00000000
00000000
,
00000000
00000000
00000000
00000000
,
00000000
00000000
00000000
00000000
,
00000000
00000000
00000000
00000000
00000000
10000000
01000000
00200000
,
00000000
00000000
00310000
00000000
00100000
00010000
00000000
00001000
,
00000000
00000100
00000000
00000010
00000000
00000001
00001000
00000000
,
00001000
00000100
00001000
00000100
00001000
00000100
00000010
00000001
,
00000000
00000000
00000001
00000010
00000001
00000000
00000010
00000100
00000010
00000000
00000100
00001000
00000100
00000000
00010000
00001000
,
00010000
00000100
00001000
00000100
00001000
00000100
00010000
00011000
,
00000000
00010000
00001000
00010000
00001000
00100000
00110000
00000000
,
11000000
01000000
10000000
01000000
10000000
01000000
10000000
11000000
,
00000000
00000000
01100000
00000000
00000000
00000000
00110000
00000000
00000000
00000000
00100000
00000000
00001000
00010000
00001000
00010000
,
00001000
00000000
00010000
00000000
00001000
00000010
00000000
00000110
,
00000000
00000011
00000000
00001100
00000000
00001000
00000010
00000001
,
00000010
00001000
00010000
01000000
10000000
01000000
00000000
00100000
,
00000000
10000000
00010000
01000000
00000000
00100000
00000000
20000000
,
00000000
00000000
01000000
31000000
00100000
00010000
00000000
00100000
,
00000000
00001000
00000000
00010000
00001000
00000100
00001000
00000100
,
00000010
00000100
00000001
00000100
00000010
00001000
00010000
01000000
,
00000000
00100000
00000000
00100000
10000000
00000000
10000000
01000000
,
00020000
00000000
00000000
00031000
00010000
00000100
00000000
00010100
,
00000000
00101000
00000000
01100000
00000000
11000000
00000000
00000000
,
01000000
10000000
01000000
00100000
00000000
01000000
00100000
00010000
,
00000000
00100000
00010000
00001000
00000000
00010000
00001000
00000100
,
00001000
00000010
00000100
00000001
00000101
00000000
00000000
00001010
,
00000000
00010100
00000000
00010000
00011000
00000000
00000000
00000000
,
00011000
00001000
00010000
00100000
10000000
00100000
00000000
10000000
,
00000000
01000000
00000000
00100000
00001000
00010000
00001000
00000000
,
00010000
00000100
00001000
00000010
00001000
00000000
00000000
00001010
,
00000000
00010100
00000000
00010000
00011000
00000000
00000000
00000000
,
00001000
00000000
00000000
00001000
00001000
00000000
00000000
00101000
,
00000000
00000000
00001000
00000000
00010000
00000000
00001000
00000000
00010000
00000000
00000100
00010000
00001000
00000000
00100000
00001000
,
00010000
00000000
00000000
00010000
00010000
00001000
00000100
00000001
,
00000000
00000100
00000000
00001000
00000000
00010000
00100000
10000000
,
01000000
00000000
00010000
00000000
01000000
00010000
00001000
00000010
,
00000000
00000001
00000000
00000100
00000000
00000010
00000100
00000002
,
00000000
00000000
00000103
00001000
00000000
00001000
00010000
00100000
,
00010000
00001000
00000100
00000010
00000000
00000100
00000100
00000000
,
00000001
00000010
00000001
00000010
00000001
00000100
00000000
00001000
,
00000000
00000000
00010000
00000000
00001000
00000000
00100000
00000000
00000000
00000000
00001000
00010000
00001000
00000000
00010000
00001000
,
00010000
00000100
00010000
00000100
00010000
00000100
00010000
00101000
,
00000000
00100000
00001000
00100000
00001000
00100000
00110000
00000000
,
11000000
01000000
10000000
01000000
10000000
01000000
10000000
11000000
,
00000000
00000000
01100000
00000000
00000000
00000000
00110000
00000000
00000000
00000000
00100000
00000000
00001000
00010000
00001000
00010000
,
00001000
00000000
00010000
00000000
00001000
00000010
00000000
00000110
,
00000000
00000011
00000000
00001100
00000000
00001000
00000010
00000001
,
00000010
00001000
00010000
01000000
10000000
01000000
00000000
00100000
,
00000000
10000000
00010000
01000000
00000000
01000000
00000000
00020000
,
00000000
00000000
01000000
01030000
00010000
00100000
00000000
00010000
,
00000000
00001000
00000000
00000100
00000001
00000100
00001000
00000100
,
00000010
00000001
00000100
00000001
00000100
00001000
00010000
00100000
,
00000000
00100000
00000000
00100000
10000000
00000000
10000000
00100000
,
00020000
00000000
00000000
00031000
00010000
00000100
00000000
00010100
,
00000000
00101000
00000000
00110000
00000000
11000000
00000000
00000000
,
01000000
10000000
01000000
00100000
00000000
01000000
00100000
00010000
,
00000000
00100000
00010000
00001000
00000000
00010000
00001000
00000100
,
00001000
00000010
00000100
00000001
00000101
00000000
00000000
00001010
,
00000000
00001100
00000000
00000100
00010100
00000000
00000000
00000000
,
00011000
00001000
00010000
00100000
10000000
01000000
00000000
00010000
,
00000000
00001000
00000000
00000010
00000001
00000100
00000001
00000000
,
00001000
00000100
00010000
00001000
00010000
00000000
00000000
00001000
,
00000000
00100000
00010000
00001000
00100000
00010000
00001000
00011000
,
00000000
00000000
00002000
00003000
00000200
00000300
00000002
00000003
,
00000020
00000030
00002000
00003000
00020000
00030000
00200000
00300000
,
20000000
30000000
00010000
00010000
00000000
01000000
00000000
00100000
,
10000000
00000000
01000000
00000000
00100000
00001000
00000000
00010000
,
00000100
00000000
00000000
00000000
00000020
00000030
00000000
00000000
00000200
00000300
00000000
00000000
00002000
00003000
00000000
00000000
,
00020000
00030000
00000000
00000000
00200000
00300000
00000000
00000000
02000000
03000000
00000000
00000000
20000000
30000000
00000000
00000000
,
00010000
10000000
00010000
00000000
,
00100000
00000000
00010000
00000000
00100000
00000000
00001000
00000000
00010000
00000000
00000100
00010000
00001000
00000000
00100000
00001000
,
00010000
00000000
00000000
00010000
00001000
00010000
00000000
00001000
,
00000000
00010000
00001000
00000010
00000000
00000010
00001000
00010000
,
00010000
00000000
00001000
00000000
00010000
00001000
00010000
00010000
,
00000000
00001000
00010000
00100000
00000000
00100000
00010000
00001000
,
00010000
00000000
00000000
00000000
00000100
00010000
00001000
00100000
,
00000000
00100000
00000000
00010000
00000000
00000000
10000000
01000000
,
00010000
01000000
00100000
01100000
00000000
00100000
00001000
00011000
,
00000000
00010000
00000100
00001100
00000000
00000100
00000010
00000011
,
00000000
00000001
00000100
00000110
00000000
00000010
00010000
00011000
,
00000000
00000000
00001000
00010000
00001000
00000000
00100000
00010000
00100000
00000000
00001000
00010000
00001000
00000000
00100000
00010000
,
00100000
00010000
00010000
00010000
00010000
00010000
00010000
00010000
,
00010000
01000000
10000000
01000000
00000000
01000000
00010000
00100000
,
00010000
00010000
00010000
00010000
00010000
00010000
00010000
00010000
,
00010000
00100000
00001000
00010000
00000000
00000000
00000000
00000000
,
00000000
00000000
00001000
00010000
00000000
00100000
00010000
00001000
,
00000100
00001000
00010000
00100000
00000000
00000000
01000000
00000000
,
00010000
00000000
10000000
01000000
00000000
00100000
00000000
00001000
,
00010000
00001000
00100000
00010000
00000000
10000000
01000000
00100000
,
00010000
00100000
10000000
00100000
00010000
01000000
10000000
01000000
,
00010000
00100000
01000000
10000000
00000000
10000000
01000000
00010000
,
00001000
00000010
00000001
00000100
00001000
00000100
00000001
00000100
,
00000010
00001000
00000100
00010000
00000000
00001000
00100000
00010000
,
00000000
00000000
10000000
01000000
00000000
00100000
00010000
00100000
,
00001000
00010000
00100000
01000000
00000000
00010000
00100000
00001000
,
00010000
00001000
00010000
00001000
00010000
00001000
00010000
00001000
,
00000000
00000000
00010000
00000000
00100000
00000000
01000000
00000000
00000000
00000000
00010000
01000000
00010000
00000000
10000000
01000000
,
10000000
01000000
00100000
01000000
00100000
01000000
00100000
00110000
,
00000000
00100000
00001000
00100000
00001000
00100000
00011000
00000000
,
00010010
00000010
00001000
00000010
00001000
00000010
00001000
00001100
,
00000000
00011000
00000000
00110000
00000000
00100000
00010000
00002000
,
00000000
00000000
00013000
00100000
00000000
00100000
00001000
00010000
,
00000100
00001000
00010000
00100000
00000000
00100000
00001000
00010000
,
00000100
00001000
00000100
00001000
00000100
00001000
00000000
00000001
,
00000000
00000000
00001000
00000100
00001000
00000000
00000001
00000010
00000001
00000000
00002000
00000000
00000000
00000000
00000002
00000000
,
00000000
00000000
00000000
00000000
,
00000000
00000000
00000000
00000000
,
00000000
00003003
00000000
00000000
00000000
00000000
00000000
00000000
,
00000000
00000000
00000000
00000000
;
#NOTES:
     dance-double:
     :
     Challenge:
     14:
     :
00000000
00000000
00000000
00000000
,
00000000
00000000
00000000
00000000
,
00000000
00000000
00000000
00000000
,
00000000
00000000
00000000
00000000
,
00000000
00000000
00000000
00000000
,
00000000
00000000
00000000
00000000
00000000
10000000
01000000
00200000
,
00000000
00000000
00301000
00000000
00010000
00000010
00000000
00001000
,
00000000
00000001
00000000
00000200
00000000
00000310
00010000
00001000
,
00100000
01000000
00100000
00010000
10000000
00100000
00000000
01000000
,
00000000
00000000
00010000
00000000
00010000
00000000
10000000
01000000
10000000
00000000
10000000
00000000
00010000
00100000
00010000
00000000
,
10000000
01000000
10000000
01000000
00100000
00001000
00010000
00000020
,
00000000
00000130
00000010
00001000
00000010
00000100
00000001
00000000
,
00001000
00000100
00010000
00001000
01000000
00010000
10000000
10100000
,
00000000
00000000
00110000
00000000
00000000
00000000
00011000
00000000
00000000
00000000
00010000
00001000
00010000
00001000
00010000
00001000
,
00010000
00001000
00100000
00010000
10000000
01000000
00000000
01100000
,
00000000
00101000
00000000
00010020
00000000
00001030
00000001
00000100
,
00000010
00001000
00010000
01000000
00100000
10000000
00000000
10010000
,
00000000
01001000
00000000
00010100
00000000
00001001
00000000
00000002
,
00000000
00000000
00000003
00000010
00000100
00001000
00000000
00000020
,
00000000
00000000
00020030
00000000
00032000
00000000
01003000
00010000
,
10000000
01000000
00100000
00010000
00001000
00000100
00000010
00000001
,
00000000
00000001
00000000
00001000
00000010
00000100
00000001
00001000
,
00000200
00000000
00000000
00000310
00001000
00010000
00000000
00021000
,
00000000
00130000
00000000
00100000
01000000
00100000
00000000
10000000
,
00020000
00000000
00130000
00002000
00000000
00023000
00000000
00030100
,
00000000
00001000
00000002
00000000
00000000
00000003
00000000
00000000
,
00000101
00000000
00001010
00000000
00000010
00010000
00001000
00100000
,
00010000
01000000
00001000
00010000
00000000
00000100
00001000
00000010
,
00010000
00001000
00000100
00000010
00010000
00001000
00100000
00010000
,
00000000
00020000
00000000
01030000
00100000
00010000
00001000
00010000
,
00000000
00001000
01000000
00010000
10000000
01000000
00100000
00010000
,
00001000
00010000
00100000
00010000
00001000
00010000
00100000
00020000
,
00000000
00030000
00000000
01000000
00002000
00000000
00023000
00030200
,
00000000
00000000
00000000
00000300
,
00001200
00000000
00000300
00000010
00000001
00001000
00000100
00000110
,
00000000
00001010
00000000
00012000
00000000
00003100
00000010
00001000
,
00001001
00000000
00020100
00000000
00031000
01000000
00010000
10010000
,
00000000
01001000
00000000
00011000
00000000
00001000
00010000
00000020
,
00000000
00000000
00000230
00000000
00000301
00002000
00000000
00003020
,
00000000
00000130
00001000
00020000
00000000
00031000
00100000
00010000
,
00100000
01000000
00010000
00001000
00100000
01000000
00000000
00100000
,
00001000
00000000
00010000
00000000
00100000
00000000
01000000
00000000
00000000
00000000
00100000
10000000
00100000
00000000
10000000
01000000
,
10000000
01000000
00100000
00010000
01000000
00001000
00010000
00000020
,
00000000
00000130
00000010
00001000
00000100
00000010
00000001
00000000
,
00001000
00000010
00010000
00001000
00100000
00010000
10000000
11000000
,
00000000
00000000
01010000
00000000
00000000
00000000
00011000
00000000
00000000
00000000
00001000
00010000
00001000
00000000
00010000
00001000
,
00010000
00000100
00001000
00000001
00000010
00000100
00000000
00000110
,
00000000
00010100
00000000
02001000
00000000
03010000
10000000
01000000
,
00100000
00010000
00001000
00000100
00000010
00000001
00000000
00001001
,
00000000
00010100
00000000
01001000
00000000
10010000
00000000
20000000
,
00000000
00000000
30000000
00100000
01000000
00010000
00000000
00200000
,
00000000
00000000
00302000
00000000
00023000
00000000
00030100
00001000
,
00000001
00000100
00000010
00001000
00010000
01000000
00100000
20000000
,
00000000
30010000
00100000
00010000
00100000
01000000
10000000
00010000
,
02000000
00000000
00000000
03100000
00010000
00001000
00000000
00012000
,
00000000
00003010
00000000
00000010
00000100
00000010
00000000
00000001
,
00002000
00000000
00003010
00020000
00000000
00032000
00000000
01003000
,
00000000
00010000
20000000
00000000
00000000
30000000
00000000
00000000
,
11000000
00000000
00110000
00000000
00100000
00001000
00010000
00000010
,
00001000
00000100
00010000
00001000
00000000
02000000
00000000
03200000
,
00000000
10300000
01000000
00100000
00001000
00010000
00000000
00001000
,
00000000
00002000
00000000
00013000
00000100
00001000
00000001
00000000
,
00000000
00001000
00000100
00001000
00000001
00000100
00000010
00001000
,
00010000
00001000
00000010
00001000
00010000
00001000
00000010
00002000
,
00000000
00000010
00000001
00000100
,
00023000
00100000
10000000
01030000
,
00020000
00000000
10030000
01000000
00000000
00100000
00000000
00002000
,
00000000
00000000
00013000
00000000
00010000
00001000
00000000
00021000
,
00000000
01000000
10000000
01000000
,
00032000
00000100
00000001
00003100
,
00000000
00022000
00000000
00033000
,
00201000
00000000
00000000
00000000
00000000
00000000
00000000
00000000
01300000
00000000
10000000
01000000
10000000
00000000
00010000
01000000
,
00020000
00000000
00000000
10030000
00100000
01000000
00001000
00010000
,
00000000
00020000
00000000
00030010
00000000
00000010
00000100
00000000
,
00000002
00000000
00000000
00000000
00000023
00000000
00000000
00000000
00000130
00000000
00001000
00000000
00000100
00010000
00001000
00000000
,
00000000
00002000
00000000
00013000
00000000
00010000
01000000
00000000
,
00200000
00000000
00000000
00000000
00310000
10000000
01000000
00100000
,
00000000
00001000
00000000
00020000
00000000
00000000
00030200
00000000
,
00002300
00000000
00000000
00003010
00000200
00000000
00000000
00000001
,
00000000
00000010
00000000
00010000
00000000
00000010
00000000
00000002
,
00000000
00000000
00000000
00000303
,
00000000
00000000
00000001
00000100
00000001
00000100
00000001
00000100
00000001
00000000
00002000
00000000
00000000
00000000
00000000
00000000
,
00003020
00000000
00000030
00000100
00000001
00001000
00000100
00000110
,
00000000
00001010
00000000
00012000
00000000
00003100
00000010
00001000
,
00001001
00000000
00010100
00000000
00011000
00001000
00010000
01000000
,
00000000
01100000
00000000
10010000
00000000
00010000
10000000
00200000
,
00000000
00000000
01300000
00000000
00001000
00010000
00000000
01010000
,
00000000
01100000
00000000
21000000
00000000
30100000
01000000
00010000
,
00100000
00001000
00010000
00000010
00001000
00000001
00000000
00000010
,
00000000
00000000
00000110
00000000
00000100
00000000
00001000
00000000
00001001
00000000
00000001
00000100
00000001
00000000
00001000
00000000
,
00000020
00000000
00000030
00000100
00001000
00010000
00001000
00011000
,
00000000
01010000
00000000
21000000
00000000
30100000
00010000
00001000
,
00001100
00000000
00000101
00000000
00000011
00000010
00000100
00001100
,
00000000
00011000
00000000
00110000
00000000
00100000
00010000
20000000
,
00000000
00000000
32000000
00000000
03010000
00001000
00000000
00010000
,
00000000
00001000
00000000
00010000
00000000
00000010
00001000
00000100
,
00000010
00001000
00010000
00001000
00000100
00000010
00000000
00010000
,
00000000
00000000
00001000
00000000
01000000
00000000
00010000
00000000
00000000
00000000
10000000
01000000
10000000
00000000
00010000
00100000
,
00010000
00100000
00010000
00100000
00001000
00010000
00000100
00000020
,
00000000
00000130
00000010
00001000
00010000
00001000
00010000
00000000
,
00000010
00000100
00000010
00001000
00010000
01000000
00100000
10100000
,
00000000
11000000
00000000
01100000
00000000
00100000
01000000
20000000
,
00000000
00000000
30020000
00000000
00130000
01000000
00000000
00100000
,
00000000
00010000
00000000
00002000
00000000
00003100
00000010
00000001
,
00001000
00000010
00000100
00001000
00010000
00001000
00000000
00100000
,
00000000
00010000
00000000
00001000
00000000
00000100
00000000
00000020
,
00000000
00000000
00000000
00000000
,
00000000
00000000
00000000
00000000
,
00000000
00000030
00000000
00000000
00000000
00000000
00000000
00000000
,
00000000
00000000
00000000
00000000
;
