
//----- song ID: holl -----//
#TITLE:Hollywood Galaxy;
#ARTIST:dj TAKA;
#BANNER:Hollywood Galaxy.png;
#BACKGROUND:Hollywood Galaxy-bg.png;
#CDTITLE:./CDTitles/REFLEC BEAT.png;
#MUSIC:Hollywood Galaxy.ogg;
#SAMPLESTART:85.162;
#SAMPLELENGTH:15;
#BPMS:0=186;
#NOTES:
     dance-single:
     :
     Beginner:
     3:
     :
0000
0000
0000
0000
,
0000
0000
0000
0000
,
0000
0000
0000
0000
,
0000
0000
0000
0000
,
0000
0000
0000
0000
,
1000
0000
0000
0000
,
0000
0000
0000
0000
,
0001
0000
0000
0000
,
1000
0000
0000
0000
,
0001
0000
0100
0000
,
0001
0000
0100
0000
,
0010
0000
1000
0000
,
0001
0000
0010
0000
,
0100
0000
1000
0000
,
0100
0000
1000
0000
,
0001
0000
1000
0000
,
0010
0000
0000
0000
,
0000
0000
0000
0000
,
1000
0000
1000
0000
,
0010
0000
0010
0000
,
0100
0000
0100
0000
,
0001
0000
0001
0000
,
0010
0000
0010
0000
,
0100
0000
0100
0000
,
1000
0000
1000
0000
,
0001
0000
0001
0000
,
2000
0000
0000
3000
,
0002
0000
0000
0003
,
0200
0000
0000
0300
,
0020
0000
0000
0030
,
0200
0000
0000
0300
,
0002
0000
0000
0003
,
2000
0000
0000
3000
,
1001
0000
0000
0000
,
0001
0000
0100
0000
,
0001
0000
0100
0000
,
0010
0000
0100
0000
,
0001
0000
1000
0000
,
0100
0000
1000
0000
,
0001
0000
0100
0000
,
0001
0000
1000
0000
,
0001
0000
0000
0000
,
1000
0000
0010
0000
,
1000
0000
0010
0000
,
0100
0000
0010
0000
,
1000
0000
0001
0000
,
0010
0000
0001
0000
,
1000
0000
0010
0000
,
0100
0000
0010
0000
,
0110
0000
0000
0000
,
0200
0000
0300
0000
,
0002
0000
0003
0000
,
2000
0000
0000
0000
,
0000
0000
3000
0000
,
0020
0000
0030
0000
,
0200
0000
0300
0000
,
0002
0000
0000
0000
,
0000
0000
0003
0000
,
1000
0000
0001
0000
,
0100
0000
0001
0000
,
1000
0000
0100
0000
,
0010
0000
0000
0000
,
0001
0000
0001
0000
,
1000
0000
1000
0000
,
1001
0000
0000
0000
,
1001
0000
0000
0000
,
1000
0000
0010
0000
,
0100
0000
0010
0000
,
1000
0000
0001
0000
,
0100
0000
0000
0000
,
0001
0000
1000
0000
,
0010
0000
0100
0000
,
0001
0000
1000
0000
,
0001
0000
0000
0000
,
1000
0000
0001
0000
,
0010
0000
0100
0000
,
1000
0000
0001
0000
,
1000
0000
0000
0000
,
0100
0000
0000
0000
,
0010
0000
0100
0000
,
0110
0000
0000
0000
,
0000
0000
0000
0000
,
1001
0000
0000
0000
,
0000
0000
0000
0000
;
#NOTES:
     dance-single:
     :
     Easy:
     9:
     :
0000
0000
0000
0000
,
0000
0000
0000
0000
,
0000
0000
0000
0000
,
0000
0000
0000
0000
,
0000
0000
0000
0000
,
0001
0000
0000
0000
,
1000
0000
0000
0000
,
0001
0000
0000
0000
,
0100
0010
0100
0010
,
1000
0010
0100
0001
,
1000
0010
0100
0001
,
1000
0010
0100
0001
,
0010
0100
1000
0001
,
1000
0100
0010
0001
,
1000
0100
0010
0001
,
1000
0100
0010
0001
,
0100
0010
1000
0100
,
0000
0000
0000
0000
,
1000
0000
0001
0000
0000
0100
0001
0000
,
0100
0000
0010
0000
0000
1000
0010
0000
,
1000
0000
0100
0000
0000
1000
0001
0000
,
0010
0000
0100
0000
0000
0010
0001
0000
,
1000
0000
0010
0000
0000
0100
0001
0000
,
0010
0000
0100
0000
0000
1000
0001
0000
,
0100
0000
0010
0000
0000
1000
0001
0000
,
0010
0000
0100
0000
0000
1000
0001
0000
,
0200
0000
0310
0000
0100
0001
0100
0000
,
0002
0000
1003
0000
0001
0010
0001
0000
,
0020
0000
0130
0000
1000
0010
1000
0000
,
0020
0000
0130
0000
0001
0100
0001
0000
,
2000
0000
3100
0000
1000
0010
1000
0000
,
0002
0000
0013
0000
0001
0100
0001
0000
,
2000
0000
3100
0000
1000
0100
0010
0000
,
0110
0000
2000
0000
,
3001
0100
0001
0000
,
1000
0010
1000
0000
,
0001
0100
0001
0000
,
1000
0100
0010
0000
,
0001
0100
0010
0000
,
0100
0001
1000
0010
,
1000
0100
1000
0001
,
0010
0000
0100
0000
0010
0100
0010
0000
,
1000
0010
1000
0000
,
0001
0100
0001
0000
,
1000
0010
1000
0000
,
0001
0010
0100
0000
,
1000
0010
0100
0000
,
0010
1000
0001
0100
,
1001
0010
1001
0100
,
0101
0011
1010
1100
,
2000
0000
0000
0000
,
3002
0000
0000
0000
,
0203
0000
0320
0000
,
2030
0000
0000
0000
,
3002
0000
0000
0000
,
2003
0000
0000
0000
,
3020
0000
0230
0000
,
0302
0000
0023
0000
,
0230
0310
0100
1000
,
0002
0013
0001
1000
,
0020
0130
0002
0013
,
0200
1300
0001
1000
,
1100
0100
0100
0100
,
0011
0010
0010
0010
,
1001
0000
0001
0000
0010
0100
0010
0000
,
1001
0000
0000
0000
,
1000
0001
0100
0010
,
0100
0001
0010
0100
,
1000
1000
0010
0100
,
0001
0001
1000
0001
,
0100
0010
1000
0001
,
0010
0010
0100
1000
,
0001
0001
0100
0001
,
1000
0010
1000
0010
,
0110
0100
0001
1000
,
1001
0100
0101
0010
,
1010
0001
0011
0100
,
1100
0001
0100
0010
,
1010
1000
0001
0010
,
0011
1000
1010
0001
,
1001
0000
0000
0110
0000
0000
1001
0000
,
0000
0000
0000
0000
1000
0001
1000
0000
,
0110
0000
0000
0000
,
0000
0000
0000
0000
;
#NOTES:
     dance-single:
     :
     Medium:
     12:
     :
0000
0000
0000
0000
,
0000
0000
0000
0000
,
0000
0000
0000
0000
,
0000
0000
0000
0000
,
0000
0000
0000
0000
,
1000
0000
0100
1000
0000
0001
0010
0000
,
0001
0000
0100
0001
0000
1000
0010
0000
,
1000
0000
0001
0100
0000
0010
1000
0000
,
0001
0010
0001
0000
1000
0010
1000
0000
,
0001
0000
1000
0002
0000
1003
0010
0100
,
0001
0000
1000
0002
0000
1003
0010
0100
,
0001
0000
0010
0200
0000
1300
0001
0100
,
0010
1000
0010
0000
1000
0001
0100
0000
,
0001
0001
1000
0010
0000
1000
0010
0100
,
0001
0001
1000
0100
0000
1000
0100
0010
,
0001
0001
1000
0010
0000
1000
0010
0100
,
0001
1000
0001
0000
0010
0100
0010
0000
,
0000
0000
0000
0000
,
0001
0000
0010
0000
0001
0000
1000
0100
0000
0000
1000
0000
0010
0000
0000
0000
,
1000
0000
0010
0000
0100
0010
0000
0100
0000
0000
0001
0000
0010
0000
0000
0000
,
0100
0000
1000
0000
0010
0000
1000
0010
0000
0000
0100
0000
0001
0000
0000
0000
,
0010
0000
0100
0000
0010
0001
0000
0010
0000
0000
0001
0000
0100
0000
0000
0000
,
0001
0000
0100
0000
0001
0000
1000
0010
0000
0000
1000
0000
0100
0000
0000
0000
,
1000
0000
0100
0000
0010
0100
0000
0010
0000
0000
0001
0000
0100
0000
0000
0000
,
0010
0000
1000
0000
0100
0000
1000
0001
0000
0000
0100
0000
0010
0000
0000
0000
,
1000
0000
0001
0000
0010
0100
0000
1000
0000
0000
0001
0000
0100
0000
0000
0000
,
0002
1000
1003
0001
0010
0100
1000
0000
,
0020
0100
0130
0001
1000
0100
0010
0000
,
0002
0010
0013
0001
1000
0010
0100
0000
,
0020
0100
0130
0010
1000
0001
0100
0010
,
2000
0001
3001
1000
0100
0010
0001
0000
,
0200
0010
0310
1000
0001
0010
0100
0000
,
2000
0010
3010
1000
0001
0010
0100
0000
,
0110
0000
0000
0000
2002
0000
0000
3003
,
1000
0010
1000
0000
0001
0100
0001
0000
,
1000
0100
1000
0000
0001
0010
0001
0000
,
1000
0010
1000
0000
0001
0100
0001
0000
,
1000
0100
1000
0000
0010
1000
0100
1000
,
0001
0010
0100
0000
1000
0001
0100
0000
,
0001
0001
1000
1000
0010
0010
0100
0100
,
0001
1000
0100
0000
0010
0100
1000
0000
,
0010
0010
0100
0100
0001
0001
1000
1000
,
0001
0100
0001
0000
1000
0010
1000
0000
,
0001
0010
0001
0000
1000
0100
1000
0000
,
0001
0100
0001
0000
1000
0010
1000
0000
,
0001
0010
0001
0000
0100
0001
0010
0001
,
1000
0100
0010
0000
0001
1000
0010
0000
,
1000
1000
0001
0001
0100
0100
0010
0010
,
1000
0001
0010
0000
0100
0010
0001
0000
,
0100
0100
0010
0010
1000
1000
0001
0001
,
2000
0000
0000
0000
,
3002
0000
0000
0000
,
0023
0000
0230
0000
,
2300
0000
0000
0000
0000
3010
1000
0100
,
0020
0000
0000
0000
,
0032
0000
0000
0000
,
2003
0000
3020
0000
,
0230
0302
2003
3020
,
1030
0000
0010
0100
0010
0100
0001
0000
,
1000
1000
0100
0010
0100
0010
0001
0000
,
0100
0000
0010
1000
0010
1000
0100
0000
,
0010
0010
0001
0100
0001
0100
0010
0000
,
0100
0010
0100
0010
0100
0010
0100
0000
,
0001
1000
0001
1000
0001
1000
0001
0000
,
1000
0100
0010
0001
1000
0100
0010
0001
,
1000
0000
0000
0000
,
0010
0000
0100
0010
0000
1000
0100
1000
,
0001
0010
0001
0010
0100
1000
0100
0010
,
0001
0000
1000
0010
0000
0010
0100
0010
,
1000
0100
1000
0100
0010
0001
0010
0000
,
0100
0000
1000
0010
0000
0100
0001
1000
,
0100
0010
0100
0010
0001
0100
0001
0100
,
0010
0000
1000
0001
0000
0001
0100
0010
,
1000
0001
1000
0001
0010
0100
0010
0000
,
1001
0000
1000
1000
0000
0001
0010
0100
,
1100
0000
1000
0010
0100
0001
0010
0000
,
0011
0000
0001
0100
0010
1000
0100
0000
,
1100
0000
1001
0000
0001
1000
0100
0010
,
0110
0000
0001
0100
0000
0100
0010
0000
,
1010
0000
1000
0001
0100
0001
0010
0000
,
0001
0001
0000
1000
1000
0000
0100
0100
,
0000
0000
0000
0000
0100
0010
0010
0010
,
1001
0000
0000
0000
,
0000
0000
0000
0000
;
#NOTES:
     dance-single:
     :
     Hard:
     16:
     :
0000
0000
0000
0000
,
0000
0000
0000
0000
,
0000
0000
0000
0000
,
0000
0000
0000
0000
,
0000
0000
0000
0000
,
0001
0100
0001
0010
0000
0001
0010
0100
,
1000
0100
1000
0010
0000
1000
0100
0010
,
0001
0010
0001
0100
0000
0001
1000
0000
,
0001
0010
0100
1000
0001
0010
0100
1000
,
0001
0001
0010
0002
0000
1003
0010
0100
,
0001
0001
1000
0200
0000
1300
0010
0100
,
0001
0001
0010
0200
0000
1300
0001
0100
,
0010
1000
0100
0010
0001
0100
0010
1000
,
0001
0100
0001
0000
1000
0000
0010
0000
0100
0000
0010
0000
1000
0000
0100
0000
,
0010
0100
0010
0000
0001
0000
1000
0000
0010
0000
1000
0000
0100
0000
0010
0000
,
0001
1000
0001
0000
0010
0000
0100
0000
1000
0000
0100
0000
0010
0000
0001
0000
,
1000
0010
1000
0010
1000
0000
0001
0000
0010
0001
0010
0001
0010
0000
0001
1000
,
0000
0000
0000
0000
,
0001
0000
0100
0000
0010
0000
1000
0001
1000
0000
0100
0000
0010
0000
0001
1000
,
0001
0000
0100
0000
0010
0100
0000
0010
1000
0000
0001
0000
0010
0000
0001
0000
,
1000
0000
0010
0000
0100
0000
0001
1000
0001
0000
0010
0000
0100
0000
1000
0001
,
1000
0000
0010
0000
0100
0010
0000
0100
0001
0000
1000
0000
0100
0000
1000
0000
,
0001
0000
0100
0000
0010
0000
0100
0010
0100
0000
0001
0000
1000
0000
0100
0010
,
0100
0000
1000
0000
0001
0100
0000
0010
1000
0000
0001
0000
0010
0000
0100
0000
,
1000
0000
0100
0000
0010
0000
0100
0010
0100
0000
1000
0000
0001
0000
0100
0010
,
0100
0000
0001
0000
1000
0010
0000
0100
0001
0000
1000
0000
0100
0000
0010
0000
,
0002
0000
1003
0000
0001
0000
0100
0010
0100
0000
0001
0000
1000
0000
0100
0010
,
0200
0000
1300
0000
0001
0010
0000
0001
1000
0000
0010
0000
1000
0000
0100
0000
,
2000
0000
3001
0000
1000
0000
0010
0100
0010
0000
1000
0000
0001
0000
0010
0100
,
0020
0000
0031
0000
1000
0100
0000
1000
0001
0000
0100
0000
0001
0000
0010
0000
,
0002
0000
1003
0000
0001
0000
0010
0001
1000
0000
0010
0000
0100
0000
0010
1000
,
0002
0000
1003
0000
0100
1000
0000
0001
0100
0000
0010
0000
1000
0000
0100
0000
,
2000
0000
3001
0000
1000
0000
0010
1000
0100
0000
0010
0000
0001
0000
1000
0000
,
1001
0000
0000
0000
0000
0000
0000
0000
1000
0010
1000
0010
1000
0010
1000
0000
,
0001
0100
0001
0100
0001
0000
1000
0000
0100
0000
0010
0000
0001
0000
0000
0000
,
1000
0100
1000
0100
1000
0000
0001
0000
0010
0000
0100
0000
1000
0000
0000
0000
,
0010
0100
0010
0100
0010
0000
1000
0000
0100
0000
0010
0000
0001
0000
0000
0000
,
0100
0010
0100
0010
0100
0000
0001
0000
1000
0000
0010
0100
0010
0000
1000
0001
,
0010
0100
0010
0100
0010
0000
0001
0000
1000
0000
0100
0000
1000
0000
0010
0000
,
0100
0001
0100
0000
0001
0010
0001
0000
1000
0100
1000
0000
0010
1000
0010
0000
,
1000
0001
1000
0001
1000
0000
0001
0000
0100
0000
0010
0000
1000
0000
0001
0000
,
0100
0010
0100
0000
0001
1000
0001
0000
1000
0100
1000
0100
0010
0001
0010
0000
,
0001
1000
0001
1000
0001
0000
0010
0000
0100
0000
1000
0000
0001
0000
0000
0000
,
0100
0010
0100
0010
0100
0000
0001
0000
1000
0000
0100
0000
0010
0000
0000
0000
,
0001
1000
0001
1000
0001
0000
0100
0000
0010
0000
1000
0000
0001
0000
0000
0000
,
0010
0100
0010
0100
0010
0000
0001
0000
1000
0000
0010
0100
0010
0000
1000
0100
,
0010
0001
0010
0001
0010
0000
0001
0000
0100
0000
0010
0000
1000
0000
0001
0000
,
0100
0010
0100
0000
0001
0010
0001
0000
1000
0100
1000
0000
0010
0100
0010
0000
,
1000
0100
1000
0100
1000
0000
0001
0000
0010
0100
0010
0100
0010
0000
0001
0000
,
1000
0100
1000
0000
0001
0010
0001
0000
0100
0010
0100
0010
1000
0001
1000
0001
,
2000
0000
0010
0010
0000
0000
3000
0000
,
0002
0000
0100
0100
0000
0000
0003
0000
,
2000
0000
3100
0100
0020
0000
0030
0000
,
0002
0000
1000
1000
0003
0001
0010
0100
,
2000
0000
0010
0010
0000
0000
3000
0000
,
0002
0000
0010
0010
0000
0000
0003
0000
,
2000
0000
3001
0001
0200
0000
0300
0000
,
0002
0023
0230
2300
,
3001
0000
0000
0000
1000
0000
0100
0000
1000
0000
0100
0000
0010
0100
0010
0000
,
0001
0000
1000
0000
0001
0000
0010
0000
0001
0000
0100
0000
0001
0100
0001
0000
,
1000
0000
0000
0000
0010
0000
0100
0000
0010
0000
0100
0000
0001
0100
0010
0000
,
1000
0000
0001
0000
0100
0000
0001
0000
0010
0000
0100
0000
1000
0100
0010
0000
,
0001
0100
0001
0100
0001
0010
0100
1000
,
0010
0100
0010
0100
0001
0010
0100
1000
,
0001
0010
0001
0010
0100
0000
1000
0000
0001
1000
0001
1000
0010
0100
0010
0100
,
0010
0000
0000
0000
,
1000
0000
0001
1001
0000
0001
0010
0001
,
1000
0010
1000
0010
1000
0000
0100
0000
0010
0001
0010
0001
0010
0000
0100
0000
,
1000
0001
1000
0001
1000
0000
0010
0100
0010
0100
0010
0000
1000
0010
1000
0000
,
0001
0100
0001
0100
0010
1000
0010
1000
,
0100
0000
0100
0110
0000
0010
0001
1000
,
0010
0100
0010
0100
0010
0000
1000
0000
0001
1000
0001
1000
0001
0000
0010
0000
,
0100
1000
0100
1000
0100
0000
0010
0001
0010
0001
0010
0000
0001
1000
0001
0000
,
1000
0000
0010
0000
1000
0000
0010
0000
0100
0010
0100
0010
1000
0001
1000
0000
,
0001
0000
0010
0110
0000
1000
0010
0100
,
0001
0000
1000
0010
1000
0000
0001
0000
0010
0100
0010
0000
0100
0010
0001
0000
,
1000
1000
1000
0001
0001
0001
0100
0100
,
0001
0000
0001
1000
0001
0000
0001
0000
1000
0010
1000
0000
0010
0100
0001
0000
,
1000
0000
0010
0000
1000
0000
0100
0000
0010
0000
0100
0010
0100
0000
1000
0000
,
0001
0000
0001
0010
0001
0000
0001
0000
1000
0000
1000
0010
1000
0000
1000
0100
,
1000
1100
0000
0001
0101
0000
1000
1001
,
0000
0000
0000
0000
0000
0000
0000
0000
1000
0001
1000
0001
1000
0001
1000
0001
,
0010
0000
0000
0000
,
0000
0000
0000
0000
;
#NOTES:
     dance-double:
     :
     Easy:
     8:
     :
00000000
00000000
00000000
00000000
,
00000000
00000000
00000000
00000000
,
00000000
00000000
00000000
00000000
,
00000000
00000000
00000000
00000000
,
00000000
00000000
00000000
00000000
,
10000000
00000000
00000000
00000000
,
00010000
00000000
00000000
00000000
,
10000000
00000000
00000000
00000000
,
00010000
00100000
00001000
00010000
,
00000010
00001000
00000010
00001000
,
00000001
00000010
00000001
00000010
,
00000100
00001000
00000100
00001000
,
00000010
00010000
00001000
00100000
,
00010000
01000000
00010000
01000000
,
00100000
10000000
00100000
10000000
,
00010000
00100000
00010000
00100000
,
00001000
00010000
00000100
00001000
,
00000000
00000000
00000000
00000000
,
00000001
00000000
00000100
00000000
00000000
00000010
00000100
00000000
,
00000010
00000000
00001000
00000000
00000000
00000100
00010000
00000000
,
00001000
00000000
01000000
00000000
00000000
00010000
01000000
00000000
,
00100000
00000000
10000000
00000000
00000000
01000000
00100000
00000000
,
00010000
00000000
01000000
00000000
00000000
00001000
00010000
00000000
,
00000010
00000000
00001000
00000000
00000000
00000001
00001000
00000000
,
00000100
00000000
00010000
00000000
00000000
00001000
00100000
00000000
,
00010000
00000000
10000000
00000000
00000000
00100000
01000000
00000000
,
00200000
10300000
00010000
01000000
,
00002000
00013000
00000100
00001000
,
00000002
00000013
00000100
00001000
,
00000020
00010030
00001000
00010000
,
00002000
01003000
00010000
10000000
,
02000000
03010000
00001000
00010000
,
00002000
00003100
00000001
00001000
,
00001001
00000000
00000002
00000000
,
00001003
00000010
00010000
00000000
,
00001000
01000000
00010000
00000000
,
10000000
01000000
00100000
00000000
,
01000000
10000000
00010000
00000000
,
01000000
00001000
00010000
00000000
,
00001000
00000100
00000001
00001000
,
00000010
00001000
00000001
00001000
,
00000010
00010000
00001000
00100000
,
00010000
01000000
00001000
00000000
,
00010000
00000010
00001000
00000000
,
00000001
00000010
00000100
00000000
,
00000010
00000001
00001000
00000000
,
00000010
00010000
00001000
00000000
,
00010000
00100000
10000000
00010000
,
01000000
00001000
00010000
00001000
,
00011000
00010100
00001100
00001001
,
00000002
00000000
00000000
00000000
,
00000023
00000000
00000000
00000000
,
00002030
00000000
00023000
00000000
,
02030000
00000000
00000000
00000000
,
23000000
00000000
00000000
00000000
,
30200000
00000000
00000000
00000000
,
02300000
00000000
03020000
00000000
,
00230000
00000000
00302000
00000000
,
00023000
00031000
00010000
00000100
,
00002000
00003010
00001000
00000001
,
00000020
00001030
00020000
01030000
,
20000000
30010000
10000000
00010000
,
00110000
00100000
00100000
00100000
,
00011000
00001000
00001000
00001000
,
00010100
00000000
00010000
00000000
00000100
00001000
00000001
00000000
,
00001001
00000000
00000000
00000000
,
00000001
00000100
00000001
00000010
,
00000100
00001000
00000010
00010000
,
00001000
00001000
00100000
00010000
,
01000000
01000000
00100000
10000000
,
00010000
00100000
00010000
01000000
,
00001000
00001000
00010000
00000100
,
00001000
00001000
00000010
00000100
,
00000001
00001000
00000100
00010000
,
00011000
00001000
01000000
00010000
,
00110000
00100000
00101000
00001000
,
00011000
00010000
00010010
00000010
,
00001010
00001000
00000001
00000100
,
00000110
00000010
00001000
00000100
,
00010100
00010000
00011000
00001000
,
01001000
00000000
00000000
01100000
00000000
00000000
10010000
00000000
,
00000000
00000000
00000000
00000000
10000000
00010000
00100000
00000000
,
00011000
00000000
00000000
00000000
,
00000000
00000000
00000000
00000000
;
#NOTES:
     dance-double:
     :
     Medium:
     12:
     :
00000000
00000000
00000000
00000000
,
00000000
00000000
00000000
00000000
,
00000000
00000000
00000000
00000000
,
00000000
00000000
00000000
00000000
,
00000000
00000000
00000000
00000000
,
00000001
00000000
00001000
00000100
00000000
00000010
00000001
00000000
,
00001000
00000000
00000100
00010000
00000000
00001000
01000000
00000000
,
00010000
00000000
10000000
01000000
00000000
00100000
00010000
00000000
,
10000000
01000000
10000000
00000000
01000000
00100000
01000000
00000000
,
10000000
00000000
00010000
00200000
00000000
00301000
00010000
00001000
,
00010000
00000000
00000010
00002000
00000000
00003001
00000010
00000001
,
00000010
00000000
00000100
00002000
00000000
00003010
00010000
00000010
,
00010000
00001000
00100000
00000000
00010000
01000000
00100000
00000000
,
10000000
10000000
01000000
00100000
00000000
00010000
00100000
00001000
,
00010000
00010000
00000010
00001000
00000000
00000100
00000010
00000001
,
00001000
00001000
00000100
00010000
00000000
00001000
01000000
00010000
,
10000000
00100000
00010000
00000000
00001000
00000100
00000001
00000000
,
00000000
00000000
00000000
00000000
,
00001000
00000000
00000001
00000000
00000100
00000000
00000000
00000010
00000000
00000000
00001000
00000000
00000100
00000000
00000000
00000000
,
00010000
00000000
00001000
00000000
00010000
00001000
00000000
01000000
00000000
00000000
00010000
00000000
01000000
00000000
00000000
00000000
,
00100000
00000000
10000000
00000000
00010000
00000000
00000000
01000000
00000000
00000000
00001000
00000000
00010000
00000000
00000000
00000000
,
00000010
00000000
00001000
00000000
00000010
00001000
00000000
00000001
00000000
00000000
00000100
00000000
00000001
00000000
00000000
00000000
,
00001000
00000000
00000100
00000000
00010000
00000000
00000000
00001000
00000000
00000000
00100000
00000000
00010000
00000000
00000000
00000000
,
10000000
00000000
01000000
00000000
00100000
01000000
00000000
00100000
00000000
00000000
00010000
00000000
01000000
00000000
00000000
00000000
,
00001000
00000000
00010000
00000000
00000010
00000000
00000000
00001000
00000000
00000000
00000001
00000000
00000100
00000000
00000000
00000000
,
00000010
00000000
00001000
00000000
00000100
00000010
00000000
00000100
00000000
00000000
00000010
00000000
00000001
00000000
00000000
00000000
,
00000020
00000001
00000031
00000010
00001000
00010000
01000000
00000000
,
20000000
00010000
30010000
10000000
01000000
00010000
00001000
00000000
,
00020000
00000100
00030100
00010000
00001000
00000100
00000001
00000000
,
00000020
00000001
00000031
00000010
00001000
00010000
01000000
10000000
,
00200000
10000000
10300000
00100000
00010000
00001000
00000100
00000000
,
00000002
00001000
00001003
00000001
00000100
00001000
00010000
00000000
,
00002000
01000000
01003000
00001000
00010000
01000000
10000000
00000000
,
01100000
00000000
00000000
00000000
00022000
00000000
00000000
00033000
,
00010000
00000010
00001000
00000000
00000001
00001000
00000001
00000000
,
00001000
00000100
00010000
00000000
00001000
00010000
00001000
00000000
,
01000000
00010000
10000000
00000000
00010000
10000000
00010000
00000000
,
01000000
00001000
00010000
00000000
00000100
00001000
00000010
00001000
,
00000001
00000010
00000100
00000000
00001000
00000010
00010000
00000000
,
00001000
00001000
00100000
00100000
00010000
00010000
10000000
10000000
,
00010000
01000000
00001000
00000000
00010000
00000010
00001000
00000000
,
00000001
00000001
00000010
00000010
00000100
00000100
00001000
00001000
,
00000001
00000100
00001000
00000000
00010000
00100000
10000000
00000000
,
01000000
00100000
01000000
00000000
10000000
00010000
10000000
00000000
,
01000000
00010000
00001000
00000000
00000010
00000001
00001000
00000000
,
00000010
00000100
00000010
00000000
00001000
00000001
00001000
00000001
,
00000010
00001000
00010000
00000000
01000000
10000000
00010000
00000000
,
10000000
10000000
00100000
00100000
01000000
01000000
00010000
00010000
,
00100000
00001000
00010000
00000000
00000100
00001000
00000010
00000000
,
00010000
00010000
00000100
00000100
00001000
00001000
00000001
00000001
,
00002000
00000000
00000000
00000000
,
00003200
00000000
00000000
00000000
,
00020300
00000000
00032000
00000000
,
00203000
00000000
00000000
00000000
00000000
00310000
01000000
00100000
,
20000000
00000000
00000000
00000000
,
30020000
00000000
00000000
00000000
,
02030000
00000000
03002000
00000000
,
00023000
00030200
00002300
00003002
,
00001003
00000000
00001000
00000100
00001000
00000100
00010000
00000000
,
00001000
00001000
00100000
00010000
10000000
00010000
10000000
00000000
,
01000000
00000000
00100000
00010000
00100000
00001000
00010000
00000000
,
00000010
00000010
00001000
00000100
00001000
00000100
00000010
00000000
,
00000001
00000100
00000001
00000100
00000010
00001000
00000010
00000000
,
00010000
00001000
00010000
00001000
01000000
00010000
01000000
00000000
,
00010000
10000000
01000000
00100000
00010000
00100000
00001000
00010000
,
00001000
00000000
00000000
00000000
,
00010000
00000000
00000100
00001000
00000000
00000001
00000010
00000001
,
00001000
00000100
00001000
00000100
00010000
00001000
00010000
00001000
,
01000000
00000000
00010000
00100000
00000000
00100000
01000000
10000000
,
00010000
01000000
00010000
01000000
00001000
00010000
00001000
00000000
,
00010000
00000000
00000010
00001000
00000000
00000001
00000100
00000001
,
00001000
00000010
00001000
00000010
00010000
00001000
00010000
00001000
,
00100000
00000000
00010000
10000000
00000000
10000000
01000000
00010000
,
00001000
00010000
00001000
00000100
00000010
00000100
00000001
00000000
,
00001001
00000000
00000001
00000001
00000000
00000010
00001000
00010000
,
00001000
00000000
00010000
01000000
10000000
01000000
00010000
00000000
,
00001000
00000000
00010000
00001000
00000100
00000001
00000100
00000000
,
00000010
00000000
00001000
00000000
00000100
00010000
00001000
00100000
,
00010000
00000000
10000000
00100000
00000000
00100000
01000000
00000000
,
00010000
00000000
00100000
00001000
00010000
00000010
00001000
00000000
,
00000001
00000001
00000000
00001000
00001000
00000000
00000100
00000100
,
00000000
00000000
00000000
00000000
00010000
00001000
00000100
00000001
,
00001001
00000000
00000000
00000000
,
00000000
00000000
00000000
00000000
;
#NOTES:
     dance-double:
     :
     Hard:
     16:
     :
00000000
00000000
00000000
00000000
,
00000000
00000000
00000000
00000000
,
00000000
00000000
00000000
00000000
,
00000000
00000000
00000000
00000000
,
00000000
00000000
00000000
00000000
,
10000000
01000000
00100000
00010000
00000000
00100000
00001000
00010000
,
00001000
00000100
00000010
00000100
00000000
00000001
00001000
00000001
,
00000010
00000100
00001000
00000100
00000000
00010000
00001000
00000000
,
00010000
00100000
01000000
00100000
10000000
00010000
10000000
00010000
,
01000000
01000000
00001000
00020000
00000000
00030100
00001000
00000001
,
00000010
00000010
00000100
00002000
00000000
00003010
00010000
00001000
,
00100000
00100000
00010000
20000000
00000000
30010000
01000000
00001000
,
00010000
00000010
00010000
00001000
00100000
00010000
01000000
00010000
,
10000000
01000000
10000000
00000000
00010000
00000000
10000000
00000000
00100000
00000000
00010000
00000000
00001000
00000000
00000100
00000000
,
00000001
00000100
00000001
00000000
00001000
00000000
00000001
00000000
00000010
00000000
00001000
00000000
00010000
00000000
01000000
00000000
,
10000000
00100000
10000000
00000000
00010000
00000000
10000000
00000000
01000000
00000000
00010000
00000000
00001000
00000000
00000100
00000000
,
00000001
00000100
00000001
00000100
00000001
00000000
00001000
00000000
00000100
00010000
00000100
00010000
00000100
00000000
00010000
00001000
,
00000000
00000000
00000000
00000000
,
00010000
00000000
00001000
00000000
00100000
00000000
00010000
00100000
00010000
00000000
10000000
00000000
01000000
00000000
00100000
00000000
,
00010000
00000000
10000000
00000000
00100000
00010000
00000000
00001000
00010000
00000000
01000000
00000000
00100000
00000000
00010000
00000000
,
10000000
00000000
00010000
00000000
01000000
00000000
00001000
00010000
00001000
00000000
00010000
00000000
00000010
00000000
00001000
00000000
,
00000001
00000000
00000010
00000000
00001000
00010000
00000000
00001000
00000100
00000000
00000010
00000000
00001000
00000000
00000001
00000000
,
00000010
00000000
00000100
00000000
00001000
00000000
00000100
00010000
00001000
00000000
00100000
00000000
00010000
00000000
01000000
00000000
,
00100000
00000000
10000000
00000000
01000000
00010000
00000000
00001000
00010000
00000000
00100000
00000000
01000000
00000000
00010000
00000000
,
10000000
00000000
00100000
00000000
01000000
00000000
00010000
00100000
00001000
00000000
00010000
00000000
00000100
00000000
00001000
00000000
,
00000010
00000000
00000100
00000000
00000001
00000010
00000000
00001000
00010000
00000000
00001000
00000000
00000100
00000000
00000010
00000000
,
00002000
00000000
00003001
00000000
00001000
00000000
00000010
00010000
00000010
00000000
00010000
00000000
00001000
00000000
00010000
00000000
,
02000000
00000000
03010000
00000000
01000000
10000000
00000000
01000000
00010000
00000000
00001000
00000000
00010000
00000000
01000000
00000000
,
00200000
00000000
00310000
00000000
00100000
00000000
00001000
00010000
00001000
00000000
00010000
00000000
00001000
00000000
00000010
00000000
,
00000002
00000000
00001003
00000000
00000010
00000001
00000000
00000010
00001000
00000000
00000001
00000000
00000010
00000000
00000100
00000000
,
00002000
00000000
00003001
00000000
00001000
00000000
00000100
00010000
00000100
00000000
00010000
00000000
00001000
00000000
00010000
00000000
,
00200000
00000000
00310000
00000000
00100000
10000000
00000000
00100000
00010000
00000000
00001000
00000000
00010000
00000000
00100000
00000000
,
20000000
00000000
30010000
00000000
10000000
00000000
01000000
00100000
01000000
00000000
00100000
00000000
00001000
00000000
00010000
00000000
,
00011000
00000000
00000000
00000000
00000000
00000000
00000000
00000000
00010000
00000100
00010000
00000100
00010000
00000100
00010000
00000000
,
00000100
00001000
00000100
00001000
00000100
00000000
00001000
00000000
00000001
00000000
00000010
00000000
00000100
00000000
00000000
00000000
,
00010000
00001000
00010000
00001000
00010000
00000000
00001000
00000000
01000000
00000000
00010000
00000000
10000000
00000000
00000000
00000000
,
00010000
01000000
00010000
01000000
00010000
00000000
01000000
00000000
00001000
00000000
00010000
00000000
00000010
00000000
00000000
00000000
,
00001000
00000001
00001000
00000001
00001000
00000000
00000001
00000000
00000010
00000000
00001000
00000000
00010000
00000000
01000000
00000000
,
10000000
00010000
10000000
00010000
10000000
00000000
00100000
00000000
01000000
00000000
00010000
00000000
01000000
00000000
00001000
00000000
,
00010000
00000100
00010000
00000000
00000100
00001000
00000100
00000000
00001000
00000001
00001000
00000000
00000001
00000100
00000001
00000000
,
00000100
00000010
00000100
00000010
00000100
00000000
00000010
00000000
00001000
00000000
00000100
00000000
00010000
00000000
00001000
00000000
,
01000000
00010000
01000000
00000000
00100000
10000000
00100000
00000000
10000000
01000000
10000000
00000000
01000000
00100000
01000000
00000000
,
00100000
00010000
00100000
00010000
00100000
00000000
00010000
00000000
10000000
00000000
01000000
00000000
00100000
00000000
00000000
00000000
,
00001000
00010000
00001000
00010000
00001000
00000000
00010000
00000000
00000010
00000000
00001000
00000000
00000001
00000000
00000000
00000000
,
00001000
00000010
00001000
00000010
00001000
00000000
00000010
00000000
00010000
00000000
00001000
00000000
01000000
00000000
00000000
00000000
,
00010000
10000000
00010000
10000000
00010000
00000000
10000000
00000000
01000000
00000000
00010000
00000000
00001000
00000000
00000010
00000000
,
00000001
00001000
00000001
00001000
00000001
00000000
00000100
00000000
00000010
00000000
00001000
00000000
00000100
00000000
00010000
00000000
,
00001000
00100000
00001000
00000000
01000000
00010000
01000000
00000000
00010000
10000000
00010000
00000000
00100000
01000000
00100000
00000000
,
01000000
10000000
01000000
10000000
01000000
00000000
00010000
00000000
00001000
00010000
00001000
00010000
00001000
00000000
00000010
00000000
,
00000001
00000100
00000001
00000000
00001000
00000010
00001000
00000000
00000010
00010000
00001000
00000000
00010000
00001000
01000000
00000000
,
00020000
00000000
00100000
00100000
00000000
00000000
00030000
00000000
,
20000000
00000000
01000000
01000000
00000000
00000000
30000000
00000000
,
00020000
00000000
00130000
00100000
00002000
00000000
00003000
00000000
,
00020000
00000000
00000100
00000100
00030000
00010000
00001000
00000100
,
00000002
00000000
00000010
00000010
00000000
00000000
00000003
00000000
,
00002000
00000000
00000100
00000100
00000000
00000000
00003000
00000000
,
00000002
00000000
00000103
00000100
00002000
00000000
00003000
00000000
,
00020000
00230000
20300000
30020000
,
10030000
00000000
00000000
00000000
01000000
00000000
00100000
00000000
01000000
00000000
00100000
00000000
00010000
00100000
00001000
00000000
,
00010000
00000000
00000010
00000000
00001000
00000000
00000010
00000000
00001000
00000000
00000001
00000000
00000010
00000100
00001000
00000000
,
00000001
00000000
00000000
00000000
00000100
00000000
00000010
00000000
00000100
00000000
00000010
00000000
00001000
00000010
00010000
00000000
,
00001000
00000000
00100000
00000000
00010000
00000000
00100000
00000000
00010000
00000000
10000000
00000000
01000000
00100000
00010000
00000000
,
10000000
00100000
10000000
00100000
10000000
01000000
00010000
00001000
,
00010000
00001000
00010000
00001000
00000010
00000001
00001000
00000001
,
00001000
00000100
00010000
00000000
00001000
00000000
00010000
00000000
00001000
00100000
00010000
00000000
10000000
00010000
10000000
00010000
,
10000000
00000000
00000000
00000000
,
00010000
00000000
01000000
01000000
00000000
00001000
00010000
00001000
,
00010000
00000100
00010000
00000100
00010000
00000000
00000100
00000000
00001000
00000001
00001000
00000001
00001000
00000000
00000001
00000000
,
00000100
00000010
00000100
00000010
00000100
00000000
00000010
00001000
00000010
00001000
00000010
00000000
00010000
00001000
00010000
00000000
,
00001000
01000000
00010000
10000000
00100000
00010000
00001000
00000100
,
00000001
00000000
00001000
00001000
00000000
00000010
00001000
00000100
,
00010000
00001000
00010000
00001000
00010000
00000000
00001000
00000000
01000000
00010000
01000000
00010000
01000000
00000000
00100000
00000000
,
10000000
00010000
10000000
00010000
10000000
00000000
01000000
00100000
01000000
00100000
01000000
00000000
10000000
00000000
00010000
00000000
,
10000000
01000000
00010000
00001000
00010000
00001000
00000100
00000001
,
00000010
00000000
00000001
00000001
00000000
00001000
00000100
00010000
,
00001000
00000000
01000000
00010000
01000000
00000000
00100000
00000000
10000000
00000000
00010000
00000000
01000000
00001000
00010000
00000000
,
00000010
00000010
00000010
00001000
00001000
00001000
00000001
00000001
,
00000100
00000000
00000010
00001000
00000010
00000000
00010000
00000000
00001000
00000000
01000000
00000000
00010000
00100000
01000000
00000000
,
10000000
00000000
00100000
00000000
01000000
00000000
00010000
00000000
00100000
00000000
00001000
00010000
00001000
00000000
00010000
00000000
,
00000100
00000000
00001000
00000010
00001000
00000000
00000001
00000000
00000010
00000000
00000100
00001000
00000100
00000000
00010000
00000000
,
00001000
00011000
00000000
01000000
01100000
00000000
00010000
10010000
,
00000000
00000000
00000000
00000000
00000000
00000000
00000000
00000000
10000000
01000000
10000000
01000000
10000000
01000000
00010000
00001000
,
00010000
00000000
00000000
00000000
,
00000000
00000000
00000000
00000000
;
