
//----- song ID: hito -----//
#TITLE:人マニア;
#ARTIST:原口沙輔;
#TITLETRANSLIT:Hito mania;
#ARTISTTRANSLIT:Sasuke Haraguchi;
#BANNER:Hito mania.png;
#BACKGROUND:Hito mania-bg.png;
#CDTITLE:./CDTitles/DDR WORLD.png;
#MUSIC:Hito mania.ogg;
#SAMPLESTART:46.337;
#SAMPLELENGTH:15;
#BPMS:0=150;
#NOTES:
     dance-single:
     :
     Beginner:
     2:
     :
0000
0000
0000
0000
,
0000
0000
0000
0000
,
0000
0000
0000
0000
,
0000
0000
0000
0000
,
0000
0000
0000
0000
,
0001
0000
0000
0000
,
1000
0000
0000
0000
,
0001
0000
0000
0000
,
0010
0000
0010
0000
,
0010
0000
0000
0000
,
0001
0000
0000
0000
,
1000
0000
0000
0000
,
0010
0000
0010
0000
,
0010
0000
0000
0000
,
1000
0000
0000
0000
,
0001
0000
0000
0000
,
0100
0000
0000
0000
,
0001
0000
0001
0000
,
0001
0000
0000
0000
,
1000
0000
0000
0000
,
0010
0000
0010
0000
,
1000
0000
0000
0000
,
0001
0000
0000
0000
,
1000
0000
1000
0000
,
0001
0000
0000
0000
,
0010
0000
0000
0000
,
0100
0000
0000
0000
,
0020
0000
0000
0000
,
0030
0000
0000
0000
,
1001
0000
0000
0000
,
1000
0000
1000
0000
,
0001
0000
0000
0000
,
0010
0000
0010
0000
,
0000
0000
0001
0000
,
0001
0000
0000
0000
,
0100
0000
0100
0000
,
0100
0000
0000
0000
,
0001
0000
0001
0000
,
1000
0000
1000
0000
,
0001
0000
0001
0000
,
0000
0000
0000
1001
,
0000
0000
0000
0000
,
1000
0000
0000
0000
,
0010
0000
0000
0000
,
0100
0000
0000
0000
,
0000
0000
0001
0000
,
0001
0000
0001
0000
,
0000
0000
1000
0000
,
1000
0000
0000
0000
,
0002
0000
0000
0000
,
0003
0000
0000
0000
,
2000
0000
0000
0000
,
3000
0000
0000
0000
,
0100
0000
0000
0000
,
0010
0000
0000
0000
,
0200
0000
0000
0000
,
0300
0000
0000
0000
,
1000
0000
0000
0000
,
0001
0000
0001
0000
,
1000
0000
0000
0000
,
0010
0000
0010
0000
,
0000
0000
1000
0000
,
1000
0000
0000
0000
,
0100
0000
0100
0000
,
0100
0000
0000
0000
,
1000
0000
0000
0000
,
0001
0000
0001
0000
,
0001
0000
0000
0000
,
0010
0000
0010
0000
,
0000
0000
0001
0000
,
0001
0000
0000
0000
,
0100
0000
0100
0000
,
0100
0000
0000
0000
,
0002
0000
0000
0000
,
0000
0000
0003
0000
,
2000
0000
0000
0000
,
0000
0000
3000
0000
,
0002
0000
0000
0000
,
0000
0000
0000
0000
0000
0000
0000
0003
,
0000
0000
0000
0000
;
#NOTES:
     dance-single:
     :
     Easy:
     6:
     :
0000
0000
0000
0000
,
0000
0000
0000
0000
,
0000
0000
0000
0000
,
0000
0000
0000
0000
,
0000
0000
0000
0000
,
1001
0000
1000
0000
,
0001
0010
0001
0010
,
0001
0000
1000
0000
,
1000
0100
1000
0000
,
1001
0000
0001
0000
,
1000
0010
1000
0010
,
1000
0000
0001
0000
,
0001
0100
0001
0000
,
2000
3000
0020
0030
,
0200
0300
0002
0003
,
2000
3000
0200
0300
,
0020
0030
0002
0003
,
0001
0001
0020
0030
,
0200
0300
2000
3000
,
0001
0000
0200
0300
,
0010
0010
0010
0000
,
2000
0000
3001
1000
,
0002
0000
1003
0001
,
0200
0300
0200
0300
,
0001
1000
0001
0000
,
1000
1000
2000
3000
,
0100
0100
0200
0300
,
0020
0000
0000
0000
,
0031
0010
0010
0000
,
1001
0000
1000
0000
,
0010
1000
0001
0000
,
1000
0100
1000
0000
,
1001
0000
1001
1001
,
0000
0001
0010
0001
,
1000
0010
1000
0000
,
0001
0010
0100
2000
,
3000
0001
0001
0010
,
0002
0003
0200
0300
,
0020
0030
2000
3010
,
2000
3000
0002
0003
,
0010
0010
0000
1001
,
0000
1000
0001
0000
,
0010
0000
0100
0000
,
1000
0000
0010
0000
,
0100
0100
0100
0000
,
0000
0000
0001
0000
,
1000
1000
0100
0000
,
0000
0000
0010
0000
,
0001
0001
0100
0200
,
0300
0000
0001
0001
,
0001
0000
1000
1000
,
1000
0000
0010
0010
,
0010
0000
0100
0000
,
0001
0001
0002
0003
,
0010
0010
0020
0030
,
0200
0000
0000
0000
,
1300
0100
0100
0000
,
2000
0000
3002
0000
,
0013
0010
0100
1000
,
0001
0100
0001
0000
,
1001
0000
1001
1001
,
0000
1000
0010
1000
,
0001
0010
0001
0000
,
1000
0010
0100
0002
,
0003
1000
1000
0010
,
2000
3000
0002
0003
,
0010
0010
0001
1000
,
0001
0100
0001
0000
,
0110
0000
0110
0110
,
0000
1000
0010
1000
,
0001
0010
0001
0000
,
1000
0010
0100
0002
,
0003
1000
0001
0000
,
2001
0000
0000
0000
,
0000
0000
0000
3000
,
0002
0000
1000
1000
,
0000
0000
0010
0000
,
2003
0001
0001
0001
,
0000
0000
0000
0000
0000
0000
0000
3000
,
0000
0000
0000
0000
;
#NOTES:
     dance-single:
     :
     Medium:
     10:
     :
0000
0000
0000
0000
,
0000
0000
0000
0000
,
0000
0000
0000
0000
,
0000
0000
0000
0000
,
0000
0000
0000
MMMM
,
1001
0000
MMMM
0001
1000
0000
MMMM
1000
,
0010
0000
MMMM
0010
0100
0000
MMMM
0100
,
0001
0000
MMMM
0001
0010
0000
MMMM
0010
,
0100
0000
MMMM
0100
0010
0000
0002
0000
,
1003
0000
MMMM
1000
0001
0000
MMMM
0001
,
0010
0000
MMMM
0010
0100
0000
MMMM
0100
,
1000
0000
MMMM
1000
0010
0000
MMMM
0010
,
0100
MMMM
0100
MMMM
0100
0001
0020
0000
,
0031
0000
1000
0000
0100
1000
0100
0000
,
1000
0000
0001
0000
0100
0001
0100
0000
,
0010
0000
0100
0000
0001
1000
0001
0000
,
0010
0000
0000
0000
0100
0000
0000
0000
1000
0000
0000
0000
MMMM
MMMM
MMMM
0000
,
1000
MMMM
1000
MMMM
1000
0010
1000
0000
,
0001
0000
1000
0000
0001
0010
0001
0000
,
1000
MMMM
1000
0000
0010
0100
0010
0000
,
2000
3000
0200
0300
0010
0000
0001
0000
,
2000
0000
0000
0000
0000
0000
0000
0000
3001
0000
0000
0000
MMMM
MMMM
MMMM
0000
,
0002
0000
0000
0000
0000
0000
0000
0000
1003
0000
MMMM
0000
MMMM
MMMM
MMMM
0000
,
1000
0000
0000
0010
0000
0000
1000
0000
0001
0000
0000
0010
0000
0000
0001
0000
,
1000
0000
0010
0200
0020
0000
0330
0000
,
1000
0000
0100
0000
1000
0000
0100
0000
1000
0000
0000
1000
0000
0000
0000
0000
,
0001
0100
0001
0100
0001
0100
0001
0000
,
2000
0000
0100
3000
0002
0000
0010
0003
,
1000
0000
0010
0000
0010
0000
0010
MMMM
,
1001
0000
0001
0010
0001
0000
2000
0000
,
3100
0000
1000
0010
1000
0000
0002
0000
,
0203
0300
0010
0100
0010
0000
1000
0000
,
0001
MMMM
1001
0000
1001
MMMM
1001
MMMM
,
MMMM
MMMM
MMMM
0000
1000
0000
0100
0000
1000
0000
0000
0000
0001
0000
0000
0000
,
0010
0000
0100
0010
0100
0000
1000
0000
,
0001
0100
0001
0100
0001
0000
0010
0100
,
0000
1000
0020
0000
0130
0000
0001
0000
,
MMMM
0001
0010
0000
MMMM
1000
0010
0000
,
MMMM
0001
0010
0000
MMMM
1000
0020
0000
,
1030
0000
0001
1000
0000
1000
0002
0000
,
0013
0000
0000
0000
0100
0000
0000
0000
1000
0000
0000
0000
MMMM
MMMM
MMMM
MMMM
,
MMMM
0000
1000
0000
0010
1000
0010
0000
,
MMMM
0000
0001
0000
0010
0001
0010
0000
,
MMMM
0000
0010
0000
0001
1000
0001
0000
,
0010
0100
1000
0000
,
MMMM
0000
MMMM
0000
0001
0100
0001
0000
,
1000
0000
0001
0000
1000
0100
1000
0000
,
MMMM
0000
MMMM
0000
0001
1000
0001
0000
,
0010
0000
0000
0000
0100
0000
0010
0000
0100
0000
0000
0000
MMMM
MMMM
MMMM
0000
,
0002
0103
2000
3010
,
0002
0103
2000
3010
,
0002
0103
2000
3010
,
0002
0103
0002
0103
,
1000
0000
0010
0000
1000
0000
0010
0000
1000
0000
0000
1000
0000
0000
0000
0000
,
0001
0010
0001
0010
0001
0010
0001
0000
,
2000
0000
0010
3000
0002
0000
0100
0003
,
1000
0100
0100
0100
,
1000
0000
0001
0010
0001
0000
2000
0000
,
3200
0300
0000
0000
0020
0030
0000
0000
0200
0300
0000
0000
0020
0030
0000
0000
MMMM
0000
0000
0000
MMMM
0000
0000
0000
0002
0000
0000
0000
0003
0000
0000
0000
,
0011
0000
0010
0100
0010
0000
0001
0000
,
1000
MMMM
1001
0000
1001
MMMM
1001
MMMM
,
MMMM
MMMM
MMMM
0000
0001
0000
0100
0000
0001
0000
0000
0000
1000
0000
0000
0000
,
0010
0000
0100
0010
0100
0000
0001
0000
,
1000
0100
1000
0100
1000
0000
0010
0100
,
0000
0001
0020
0000
0130
0000
1000
0000
,
1001
2000
3020
0130
,
0010
0010
1000
0000
0001
1000
0001
1000
,
0010
0000
0010
0100
0010
0000
1000
0000
,
0010
0010
0010
0000
0020
0030
0020
0030
,
MMMM
0000
0020
0030
1000
0002
0003
0010
,
0200
0300
1000
0020
0230
0301
1000
0000
,
0001
0100
0001
0100
0001
0000
0010
0100
,
0000
1000
0020
0000
0130
0000
0001
0000
,
2002
0000
0000
0000
,
0003
0000
0000
3000
,
1002
0000
0010
0010
,
0000
0100
0100
0000
,
2003
0000
0001
0000
0001
0000
0000
0010
,
0000
0000
0000
0000
0000
0000
0000
3100
,
0000
0000
0000
0000
;
#NOTES:
     dance-single:
     :
     Hard:
     14:
     :
0000
0000
0000
0000
,
0000
0000
0000
0000
,
0000
0000
0000
0000
,
0000
0000
0000
0000
,
0000
0000
0000
MMMM
,
1001
1000
MMMM
0010
0001
1000
MMMM
1000
,
0100
0010
MMMM
0010
0100
0010
MMMM
2000
,
3001
0001
MMMM
0010
1000
0001
MMMM
0100
,
1000
0010
MMMM
1000
0100
0010
2000
3000
,
1001
0001
MMMM
0010
1000
0001
MMMM
0001
,
0100
0010
MMMM
0010
0100
0010
MMMM
0002
,
1003
1000
MMMM
0010
0001
1000
MMMM
0100
,
MMMM
1000
MMMM
0010
0001
0100
0020
0000
,
1030
0000
0000
0000
0000
0000
0000
0000
0001
0000
0000
0000
0000
0000
0000
0100
0001
0000
0000
0000
0100
0000
0000
0000
0100
0000
0000
0000
0000
0000
0000
0000
,
0001
0010
0010
0100
0100
1000
1000
0000
,
0002
0003
2000
3000
0100
0010
0010
0000
,
0001
0000
0100
0000
0010
0000
1000
0000
0200
0000
0300
0000
MMMM
MMMM
MMMM
0000
,
0220
0330
0220
0330
1000
0100
0100
0000
,
1000
0010
0010
0100
0100
0001
0001
0000
,
0220
0000
0330
1000
0001
0000
0000
0000
0010
0000
0100
0000
0100
0000
0000
0000
,
2000
3001
0200
0310
0120
0030
1002
0003
,
2000
0000
0000
3100
0000
0000
0010
0000
0002
0000
0003
0000
MMMM
MMMM
MMMM
0000
,
0002
0000
0000
0003
0000
0001
0100
0000
0000
0000
0000
0000
0010
0000
0000
0000
2000
0000
0000
0000
3002
0003
0000
0000
2000
3000
0000
0000
0000
0000
0000
0000
,
1010
0000
0000
0002
0000
0000
0013
0000
0011
0000
0000
2000
0000
0000
3010
0000
,
1000
0000
0100
0000
0001
0000
0100
0000
1000
0000
0001
1000
0001
0000
0000
0000
,
0100
0000
0001
0000
0010
0000
0100
0000
0010
0000
0001
2000
0000
3000
0000
0000
,
0100
1000
0010
0001
0010
1000
0002
0003
,
2000
3200
0302
0023
,
1030
0000
0010
MMMM
0010
MMMM
0010
MMMM
,
1001
0001
0010
0100
2000
3000
0010
1000
,
MMMM
MMMM
0001
0010
0200
0300
2000
3000
,
0020
0130
0010
0100
MMMM
MMMM
0001
1000
,
1100
MMMM
0022
0033
1010
MMMM
0011
MMMM
,
MMMM
MMMM
MMMM
MMMM
0001
0000
0100
0000
0010
0000
0100
0000
1000
0000
0100
0000
,
MMMM
MMMM
0001
0010
0100
1000
0020
0030
,
1000
0000
0000
0000
0100
0000
0000
0000
0010
0000
0000
0000
0001
0000
0000
0000
MMMM
0000
0000
0000
0000
0000
0000
0010
1000
0000
0000
0000
0002
0000
0000
0000
,
0003
0000
0000
0000
0010
0000
0000
0000
0200
0000
0000
0000
0000
0000
0000
0000
1300
0000
0000
0000
0000
0000
0000
0010
2000
0000
0000
0000
3000
0000
0000
0000
,
MMMM
0100
0001
0010
MMMM
1000
0010
0100
,
MMMM
0001
0010
0100
MMMM
1000
0002
0003
,
1000
0001
0000
0000
0010
0000
0001
1000
0000
0000
0001
0000
0200
0000
0300
0000
,
0011
0000
0000
0000
0110
0000
0000
0000
1100
0000
0000
0000
MMMM
MMMM
MMMM
MMMM
,
MMMM
0000
1000
0000
MMMM
0100
0100
0000
,
MMMM
0010
0010
0100
MMMM
0001
0001
0000
,
MMMM
0000
0002
0003
MMMM
0010
0010
0000
,
1000
0000
0100
0000
0010
0000
0001
0000
2000
0000
3001
1000
0020
0000
0030
0000
,
MMMM
0000
0020
0000
0100
1000
1030
0000
,
0001
0010
0010
0100
0100
1000
1000
0000
,
MMMM
0000
0220
0330
1000
0010
0010
0000
,
0100
0000
0010
0000
1000
0000
0001
0000
0010
0000
0000
0000
MMMM
MMMM
MMMM
MMMM
,
0002
0203
2300
3020
,
0032
0203
2300
3020
,
0032
0203
2300
3020
,
0032
0203
0302
0203
,
0301
0000
1000
0000
0010
0000
0100
0000
0010
0000
1000
0002
0000
0003
0000
0000
,
0100
0001
0010
1000
0010
0001
2000
3000
,
0020
0230
0302
2003
3200
0302
2003
3020
,
0031
0100
0100
0100
,
0001
0001
0010
0100
2000
3000
0001
1000
,
0200
0300
0000
0000
0020
0030
0000
0000
0020
0030
0000
0000
0020
0030
0000
0000
MMMM
0000
0000
0000
MMMM
0000
0000
0000
0002
0000
0000
0000
0003
0000
0000
0000
,
0101
0100
0010
0100
MMMM
MMMM
1000
0001
,
0101
MMMM
2020
3030
0011
MMMM
1010
MMMM
,
MMMM
MMMM
MMMM
MMMM
1000
0000
0100
0000
0010
0000
0100
0000
0001
0000
0100
0000
,
MMMM
MMMM
1000
0010
0100
0001
0020
0030
,
0001
0000
0000
0000
0100
0000
0000
0000
0010
0000
0000
0000
1000
0000
0000
0000
MMMM
0000
0000
0000
0000
0000
0000
0010
0001
0000
0000
0000
0200
0000
0000
0000
,
0300
0000
0000
0000
0010
0000
0000
0000
2000
0000
0000
0000
0000
0000
0000
0000
3100
0000
0000
0000
0000
0000
0000
0010
0002
0000
0000
0000
0003
0000
0000
0000
,
1001
0000
0000
0000
0000
0000
0000
0000
2000
0000
0000
0000
3000
0000
0000
0010
0200
0000
0000
0000
0300
0000
0000
0000
0001
0000
0000
0000
0000
0000
0000
0000
,
0020
0100
0032
0100
2003
3010
2000
3010
,
0200
0310
0100
0001
0020
0230
2300
3002
,
0203
0010
0310
MMMM
0002
0013
0002
0013
,
MMMM
0000
1000
0100
0100
0010
0020
0031
,
0001
0100
0010
0100
1000
0200
0302
0003
,
1000
0100
0010
0001
MMMM
0000
0001
0200
,
0300
0000
0000
0000
0010
0000
0000
0000
2000
0000
0000
0000
0000
0000
0000
0000
3100
0000
0000
0000
0000
0000
0000
0010
0002
0000
0000
0000
0003
0000
0000
0000
,
2002
0000
0000
0000
,
0003
0000
0000
3000
,
0012
0000
1000
0203
,
0000
0000
0000
0000
0010
0000
0000
0000
1000
0000
0000
0010
0000
0000
0000
0000
,
0001
0001
0010
0000
1000
0000
0010
0010
,
0000
0000
0001
0000
0000
0000
0000
0310
,
0000
0000
0000
0000
;
#NOTES:
     dance-double:
     :
     Easy:
     6:
     :
00000000
00000000
00000000
00000000
,
00000000
00000000
00000000
00000000
,
00000000
00000000
00000000
00000000
,
00000000
00000000
00000000
00000000
,
00000000
00000000
00000000
00000000
,
00011000
00000000
00010000
00000000
,
00000010
00001000
00000010
00000000
,
00000100
00000000
00000001
00000000
,
00001000
00000100
00010000
00000000
,
00011000
00000000
00001000
00000000
,
00100000
00010000
00100000
00000000
,
01000000
00000000
10000000
00000000
,
00010000
00010000
01000000
00000000
,
00002000
00003000
00020000
00030000
,
00000200
00000300
00002000
00003000
,
00000002
00000003
00000200
00000300
,
00000020
00000030
00002000
00003000
,
00000100
00000100
00020000
00030000
,
00002000
00003000
02000000
03000000
,
00010000
00000000
00200000
00300000
,
01000000
01000000
01000000
00000000
,
20000000
00000000
30010000
00000000
,
00020000
00000000
00130000
00001000
,
00020000
00030000
00002000
00003000
,
00010000
00000010
00001000
00000000
,
00000001
00000001
00000002
00000003
,
00001000
00001000
00002000
00003000
,
00000020
00000000
00000000
00000000
,
00010030
00000010
00000010
00000000
,
00011000
00000000
00001000
00000000
,
00100000
00010000
10000000
00000000
,
00010000
01000000
00001000
00000000
,
00011000
00000000
00011000
00011000
,
00000000
00010000
00000010
00001000
,
00000001
00000010
00000001
00000000
,
00001000
00000100
00010000
00002000
,
00003000
00010000
00010000
00000010
,
00020000
00030000
00002000
00003000
,
02000000
03000000
00020000
00130000
,
00020000
00030000
20000000
30000000
,
00100000
00100000
00000000
10010000
,
00000000
10000000
00010000
00000000
,
00100000
00000000
00001000
00000000
,
00010000
00000000
00000010
00000000
,
00000100
00000100
00000100
00000000
,
00000000
00000000
00000001
00000000
,
00000100
00001000
00010000
00000000
,
00000000
00000000
00001000
00000000
,
00010000
00100000
10000000
20000000
,
30000000
00000000
01000000
01000000
,
01000000
00000000
00010000
00010000
,
00010000
00000000
00001000
00001000
,
00001000
00000000
00000010
00000000
,
00000001
00000001
00000002
00000003
,
00001000
00001000
00002000
00003000
,
00000200
00000000
00000000
00000000
,
00010300
00000100
00000100
00000000
,
00020000
00000000
00032000
00000000
,
00103000
00100000
00010000
10000000
,
00010000
01000000
00001000
00000000
,
00011000
00000000
00011000
00011000
,
00000000
00010000
00000010
00001000
,
00000001
00000010
00000001
00000000
,
00001000
00000100
00010000
00002000
,
00003000
00010000
00010000
00000010
,
00020000
00030000
00002000
00003000
,
00100000
00100000
00010000
10000000
,
01000000
00100000
00010000
00000000
,
00101000
00000000
00101000
00101000
,
00000000
00001000
00010000
00000100
,
00001000
00000010
00000100
00000000
,
00000001
00000010
00000100
00002000
,
00003000
00000010
00010000
00000000
,
00021000
00000000
00000000
00000000
,
00000000
00000000
00000000
00030000
,
00002000
00000000
00010000
00010000
,
00000000
00000000
00100000
00000000
,
02003000
00000000
00100000
00100000
,
00000000
00000000
00000000
00000000
00000000
00000000
00000000
03000000
,
00000000
00000000
00000000
00000000
;
#NOTES:
     dance-double:
     :
     Medium:
     10:
     :
00000000
00000000
00000000
00000000
,
00000000
00000000
00000000
00000000
,
00000000
00000000
00000000
00000000
,
00000000
00000000
00000000
00000000
,
00000000
00000000
00000000
MMMMMMMM
,
00011000
00000000
MMMMMMMM
00010000
00000010
00000000
MMMMMMMM
00000010
,
00000100
00000000
MMMMMMMM
00000100
00000001
00000000
MMMMMMMM
00000001
,
00001000
00000000
MMMMMMMM
00001000
00000100
00000000
MMMMMMMM
00000100
,
00010000
00000000
MMMMMMMM
00010000
00001000
00000000
00020000
00000000
,
00031000
00000000
MMMMMMMM
00001000
00100000
00000000
MMMMMMMM
00100000
,
01000000
00000000
MMMMMMMM
01000000
10000000
00000000
MMMMMMMM
10000000
,
00010000
00000000
MMMMMMMM
00010000
01000000
00000000
MMMMMMMM
01000000
,
00001000
MMMMMMMM
00001000
MMMMMMMM
00001000
00100000
00002000
00000000
,
00013000
00000000
00000010
00000000
00001000
00000010
00001000
00000000
,
00000001
00000000
00000010
00000000
00000100
00001000
00000100
00000000
,
00010000
00000000
00001000
00000000
01000000
00010000
01000000
00000000
,
00100000
00000000
00000000
00000000
00100000
00000000
00000000
00000000
10000000
00000000
00000000
00000000
MMMMMMMM
MMMMMMMM
MMMMMMMM
00000000
,
10000000
MMMMMMMM
10000000
MMMMMMMM
10000000
00010000
00100000
00000000
,
00001000
00000000
00010000
00000000
00000010
00001000
00000001
00000000
,
00000001
MMMMMMMM
00000001
00000000
00000010
00000100
00000010
00000000
,
00000002
00000003
00000200
00000300
00001000
00000000
00010000
00000000
,
00002000
00000000
00000000
00000000
00000000
00000000
00000000
00000000
00013000
00000000
00000000
00000000
MMMMMMMM
MMMMMMMM
MMMMMMMM
00000000
,
00020000
00000000
00000000
00000000
00000000
00000000
00000000
00000000
00031000
00000000
MMMMMMMM
00000000
MMMMMMMM
MMMMMMMM
MMMMMMMM
00000000
,
00001000
00000000
00000000
00100000
00000000
00000000
00010000
00000000
10000000
00000000
00000000
00100000
00000000
00000000
10000000
00000000
,
01000000
00010000
00002000
00003000
,
00010000
00000000
00000100
00000000
00010000
00000000
00000100
00000000
00010000
00000000
00000000
00010000
00000000
00000000
00000000
00000000
,
00001000
01000000
00001000
01000000
00001000
00010000
00000010
00000000
,
00002000
00000000
00000100
00003000
00000002
00000000
00000010
00000003
,
00001000
00000000
00000010
00000000
00000010
00000000
00000010
MMMMMMMM
,
00001001
00000000
00000001
00000100
00000001
00000000
00002000
00000000
,
00003100
00000000
00010000
00001000
00010000
00000000
00002000
00000000
,
02003000
03000000
00010000
01000000
00001000
00000000
00010000
00000000
,
00001000
MMMMMMMM
00011000
00000000
00011000
MMMMMMMM
00011000
MMMMMMMM
,
MMMMMMMM
MMMMMMMM
MMMMMMMM
00000000
00010000
00000000
00001000
00000000
00010000
00000000
00000000
00000000
00000010
00000000
00000000
00000000
,
00001000
00000000
00000001
00000010
00000100
00000000
00001000
00000000
,
00001000
00000010
00010000
00001000
01000000
00000000
00010000
10000000
,
00000000
01000000
00200000
00000000
01300000
00000000
10000000
00000000
,
MMMMMMMM
10000000
00010000
00000000
MMMMMMMM
00001000
00010000
00000000
,
MMMMMMMM
00000000
00000000
00000000
00000000
00000000
00000000
00000000
00000000
00000000
00000000
00000000
00000000
00000000
00000000
00000000
00000000
00000000
00000000
00000000
00000000
00000000
00000000
00000000
00001000
00000000
00000000
00000000
00000000
00000000
00000000
00000000
00000000
00000000
00000000
00000000
00000000
00000000
00000000
00000000
00000000
00000000
00000000
00000000
00000000
00000000
00000000
00000000
00000001
00000000
00000000
00000000
00000000
00000000
00000000
00000000
00000000
00000000
00000000
00000000
00000000
00000000
00000000
00000000
00000000
00000000
00000000
00000000
00000000
00000000
00000000
00000000
00000000
00000000
00000000
00000000
00000000
00000000
00000000
00000000
00000000
00000000
00000000
00000000
00000000
00000000
00000000
00000000
00000000
00000000
00000000
00000000
00000000
00000000
00000000
00000000
MMMMMMMM
00000000
00000000
00000000
00000000
00000000
00000000
00000000
00000000
00000000
00000000
00000000
00000000
00000000
00000000
00000000
00000000
00000000
00000000
00000000
00000000
00000000
00000000
00000000
00000001
00000000
00000000
00000000
00000000
00000000
00000000
00000000
00000000
00000000
00000000
00000000
00000000
00000000
00000000
00000000
00000000
00000000
00000000
00000000
00000000
00000000
00000000
00000000
00000020
00000000
00000000
00000000
00000000
00000000
00000000
00000000
00000000
00000000
00000000
00000000
00000000
00000000
00000000
00000000
00000000
00000000
00000000
00000000
00000000
00000000
00000000
00000000
00000000
00000000
00000000
00000000
00000000
00000000
00000000
00000000
00000000
00000000
00000000
00000000
00000000
00000000
00000000
00000000
00000000
00000000
00000000
00000000
00000000
00000000
00000000
00000030
,
00000100
00000000
00000010
00000100
00000000
00010000
00002000
00000000
,
00013000
00000000
00000000
00000000
00100000
00000000
00000000
00000000
10000000
00000000
00000000
00000000
MMMMMMMM
MMMMMMMM
MMMMMMMM
MMMMMMMM
,
MMMMMMMM
00000000
10000000
00000000
00010000
01000000
00010000
00000000
,
MMMMMMMM
00000000
00001000
00000000
00010000
00001000
00010000
00000000
,
MMMMMMMM
00000000
00010000
00000000
00000010
00001000
00000001
00000000
,
00000100
00001000
00010000
00000000
,
MMMMMMMM
00000000
10000000
00010000
,
10000000
01000000
00010000
00001000
,
MMMMMMMM
00000000
00000001
00001000
,
00000010
00000000
00000000
00000000
00000100
00000000
00000000
00000000
00000001
00000000
00000000
00000000
MMMMMMMM
MMMMMMMM
MMMMMMMM
00000000
,
00000002
00000000
00000100
00000003
00002000
00000000
00000010
00003000
,
00000020
00000000
00010000
00000030
00020000
00000000
00001000
00030000
,
00002000
00000000
01000000
00003000
02000000
00000000
00010000
03000000
,
00002000
00000000
00010000
00003000
00002000
00000000
00010000
00003000
,
00010000
00000000
00000100
00000000
00010000
00000000
00000100
00000000
00010000
00000000
00000000
00010000
00000000
00000000
00000000
00000000
,
00001000
01000000
00001000
01000000
00001000
00010000
00000100
00000000
,
00002000
00000000
00000010
00003000
00000002
00000000
00000100
00000003
,
00001000
00000100
00000100
00000100
,
00010000
00000000
00001000
00010000
00001000
00000000
00200000
00000000
,
02300000
03000000
00000000
00000000
00200000
00300000
00000000
00000000
02000000
03000000
00000000
00000000
00200000
00300000
00000000
00000000
MMMMMMMM
00000000
00000000
00000000
MMMMMMMM
00000000
00000000
00000000
00002000
00000000
00000000
00000000
00003000
00000000
00000000
00000000
,
00011000
00000000
00010000
00000100
00010000
00000000
00001000
00000000
,
00010000
MMMMMMMM
00011000
00000000
00011000
MMMMMMMM
00011000
MMMMMMMM
,
MMMMMMMM
MMMMMMMM
MMMMMMMM
00000000
00001000
00000000
00010000
00000000
00001000
00000000
00000000
00000000
00100000
00000000
00000000
00000000
,
00010000
00000000
01000000
00100000
01000000
00000000
00010000
00000000
,
00010000
00100000
00001000
00010000
00000100
00000000
00001000
00000001
,
00000000
00000100
00000020
00000000
00000130
00000000
00001000
00000000
,
00011000
00002000
00203000
00310000
,
00100000
00100000
01000000
00000000
10000000
00010000
10000000
00010000
,
02000000
03000000
00001000
01000000
00001000
00000000
00010000
00000000
,
00000010
00000010
00000010
00000000
00000020
00000030
00000020
00000030
,
MMMMMMMM
00000000
00000020
00000030
00001000
00000001
00000001
00000010
,
00000200
00000300
00010000
00001000
00020000
00031000
00100000
00000000
,
00010000
01000000
00010000
01000000
00010000
00000000
00100000
01000000
,
00000000
10000000
00020000
00000000
00130000
00000000
00001000
00000000
,
00022000
00000000
00000000
00000000
,
00003000
00000000
00000000
00030000
,
00012000
00000000
00100000
00100000
,
00000000
00010000
00010000
00000000
,
00023000
00000000
00001000
00000000
00001000
00000000
00000000
00000010
,
00000000
00000000
00000000
00000000
00000000
00000000
00000000
00031000
,
00000000
00000000
00000000
00000000
;
#NOTES:
     dance-double:
     :
     Hard:
     14:
     :
00000000
00000000
00000000
00000000
,
00000000
00000000
00000000
00000000
,
00000000
00000000
00000000
00000000
,
00000000
00000000
00000000
00000000
,
00000000
00000000
00000000
MMMMMMMM
,
00011000
00010000
MMMMMMMM
00010000
00000010
00001000
MMMMMMMM
00001000
,
00000001
00000010
MMMMMMMM
00000010
00001000
00010000
MMMMMMMM
00020000
,
00031000
00001000
MMMMMMMM
00001000
00100000
00010000
MMMMMMMM
00010000
,
01000000
10000000
MMMMMMMM
00100000
10000000
00010000
00200000
00300000
,
00011000
00001000
MMMMMMMM
00001000
01000000
00010000
MMMMMMMM
00010000
,
10000000
01000000
MMMMMMMM
01000000
00010000
00001000
MMMMMMMM
00002000
,
00013000
00010000
MMMMMMMM
00010000
00000100
00001000
MMMMMMMM
00001000
,
MMMMMMMM
00000100
MMMMMMMM
00000010
00000001
00000100
00002000
00000000
,
00013000
00000000
00000000
00000000
00000000
00000000
00000000
00000000
00001000
00000000
00000000
00000000
00000000
00000000
00000000
00100000
00010000
00000000
00000000
00000000
00100000
00000000
00000000
00000000
00100000
00000000
00000000
00000000
00000000
00000000
00000000
00000000
,
01000000
10000000
10000000
00100000
00100000
00010000
00010000
00000000
,
00002000
00003000
00020000
00030000
00000100
00001000
00001000
00000000
,
00000001
00000000
00000100
00000000
00000010
00000000
00001000
00000000
00000200
00000000
00000300
00000000
MMMMMMMM
MMMMMMMM
MMMMMMMM
00000000
,
00022000
00033000
00022000
00033000
00010000
00000010
00000010
00000000
,
00000100
00000001
00000001
00000010
00000010
00001000
00001000
00000000
,
00022000
00000000
00033000
00010000
00001000
00000000
00000000
00000000
00100000
00000000
00010000
00000000
00010000
00000000
00000000
00000000
,
1000MMMM
00010000
0100MMMM
00100000
0110MMMM
00000000
1001MMMM
00000000
,
20000000
00000000
00000000
31000000
00000000
00000000
00010000
00000000
00002000
00000000
00003000
00000000
MMMM0010
MMMM0000
MMMM0000
00000000
,
00000002
00000000
00000000
00000003
00000000
00000001
00000100
00000000
00000000
00000000
00000000
00000000
00001000
00000000
00000000
00000000
00020000
00000000
00030000
00000000
MMMM1000
00000000
00000000
00000000
0001MMMM
00000000
00000000
00000000
00000000
00000000
00000000
00000000
,
00101000
00000000
00000000
00002000
00000000
00000000
00013000
00000000
00010010
00000000
00000000
00020000
00000000
00000000
00031000
00000000
,
00100000
00000000
00010000
00000000
01000000
00000000
00100000
00000000
10000000
00000000
00010000
10000000
00010000
00000000
00000000
00000000
,
01000000
00000000
00010000
00000000
00100000
00000000
00001000
00000000
00010000
00000000
00001000
00020000
00000000
00030000
00000000
00000000
,
00000100
00001000
00000010
00010000
00001000
00010000
00000010
00000000
,
00002000
00003200
00000302
00000023
,
00001030
00000000
00000010
MMMMMMMM
00000010
MMMMMMMM
00000010
MMMMMMMM
,
00001001
00000001
00000100
00001000
00020000
00030000
00001000
00100000
,
MMMMMMMM
00000000
MMMMMMMM
00000000
00010000
00000000
00100000
00000000
02000000
00000000
03000000
00000000
20000000
00000000
00000000
30000000
,
00100000
00100000
01000000
00100000
MMMMMMMM
MMMMMMMM
10000000
00010000
,
01010000
MMMMMMMM
00022000
00033000
00001010
MMMMMMMM
00000011
MMMMMMMM
,
MMMMMMMM
MMMMMMMM
MMMMMMMM
MMMMMMMM
00000001
00000000
00000100
00000000
00000010
00000000
00000100
00000000
00001000
00000000
00000100
00000000
,
MMMMMMMM
MMMMMMMM
00001000
00010000
00100000
01000000
00200000
00300000
,
10000000
00000000
00000000
00000000
01000000
00000000
00000000
00000000
00100000
00000000
00000000
00000000
00010000
00000000
00000000
00000000
MMMMMMMM
00000000
00000000
00000000
00000000
00000000
00000000
00001000
00010000
00000000
00000000
00000000
00000020
00000000
00000000
00000000
,
00000030
00000000
00000000
00000000
00001000
00000000
00000000
00000000
00000200
00000000
00000000
00000000
00000000
00000000
00000000
00000000
00000310
00000000
00000000
00000000
00000000
00000000
00000000
00000001
00002000
00000000
00000000
00000000
00003000
00000000
00000000
00000000
,
MMMMMMMM
00001000
00000010
00000001
MMMMMMMM
00000100
00001000
00010000
,
MMMMMMMM
00010000
00100000
10000000
MMMMMMMM
01000000
00002000
00003000
,
00010000
00001000
00000000
00000000
00100000
00000000
00001000
00010000
00000000
00000000
00001000
00000000
00000020
00000000
00000030
00000000
,
00000011
00000000
00000000
00000000
00001100
00000000
00000000
00000000
00011000
00000000
00000000
00000000
MMMMMMMM
MMMMMMMM
MMMMMMMM
MMMMMMMM
,
MMMMMMMM
00000000
10000000
00000000
MMMMMMMM
01000000
01000000
00000000
,
MMMMMMMM
00100000
00100000
00010000
MMMMMMMM
00001000
00001000
00000000
,
MMMMMMMM
00000000
00000200
00000300
MMMMMMMM
00000001
00000001
00000000
,
00001000
00000000
00000100
00000000
00000010
00000000
00000001
00000000
00002000
00000000
00003001
00001000
00000020
00000000
00000030
00000000
,
0000MMMM
00000000
MMMM0000
00000000
00100000
00010000
00010000
00000000
,
10000000
00100000
00100000
01000000
01000000
00010000
00010000
00000000
,
0000MMMM
00000000
MMMMMMMM
00000000
00000010
00000001
00000001
00000000
,
00000100
00000000
00000001
00000000
00000010
00000000
00000100
00000000
00001000
00000000
00000000
00000000
MMMMMMMM
MMMMMMMM
MMMMMMMM
MMMMMMMM
,
00000002
00000203
00002300
00003020
,
00000032
00000203
00002300
00023000
,
00230000
02300000
23000000
30200000
,
00320000
02030000
03020000
02030000
,
03100000
00000000
10000000
00000000
01000000
00000000
00010000
00000000
00001000
00000000
00010000
00002000
00000000
00003000
00000000
00000000
,
00010000
00001000
00000010
00000001
00000100
00001000
00020000
00030000
,
00002000
00023000
00230000
20300000
32000000
03020000
20030000
30200000
,
00310000
01000000
01000000
01000000
,
00001000
00001000
00010000
00000010
00000200
00000300
00000001
00001000
,
00000200
00000300
00000000
00000000
00000020
00000030
00000000
00000000
00000020
00000030
00000000
00000000
00000020
00000030
00000000
00000000
MMMMMMMM
00000000
00000000
00000000
MMMMMMMM
00000000
00000000
00000000
00000002
00000000
00000000
00000000
00000000
00000000
00000003
00000000
,
00000101
00000100
00000010
00000100
MMMMMMMM
MMMMMMMM
00000001
00001000
,
00001100
MMMMMMMM
00022000
00033000
00110000
MMMMMMMM
10100000
MMMMMMMM
,
MMMMMMMM
MMMMMMMM
MMMMMMMM
MMMMMMMM
10000000
00000000
01000000
00000000
00100000
00000000
01000000
00000000
00010000
00000000
01000000
00000000
,
MMMMMMMM
MMMMMMMM
00010000
00001000
00000010
00000100
00000020
00000030
,
00000001
00000000
00000000
00000000
00000100
00000000
00000000
00000000
00000010
00000000
00000000
00000000
00001000
00000000
00000000
00000000
MMMMMMMM
00000000
00000000
00000000
00000000
00000000
00000000
00010000
00001000
00000000
00000000
00000000
00200000
00000000
00000000
00000000
,
00300000
00000000
00000000
00000000
00010000
00000000
00000000
00000000
02000000
00000000
00000000
00000000
00000000
00000000
00000000
00000000
03100000
00000000
00000000
00000000
00000000
00000000
00000000
10000000
00020000
00000000
00000000
00000000
00030000
00000000
00000000
00000000
,
10010000
00000000
00000000
00000000
00000000
00000000
00000000
00000000
20000000
00000000
00000000
00000000
30000000
00000000
00000000
00100000
02000000
00000000
00000000
00000000
03000000
00000000
00000000
00000000
00010000
00000000
00000000
00000000
00000000
00000000
00000000
00000000
,
00200000
00010000
00302000
00010000
00023000
00030010
00002000
00003001
,
00000100
00000100
00000010
00000100
00000002
00000203
00002300
00023000
,
00230000
10000000
10300000
MMMMMMMM
20000000
30100000
20000000
30100000
,
MMMMMMMM
00000000
00010000
01000000
01000000
00001000
00002000
00013000
,
00000100
00001000
00000001
00000100
00001000
00000200
00000302
00000003
,
00001000
00000100
00010000
00001000
MMMMMMMM
00000000
00001000
02000000
,
03000000
00000000
00000000
00000000
00100000
00000000
00000000
00000000
20000000
00000000
00000000
00000000
00000000
00000000
00000000
00000000
30010000
00000000
00000000
00000000
00000000
00000000
00000000
00100000
00002000
00000000
00000000
00000000
00003000
00000000
00000000
00000000
,
00022000
00000000
00000000
00000000
,
00003000
00000000
00000000
00030000
,
00020010
00000000
00000000
00000000
00000000
00000000
00000000
00000000
00000000
00000000
00000000
00000000
00000000
00000000
00000000
00000000
00000000
00000000
00000000
00000000
00000000
00000000
00000000
00000000
00000000
00000000
00000000
00000000
00000000
00000000
00000000
00000000
00000000
00000000
00000000
00000000
00000000
00000000
00000000
00000000
00000000
00000000
00000000
00000000
00000000
00000000
00000000
00000000
00000000
00000000
00000000
00000000
00000000
00000000
00000000
00000000
00000000
00000000
00000000
00000000
00000000
00000000
00000000
00000000
00000000
00000000
00000000
00000000
00000000
00000000
00000000
00000000
00000000
00000000
00000000
00000000
00000000
00000000
00000000
00000000
00000000
00000000
00000000
00000000
00000000
00000000
00000000
00000000
00000000
00000000
00000000
00000000
00000000
00000000
00000000
00000000
00001000
00000000
00000000
00000000
00000000
00000000
00000000
00000000
00000000
00000000
00000000
00000000
00000000
00000000
00000000
00000000
00000000
00000000
00000000
00000000
00000000
00000000
00000000
00000000
00000000
00000000
00000000
00000000
00000000
00000000
00000000
00000000
00000000
00000000
00000000
00000000
00000000
00000000
00000000
00000000
00000000
00000000
00000000
00000000
00000000
00000000
00000000
00030000
00000200
00000000
00000000
00000000
00000000
00000000
00000000
00000000
00000000
00000000
00000000
00000000
00000000
00000000
00000000
00000000
00000000
00000000
00000000
00000000
00000000
00000000
00000000
00000000
00000000
00000000
00000000
00000000
00000000
00000000
00000000
00000000
00000000
00000000
00000000
00000000
00000000
00000000
00000000
00000000
00000000
00000000
00000000
00000000
00000000
00000000
00000000
00000000
,
00000000
00000000
00000000
00000000
00000010
00000000
00000000
00000000
00001000
00000000
00000000
00000010
00000000
00000000
00000000
00000000
,
00000001
00000001
00000010
00000000
00001000
00000000
00000010
00000010
,
00000000
00000000
00000001
00000000
00000000
00000000
00000000
00010300
,
00000000
00000000
00000000
00000000
;
