
//----- song ID: hits -----//
#TITLE:Hit Show Heroes;
#ARTIST:TAN1CHU;
#BANNER:Hit Show Heroes.png;
#BACKGROUND:Hit Show Heroes-bg.png;
#CDTITLE:./CDTitles/DDR WORLD.png;
#MUSIC:Hit Show Heroes.ogg;
#SAMPLESTART:80.493;
#SAMPLELENGTH:15;
#DISPLAYBPM:170:190;
#BPMS:0=189.873,4=189.814,11.979=170.545,15=189.982,109.979=170.402,114=190.074,117=169.972,118=190;
#NOTES:
     dance-single:
     :
     Beginner:
     4:
     :
0000
0000
0000
0000
,
0000
0000
0000
0000
,
0000
0000
0000
0000
,
0000
0000
0000
0000
,
1000
0000
0001
0000
,
1000
0000
0000
0000
,
0010
0000
0100
0000
,
0010
0000
0000
0000
,
1000
0000
0010
0000
,
1000
0000
0000
0000
,
0001
0000
0000
0000
,
1001
0000
0000
0000
,
1000
0000
1000
0000
,
0100
0000
0100
0000
,
0010
0000
0000
0000
,
0110
0000
0000
0000
,
0010
0000
0010
0000
,
0001
0000
0001
0000
,
1000
0000
0000
0000
,
1001
0000
0000
0000
,
1000
0000
0000
0000
,
0001
0000
0000
0001
,
0000
0000
0000
1000
,
0000
0000
1000
0000
,
0100
0000
1000
0000
,
0100
0000
0010
0000
,
0001
0000
1000
0000
,
0000
0000
2002
0000
,
0000
3003
0001
0000
,
0000
0000
0001
0000
,
0100
0000
0001
0000
,
0000
0000
1000
0000
,
0010
0000
1000
0000
,
0000
0000
0010
0000
,
0100
0000
0010
0000
,
0000
0000
1000
0000
,
0001
0000
1000
0000
,
0000
0000
0001
0000
,
0001
0000
0001
0000
,
0000
0000
1000
0000
,
1000
0000
1000
0000
,
0000
0000
0010
0000
,
0010
0000
0010
0000
,
0000
0000
0100
0000
,
0100
0000
0100
0000
,
0000
0000
0002
0000
,
0000
0000
0000
0000
,
0003
0000
1000
0000
,
0010
0000
1000
0000
,
0001
0000
0010
0000
,
0100
0000
0010
0000
,
0000
0000
0001
0000
,
0010
0000
0001
0000
,
1000
0000
0010
0000
,
0100
0000
0110
0000
,
0000
0000
0010
0000
,
0000
0000
1000
0000
,
0000
0000
0001
0000
,
0000
0000
0100
0000
,
0000
0000
0001
0000
,
0001
0000
1000
0000
,
1000
0000
0100
0000
,
0010
0000
0000
0000
,
0000
0000
0001
0000
,
1000
0000
0001
0000
,
0100
0000
0010
0000
,
0100
0000
0001
0000
,
0000
0000
1000
0000
,
0001
0000
1000
0000
,
0010
0000
0100
0000
,
0010
0000
1000
0000
,
0001
0000
1001
0000
,
0000
0000
1000
0000
,
0100
0000
0010
0000
,
0100
0000
1000
0000
,
0100
0000
1000
0000
,
0001
0000
0100
0000
,
0001
0000
1000
0000
,
0010
0000
0100
0000
,
0000
0000
0001
0000
,
1000
0000
0100
0000
,
0000
0000
1000
0000
,
1000
0000
1000
0000
,
0000
0000
0001
0000
,
0001
0000
0001
0000
,
0000
0000
0010
0000
,
0010
0000
0010
0000
,
0000
0000
0100
0000
,
0100
0000
0100
0000
,
0000
0000
0000
0000
,
0000
0000
1000
1000
,
1000
0000
0001
0001
,
0001
0000
0000
1001
,
0000
0000
0000
0000
;
#NOTES:
     dance-single:
     :
     Easy:
     9:
     :
0000
0000
0000
0000
,
0000
0000
0000
0000
,
0000
0000
0000
0000
,
0000
0000
0000
0000
,
0001
0010
0100
1000
,
0001
1000
0001
0000
,
1000
0100
0010
0001
,
1000
0001
1000
0000
,
0001
0100
0001
0100
,
0010
0100
0000
0100
,
0010
1000
0000
1000
,
1001
0000
0000
0000
,
1000
0100
1000
0000
,
0001
0010
0001
0000
,
1000
0100
0010
0000
,
0110
0000
0000
0000
,
0001
0010
0001
0000
,
1000
0010
1000
0000
,
0001
0100
0010
0000
,
0110
0000
0000
0000
,
1000
0000
0001
0000
1000
0000
0000
0010
,
0000
0100
0000
0001
,
1000
0000
0001
0000
0000
0010
0000
0000
,
0100
0000
1000
0100
,
0010
0000
0001
0100
,
0010
0000
1000
0100
,
1000
0100
0010
0000
,
0100
0000
2002
0000
,
0000
3003
0001
1000
,
0001
1000
1001
0000
,
1000
0000
0000
0100
0000
0000
1000
0000
1000
0000
1000
0000
,
0001
0001
0001
0100
0000
0000
,
0010
0000
0000
0100
0000
0000
0001
0000
0001
0000
0001
0000
,
1000
1000
1000
0100
0000
0000
,
0010
0000
0000
0001
0000
0000
0100
0000
0100
0000
0100
0000
,
0010
0000
0010
0000
0010
0000
1000
0000
0000
0001
0000
0000
,
0010
0000
0100
0000
1000
0000
0000
0010
,
0000
0100
0001
0001
,
0001
0001
1000
0001
,
0000
0100
0010
0010
,
0010
0010
1000
0100
,
0010
0000
0001
1000
,
1000
1000
0001
0010
,
0000
0001
0100
0100
,
0100
0100
0001
1000
,
0010
0000
0200
0000
,
0000
0000
0000
0000
,
0300
0000
0010
0100
,
0010
1000
0001
0010
,
0100
0000
1000
0010
,
0100
0001
1000
0001
,
1000
0000
0001
0010
,
0001
1000
0010
0100
,
0010
0000
0100
0001
,
0010
0100
0110
0000
,
0000
0000
1000
0001
,
0000
1000
0000
0000
0100
0000
0000
0000
1000
0000
0000
0000
0001
0000
0000
0000
,
0000
1000
0000
0000
0010
0000
0000
0000
0100
0000
0000
0000
0010
0000
0000
0000
,
0000
0100
0000
0000
0001
0000
0000
0000
0010
0000
0000
0000
0001
0000
0000
0000
,
0000
0010
0000
0000
0100
0000
0000
0000
1000
0000
0000
0000
0010
0000
0000
0000
,
1000
0010
0100
0001
,
0100
0001
1000
0001
,
0010
0000
0000
0010
0000
0000
0010
0000
0100
0000
0000
0000
0000
0000
0000
0000
,
0000
0000
0010
0001
,
0010
0100
1000
0001
,
0100
0010
1000
1000
,
0001
0001
0010
0100
,
0010
0000
0100
1000
,
0100
1000
0001
0100
,
0010
1000
0001
0100
,
0010
1000
0100
0010
,
0100
0000
0110
0000
,
0000
0000
0010
0001
,
1000
1001
0001
0001
,
0100
0100
0010
1000
,
0010
0000
1000
0001
,
1000
0100
0010
0001
,
1000
0001
0100
0010
,
1000
0001
0100
0000
,
0000
0000
0110
0000
,
1001
0000
0000
0000
1000
0000
0000
0001
,
0000
1001
1000
0010
,
0010
0010
0100
0000
,
0000
0001
0000
0000
0010
0000
0100
0000
,
0100
0100
1000
0001
,
1000
0000
0010
0100
,
0001
0000
0001
0000
1000
0000
0000
0001
,
0000
1000
0100
0010
,
0010
0010
0001
1000
,
0010
0000
0000
0000
,
0100
0010
1000
1000
,
0100
0100
0010
0010
,
0001
0000
0001
0000
0000
0000
1000
0001
,
0000
1001
0000
0000
0000
0000
0000
0000
,
0000
0000
0000
0000
;
#NOTES:
     dance-single:
     :
     Medium:
     13:
     :
0000
0000
0000
0000
,
0000
0000
0000
0000
,
0000
0000
0000
0000
,
0000
0000
0000
0000
,
0001
0100
0010
0100
0001
1000
0100
0000
,
0020
0000
0000
0230
0000
0000
1300
0000
0001
0000
1000
0000
,
0001
0010
0100
0010
0001
1000
0010
0000
,
0200
0000
0000
0320
0000
0000
1030
0000
0001
0000
1000
0000
,
0010
0000
0100
0010
1000
0100
0010
0000
,
0002
0000
1003
0100
0000
1000
0010
0100
,
0020
0000
0130
0001
0000
0010
0100
0010
,
0001
1000
0001
0000
0000
0000
,
1000
0010
0100
0001
1000
0100
1000
0000
,
0001
0010
0001
0000
0010
0100
0010
0000
,
0001
0000
1000
0100
0010
0000
0000
0000
,
0001
0001
0000
0100
0000
0010
0100
0000
,
0001
0100
0010
1000
0001
0010
0001
0000
,
1000
0100
1000
0000
0100
0010
0100
0000
,
1000
0000
0001
0010
0100
0000
0000
0000
,
1000
1000
0000
0010
0000
0100
0010
0000
,
1000
1000
0001
0000
0100
0100
0000
0001
,
0000
0010
0000
0000
0100
0000
0000
1000
0000
0000
0000
0000
0001
0000
0001
0000
,
1000
0000
0000
0000
0010
0000
0010
0000
0000
0000
1000
0000
0000
0100
0000
0000
,
1000
0000
0000
0001
0000
0000
0000
0000
0010
0000
0000
0000
0100
0000
1000
0000
,
0000
0000
0100
1000
0010
0000
0100
0010
,
0000
1000
0001
0100
0001
0000
0100
0010
,
0000
0000
1000
0000
0100
0000
1000
0000
0001
0000
0000
0001
0000
0000
0001
0000
,
1000
0000
2002
0000
,
0000
3003
0011
1010
,
1100
0000
0101
0000
1001
0000
0000
1000
,
0100
0000
0000
1000
0000
0000
0100
0000
0000
1000
0000
0000
0100
0000
0000
0000
0010
0000
0000
0000
0100
0000
0000
0000
,
0010
0000
0000
0000
0001
0000
0000
0000
0100
0000
0000
0000
0010
0000
0000
0000
0000
0000
0000
0000
0000
0100
0000
0000
,
0001
0000
0000
0100
0000
0000
0001
0000
0000
0100
0000
0000
0001
0000
0000
0000
0100
0000
0000
0000
0010
0000
0000
0000
,
1000
0000
0000
0000
0100
0000
0000
0000
0010
0000
0000
0000
0001
0000
0000
0000
0000
0000
0000
0000
0000
1000
0000
0000
,
0010
0000
0000
1000
0000
0000
0010
0000
0000
1000
0000
0000
0010
0000
0000
0000
0100
0000
0000
0000
0010
0000
0000
0000
,
1000
0000
0000
0000
0001
0000
0000
0000
0010
0000
0000
0000
0100
0000
0000
0000
0000
0000
1000
0000
0000
1000
0000
0000
,
0010
0010
0100
0100
0001
0001
0000
0010
,
0010
0000
0100
0100
1000
0000
1000
0000
,
1000
0000
0000
0000
1000
0000
0000
0100
1000
0000
0000
0000
0001
0000
0010
0000
,
0000
0100
0100
0010
0001
0000
0001
0000
,
0001
0000
0000
0000
0001
0000
0000
0100
0010
0000
0100
0000
0001
0000
1000
0000
,
0100
0000
0000
0100
0000
0000
0100
0000
1000
0000
0001
0000
0001
0000
0000
0000
,
0001
0000
0000
0000
0001
0000
0000
0010
0100
0000
0000
0010
0001
0000
1000
0000
,
0000
0010
0010
1000
0100
0000
0100
0000
,
0100
0000
0000
0000
0100
0000
0000
1000
0100
0000
0010
0000
0001
0000
0100
0000
,
0010
0000
0000
1000
0000
0000
0001
0000
2000
0000
0000
0000
0000
0000
0000
0000
,
0000
0000
0000
0000
,
3000
0000
0001
0100
0001
0000
0100
0010
,
0000
0000
0000
0000
1000
0000
0010
0000
0100
0000
0000
0001
0000
0000
0100
0000
,
0010
1000
0010
0000
1000
0000
0100
0010
,
0001
1000
0100
0000
1000
0010
1000
0010
,
0100
0000
0001
0000
1000
0000
0010
0100
,
0000
0000
0000
0000
0001
0000
0010
0000
0001
0000
0000
1000
0000
0000
0001
0000
,
0100
0010
0100
0010
1000
0000
0001
0010
,
0001
0010
0100
0000
1000
0000
0100
0010
,
0000
0010
0100
0000
1000
0000
0010
1000
,
0000
0001
0000
0000
1000
0000
0100
0000
0010
0000
0000
0000
0001
0000
0010
0000
,
0000
0100
0000
0000
0010
0000
0000
0000
0001
0000
0000
0000
0100
0000
0001
0000
,
0000
1000
0000
0000
0001
0000
0100
0000
0010
0000
0000
0000
1000
0000
0010
0000
,
0000
0100
0000
0000
0010
0000
0000
0000
1000
0000
0100
0000
1000
0000
0000
0000
,
0001
0100
0001
0000
1000
0100
1000
0000
,
0001
0100
0001
0000
0100
0010
0100
0010
,
1000
0000
0000
1000
0000
0000
1000
0000
0001
0000
0000
0000
0000
0000
0000
0000
,
0000
0000
0000
0000
1000
0000
0001
0100
,
0000
0001
0000
0000
0010
0000
0100
0000
0010
0000
0000
0100
0000
0000
1000
0000
,
0010
0000
0100
0000
0001
0000
1000
0000
0100
0000
0000
0010
0000
0000
0010
0000
,
0000
0000
0001
0000
0100
0000
0001
0000
1000
0000
0000
0010
0000
0000
1000
0000
,
0100
0000
0010
0001
1000
0000
0001
0010
,
0000
0001
0000
0000
0100
0000
0010
0000
0100
0000
0000
0010
0000
0000
1000
0000
,
0001
0000
0100
0000
0010
0000
1000
0000
0010
0000
0000
0100
0000
0000
0010
0000
,
0000
1000
0100
0010
0001
0000
1000
0010
,
0100
0000
0010
0000
1000
0000
0100
1000
,
0000
0001
0000
0000
0010
0000
0001
0000
0010
0000
0000
0001
0000
0000
1000
0000
,
0010
0000
0100
0000
0001
0000
0000
0000
0010
0000
0000
0100
0000
0000
0100
0000
,
0000
0000
1000
0000
0010
0000
1000
0000
0001
0000
0000
1000
0000
0000
0001
0000
,
0100
0000
0010
1000
0100
0000
1000
0010
,
0000
0100
0000
0000
0001
0000
0010
0000
0001
0000
0000
1000
0000
0000
0010
0000
,
1000
0100
0010
0001
0010
0100
1000
0001
,
0000
0100
0010
0100
0001
0010
0000
0100
,
0000
1000
0000
0000
0001
0010
0100
1000
,
0001
0000
0100
0000
0010
0000
1000
0000
0001
0000
0000
0001
0000
0000
1000
0000
,
0000
1000
0000
0000
1001
0000
0000
0000
0110
0000
0000
0000
0001
0000
0000
0000
,
0001
0000
0000
0000
0001
0000
0010
0000
0001
0000
0000
0100
0000
0000
0010
0000
,
0000
0100
0100
0010
0110
0000
1000
0000
,
1000
0000
0000
1000
0000
0000
0001
0000
0010
0000
0100
0000
0010
0000
0100
0000
,
1000
0000
0000
0010
0000
0000
0100
0000
0110
0000
0000
0000
0010
0000
1000
0000
,
1000
0000
0000
0000
0100
0000
0010
0000
0100
0000
0000
0010
0000
0000
0100
0000
,
0000
1000
0000
0000
0010
0000
0100
0000
0110
0000
0000
0000
0001
0000
0000
0000
,
0001
0000
0000
0001
0000
0000
0010
0000
0001
0000
0010
0000
0001
0000
0100
0000
,
0010
0000
0000
1000
0000
0000
0001
0000
0000
0000
0000
0000
0000
0000
0000
0000
,
0100
0000
0010
0000
1000
0010
1000
0010
,
0100
0001
0100
0001
0010
0001
0010
0001
,
1000
0100
0010
0001
0000
0000
0100
0010
,
0000
1001
0000
0000
0000
0000
0000
0000
,
0000
0000
0000
0000
;
#NOTES:
     dance-single:
     :
     Hard:
     16:
     :
0000
0000
0000
0000
,
0000
0000
0000
0000
,
0000
0000
0000
0000
,
0000
0000
0000
0000
0000
0000
0000
1000
,
0001
0000
0100
0000
0001
0100
0001
0000
1000
0000
0010
0000
0100
0000
0010
1000
,
0020
0000
0000
2030
0000
0000
3100
0000
0010
0000
0110
0000
,
1000
0000
0100
0000
0010
0001
0010
0000
0001
0000
1000
0000
0010
0000
0100
0010
,
0200
0000
0000
0302
0000
0000
1003
0000
0010
0000
0110
0000
,
0001
0000
0000
0000
1000
0000
0100
0000
0010
0000
0001
0000
0100
0000
0001
1000
,
0001
0000
1000
0100
0000
0001
0100
1000
,
0001
0000
0100
1000
0000
0100
0010
0100
,
0001
0000
0000
0000
1000
0000
0000
0000
1001
0000
0000
0000
0000
0000
0000
0000
0000
0000
0001
0000
0000
0010
0000
0000
,
0100
0000
1000
0100
1000
0000
0001
0000
0100
0000
0010
0000
1000
0000
0010
0000
,
0100
0000
0001
0010
0001
0000
0100
0000
0010
0000
1000
0000
0001
0000
0010
0000
,
0200
0000
0000
0000
1300
0100
1000
0000
0002
0000
0000
0000
0000
0000
0000
0000
,
0103
0010
0000
1010
0000
1000
0100
0010
,
0001
0000
1000
0010
1000
0000
0100
0000
0010
0000
0001
0000
0100
0000
0001
0000
,
0010
0000
0100
0010
0100
0000
1000
0000
0010
0000
0100
0000
0001
0000
0010
0000
,
0002
0000
0000
0000
0013
0100
0010
0000
0200
0000
0000
0000
0000
0000
0000
0000
,
1300
0000
0001
0000
0000
0000
1001
0000
0000
0000
1000
0100
1000
0100
1000
0000
,
0001
0001
0100
0000
0110
0110
0000
1010
,
0000
1100
0000
0000
1001
0000
0000
0011
0000
0000
0000
0000
1000
0000
1000
0000
,
0100
0000
0000
0000
0110
0000
0110
0000
0000
0000
0011
0000
0000
0101
0000
0000
,
0011
0000
0000
1001
0000
0000
0000
0000
1000
0000
0000
0000
0010
0000
0100
0000
,
0010
0000
0000
0000
0100
0001
0100
0000
0001
0000
0000
0000
0010
0000
0100
0000
,
0010
0001
1000
0100
0010
0000
0001
0001
,
1000
0000
0010
0000
0100
0000
0010
0000
1000
0000
0000
1000
0000
0000
1000
0000
,
1001
0000
2002
0000
,
0000
0000
0000
0000
3003
0000
0000
0000
1000
0000
0001
0100
0001
0000
0100
0010
,
0100
0000
0010
1000
0010
0000
0000
0000
0110
0000
0000
0000
0000
0000
0001
0010
,
0001
0000
0000
1000
0000
0000
1000
0000
0000
1000
0000
0000
1100
0000
0000
0000
1001
0000
0000
0000
1100
0000
0000
0000
,
0110
0000
0000
0000
0000
0000
0000
0000
0011
0000
0000
0000
0000
0000
0000
0000
0101
0000
0000
0000
0000
0000
0000
0000
1001
0000
0000
0000
0000
0000
0000
0000
0000
0000
0000
0000
0000
0000
0000
0000
0000
0000
1000
0000
0000
0010
0000
0000
,
1000
0000
0000
0001
0000
0000
0001
0000
0000
0001
0000
0000
0011
0000
0000
0000
0101
0000
0000
0000
1001
0000
0000
0000
,
1010
0000
0000
0000
0000
0000
0000
0000
0110
0000
0000
0000
0000
0000
0000
0000
0101
0000
0000
0000
0000
0000
0000
0000
1001
0000
0000
0000
0000
0000
0000
0000
0000
0000
0000
0000
0000
0000
0000
0000
0000
0000
1000
0000
0000
0100
0000
0000
,
1000
0000
0000
0001
0000
0000
0001
0000
0000
0001
0000
0000
0011
0000
0000
0000
1001
0000
0000
0000
0011
0000
0000
0000
,
0110
0000
0000
0000
0000
0000
0000
0000
1100
0000
0000
0000
0000
0000
0000
0000
0101
0000
0000
0000
0000
0000
0000
0000
1001
0000
0000
0000
0000
0000
0000
0000
0000
0000
0000
0000
0001
0000
0000
0010
0000
0000
0001
0000
0000
0000
0000
0000
,
1000
0100
1000
0000
0001
0010
0001
0000
1000
0000
1000
0000
0000
0000
0001
0000
,
0001
0000
0000
0000
0010
0100
0010
0000
0011
0000
0000
0000
0011
0000
0000
0000
,
1001
0000
0000
0000
1010
0000
0000
0010
0100
0000
0000
0000
0001
0000
0010
0000
,
0000
0100
0100
1000
1100
0000
1100
0000
,
1001
0000
0000
0000
0011
0000
0000
0010
0100
0000
1000
0100
0010
0000
0100
0000
,
1000
0000
0000
0001
0000
0000
1001
0000
0001
0000
0100
0000
0100
0000
0000
0000
,
0110
0000
0000
0000
1010
0000
0000
1000
0100
0000
0000
1000
0001
0000
0100
0000
,
0000
0010
0010
1000
1010
0000
1100
0000
,
0101
0000
0000
0000
0011
0000
0000
0001
1000
0000
0010
1000
0001
0000
0100
0000
,
0010
0000
0000
1000
0000
0000
0100
0000
0020
0000
0000
0000
0000
0000
0000
0000
,
0000
0000
0000
0000
,
0030
0000
0000
0000
0001
0100
0001
0000
1000
0000
0000
0000
0010
0000
0100
0000
,
0000
0000
0000
0000
0001
0000
0010
0100
1000
0000
0000
0010
0000
0000
0100
0000
,
0001
0000
0100
0000
0010
1000
0010
0000
1000
0000
0000
0000
0100
0000
0010
0000
,
0001
0000
0100
0000
0010
0000
1000
0010
1000
0000
0001
0000
0010
0000
0100
0000
,
1000
0000
0010
0100
0010
0000
0100
0000
0001
0000
0000
0000
0100
0000
0010
0000
,
0000
0000
0000
0000
1000
0000
0100
0010
0001
0000
0000
0100
0000
0000
0010
0000
,
1000
0100
0001
0100
1000
0000
0001
0100
,
0010
0000
1000
0000
0001
0000
1000
0010
0100
0000
0000
0000
0001
0000
1000
0000
,
0000
1001
1001
0000
0001
0000
0010
0100
,
0000
1000
0000
0000
0001
0000
1000
0010
1000
0000
0000
0000
0100
0000
0010
0000
,
0000
0001
0000
0000
1000
0000
0000
0000
0001
0000
0000
0000
1000
0000
0010
0000
,
0000
0100
0000
0000
0001
0000
0010
0100
0010
0000
0000
0000
0001
0000
0100
0000
,
0000
0010
0000
0000
1000
0000
0000
0000
0001
0000
0010
0000
0100
0000
1000
0000
,
0001
0000
0010
0000
0100
0000
1000
0000
0001
0100
0001
0000
1000
0000
0010
0000
,
1000
0100
1000
0000
0001
0000
0010
0000
0100
1000
0100
1000
0100
1000
0100
0000
,
1000
0000
0000
0010
0000
0000
0110
0000
1001
0000
0000
0000
0000
0000
0000
0000
,
0000
0000
0000
0000
1000
0001
0010
0001
,
0000
0100
0000
0000
0010
0000
1000
0010
1000
0000
0001
0010
0000
0001
1000
0000
,
0100
0000
0010
0000
0100
0010
0100
0000
1000
0000
0000
0001
0000
0000
0100
0000
,
0001
0000
0100
0000
0010
0000
1000
0000
1100
0000
0000
1001
0000
0000
0011
0000
,
0110
0000
0000
0000
0100
0010
0100
0000
1000
0000
0001
0000
0100
0000
0010
0000
,
0000
0100
0000
0000
0001
0000
1000
0010
1000
0000
0100
0010
0000
0100
1000
0000
,
0001
0000
0100
0000
0010
0000
0100
0000
0001
0000
1000
0010
0000
0100
0001
0000
,
0010
0000
0100
1000
0100
0000
1000
0000
0001
0000
0000
0000
0100
0000
0010
0000
,
1000
0000
0001
0000
0100
0001
0100
0000
0010
0000
0000
0000
1000
0000
0100
0000
,
0000
0010
0000
0000
0001
0000
1000
0001
1000
0000
0000
0010
0000
0000
0100
0000
,
0001
0000
1000
0000
1001
0000
0000
0000
1000
0000
0000
0100
0000
0000
1000
0000
,
0010
0000
0100
0000
0001
0000
1000
0000
0001
0000
0000
0010
0000
0000
0001
0000
,
1001
0000
0000
0000
1000
0100
1000
0000
0001
0000
0100
0000
0010
0000
0100
0000
,
0000
0001
0000
0000
0010
0000
0001
1000
0001
0000
0100
0010
0000
1000
0010
0000
,
1000
0000
0100
0000
0010
0000
0001
0000
1000
0000
0001
0010
0001
0000
1000
0000
,
0010
1000
0001
0000
1000
0001
0100
0000
0010
0000
0100
0000
0000
0000
0001
0000
,
0000
1000
0000
0000
0001
0010
0100
1000
,
0001
0000
0100
0000
0010
0000
1000
0000
1001
0000
0000
1001
0000
0000
0110
0000
,
0000
0110
0000
0000
1001
0000
0000
0000
0101
0000
0000
0000
0011
0000
0000
0000
,
0011
0000
0000
0000
1000
0000
0010
0000
0100
0000
0000
0001
0000
0000
0010
0000
,
0000
0001
0001
0100
0110
0000
1010
0000
,
1010
0000
0000
1001
0000
0000
0101
0000
0001
0000
1000
0010
1000
0000
0100
0000
,
0010
0000
0000
0001
0000
0000
1000
0000
1001
0000
0000
0000
0001
0000
0100
0000
,
0100
0000
0000
0000
0010
0000
0010
1000
0010
0000
0000
1000
0100
0000
1000
0000
,
0000
0001
0100
0000
0100
0000
0010
0000
1001
0000
0000
0000
0011
0000
0000
0000
,
0011
0000
0000
0110
0000
0000
1100
0000
1000
0000
0100
0010
0100
0000
0010
0000
,
0001
0000
0000
1000
0000
0000
1001
0000
0000
0000
0000
0000
0000
0000
0000
0000
,
1000
0000
0000
0000
0010
0000
0000
0000
0100
0010
0100
0010
0100
0010
0100
0010
,
0100
0010
0100
0010
0100
0010
0100
0010
0100
0010
0100
0010
0100
0010
0100
0010
,
0100
0010
0100
0010
0100
0010
0100
0010
0000
0000
0000
0000
1000
0000
0001
0000
,
0000
0110
0000
0000
0000
0000
0000
0000
,
0000
0000
0000
0000
;
#NOTES:
     dance-double:
     :
     Easy:
     9:
     :
00000000
00000000
00000000
00000000
,
00000000
00000000
00000000
00000000
,
00000000
00000000
00000000
00000000
,
00000000
00000000
00000000
00000000
,
00000001
00001000
00000010
00001000
,
00000010
00010000
00001000
00000000
,
01000000
00010000
10000000
00010000
,
00100000
00001000
00010000
00000000
,
00000100
00001000
00000100
00001000
,
00000001
00000010
00000000
00000010
,
00001000
00010000
00000000
00001000
,
00011000
00000000
00000000
00000000
,
00001000
00100000
00010000
00000000
,
10000000
00100000
10000000
00000000
,
00010000
01000000
00001000
00000000
,
00011000
00000000
00000000
00000000
,
00010000
00000100
00001000
00000000
,
00000001
00000010
00000001
00000000
,
00001000
00000100
00010000
00000000
,
00011000
00000000
00000000
00000000
,
00001000
00000000
00010000
00000000
00001000
00000000
00000000
00100000
,
00000000
01000000
00000000
10000000
,
00010000
00000000
10000000
00000000
00000000
00100000
00000000
00000000
,
01000000
00000000
00001000
00010000
,
00001000
00000000
00010000
00000010
,
00001000
00000000
00000001
00000010
,
00000100
00001000
00000100
00000000
,
00010000
00000000
00011000
00000000
,
00000000
00000000
00001000
01000000
,
00010000
10000000
10010000
00000000
,
00010000
00000000
00000000
00100000
00000000
00000000
00001000
00000000
00001000
00000000
00001000
00000000
,
00010000
00010000
00010000
00000100
00000000
00000000
,
00001000
00000000
00000000
00000001
00000000
00000000
00000100
00000000
00000100
00000000
00000100
00000000
,
00000010
00000010
00000010
00001000
00000000
00000000
,
00000010
00000000
00000000
00010000
00000000
00000000
00001000
00000000
00001000
00000000
00001000
00000000
,
00100000
00000000
00100000
00000000
00100000
00000000
00010000
00000000
00000000
10000000
00000000
00000000
,
01000000
00000000
00100000
00000000
00010000
00000000
00000000
00100000
,
00000000
00001000
00010000
00010000
,
00010000
00010000
00000100
00001000
,
00000000
00000001
00000100
00000100
,
00000100
00000100
00000010
00001000
,
00000100
00000000
00010000
00001000
,
00001000
00001000
01000000
00010000
,
00000000
10000000
00100000
00100000
,
00100000
00100000
01000000
00010000
,
00100000
00000000
00002000
00000000
,
00000000
00000000
00000000
00000000
,
00000000
00000000
00013000
00000010
,
00001000
00000010
00000100
00000001
,
00001000
00000000
00000100
00010000
,
00001000
01000000
00010000
10000000
,
00010000
00000000
10000000
00100000
,
01000000
00100000
10000000
01000000
,
00010000
00000000
00001000
00000010
,
00000001
00001000
00001001
00000000
,
00000000
00000000
00000000
00000000
00000001
00000000
00000000
00000100
,
00000000
00000000
00001000
00000000
00010000
00000000
00000000
00100000
,
00000000
00000000
10000000
00000000
00010000
00000000
00000000
10000000
,
00000000
00000000
00100000
00000000
10000000
00000000
00000000
01000000
,
00000000
00010000
00001000
00010000
,
00001000
00010000
00000010
00001000
,
00000010
00001000
00000001
00001000
,
00000100
00000000
00000000
00000100
00000000
00000000
00000100
00000000
00010000
00000000
00000000
00000000
00000000
00000000
00000000
00000000
,
00000000
00000000
00001000
00010000
,
00001000
01000000
00010000
10000000
,
00100000
10000000
00010000
00010000
,
01000000
01000000
00001000
00010000
,
00001000
00000000
00010000
00001000
,
00010000
00000010
00001000
00000001
,
00000100
00000001
00001000
00000100
,
00010000
00001000
00010000
01000000
,
10000000
00000000
10010000
00000000
,
00000000
00000000
00010000
01000000
,
00001000
00011000
00010000
00010000
,
00000010
00000010
00001000
00000100
,
00000010
00000000
00000001
00000010
,
00000001
00001000
00000001
00000100
,
00001000
00010000
00001000
00010000
,
01000000
10000000
00010000
00000000
,
00000000
00000000
00011000
00000000
,
00000110
00000000
00000000
00000000
00000001
00000000
00000000
00001000
,
00000000
00001001
00000001
00000100
,
00000100
00000100
00000010
00000000
,
00000000
00001000
00000000
00000000
00000100
00000000
00010000
00000000
,
00010000
00010000
00001000
00010000
,
00100000
00000000
10000000
00010000
,
01000000
00000000
01000000
00000000
00001000
00000000
00000000
00010000
,
00000000
00000010
00001000
00000001
,
00000001
00000001
00000010
00001000
,
00010000
00000000
00000000
00000000
,
00001000
00010000
00000100
00000100
,
00001000
00001000
00000001
00000001
,
00001000
00000000
00001000
00000000
00000000
00000000
00000010
00000100
,
00000000
00000110
00000000
00000000
00000000
00000000
00000000
00000000
,
00000000
00000000
00000000
00000000
;
#NOTES:
     dance-double:
     :
     Medium:
     13:
     :
00000000
00000000
00000000
00000000
,
00000000
00000000
00000000
00000000
,
00000000
00000000
00000000
00000000
,
00000000
00000000
00000000
00000000
,
10000000
00010000
01000000
00010000
01000000
00001000
00010000
00000000
,
00000200
00000000
00000000
00002300
00000000
00000000
00003001
00000000
00001000
00000000
00000001
00000000
,
00001000
00000100
00010000
00000100
00010000
00001000
00100000
00000000
,
00020000
00000000
00000000
02030000
00000000
00000000
03100000
00000000
10000000
00000000
00100000
00000000
,
10000000
00000000
01000000
00100000
00010000
00100000
00001000
00000000
,
00020000
00000000
00030010
00001000
00000000
00000001
00000100
00001000
,
00020000
00000000
00031000
00010000
00000000
00100000
01000000
00100000
,
10000000
00010000
10000000
00000000
00000000
00000000
,
00010000
01000000
00001000
00010000
00001000
00010000
00000100
00000000
,
00001000
00000100
00001000
00000000
00000001
00000010
00000001
00000000
,
00001000
00000000
00000100
00010000
00001000
00000000
00000000
00000000
,
01000000
01000000
00000000
00010000
00000000
10000000
00010000
00000000
,
10000000
01000000
00100000
00010000
00100000
00001000
00010000
00000000
,
00000100
00010000
00001000
00000000
01000000
00001000
00010000
00000000
,
00000100
00000000
00001000
00000100
00000010
00000000
00000000
00000000
,
00000001
00000001
00000000
00001000
00000000
00000100
00010000
00000000
,
00001000
00001000
00100000
00000000
00010000
00010000
00000000
10000000
,
00000000
00100000
00000000
00000000
00010000
00000000
00000000
00001000
00000000
00000000
00000000
00000000
00010000
00000000
00010000
00000000
,
00000100
00000000
00000000
00000000
00001000
00000000
00001000
00000000
00000000
00000000
00000001
00000000
00000000
00000100
00000000
00000000
,
00001000
00000000
00000000
00010000
00000000
00000000
00000000
00000000
00001000
00000000
00000000
00000000
01000000
00000000
00010000
00000000
,
00000000
00000000
10000000
00100000
01000000
00000000
00010000
01000000
,
00000000
00001000
00010000
00001000
00010000
00000000
00000100
00001000
,
00000000
00000000
00000001
00000000
00000010
00000000
00000001
00000000
00001000
00000000
00000000
00001000
00000000
00000000
00001000
00000000
,
00000100
00000000
00011000
00000000
,
00000000
00000000
00101000
00110000
,
10010000
00000000
11000000
00000000
10010000
00000000
00000000
00010000
,
00100000
00000000
00000000
00010000
00000000
00000000
00100000
00000000
00000000
00010000
00000000
00000000
00100000
00000000
00000000
00000000
00001000
00000000
00000000
00000000
00010000
00000000
00000000
00000000
,
00000010
00000000
00000000
00000000
00001000
00000000
00000000
00000000
00000100
00000000
00000000
00000000
00000010
00000000
00000000
00000000
00000000
00000000
00000000
00000000
00000000
00000001
00000000
00000000
,
00000010
00000000
00000000
00000001
00000000
00000000
00000010
00000000
00000000
00000001
00000000
00000000
00000010
00000000
00000000
00000000
00000100
00000000
00000000
00000000
00001000
00000000
00000000
00000000
,
00000010
00000000
00000000
00000000
00010000
00000000
00000000
00000000
00001000
00000000
00000000
00000000
01000000
00000000
00000000
00000000
00000000
00000000
00000000
00000000
00000000
00010000
00000000
00000000
,
10000000
00000000
00000000
00010000
00000000
00000000
10000000
00000000
00000000
00010000
00000000
00000000
10000000
00000000
00000000
00000000
01000000
00000000
00000000
00000000
00010000
00000000
00000000
00000000
,
00001000
00000000
00000000
00000000
00000010
00000000
00000000
00000000
00000001
00000000
00000000
00000000
00001000
00000000
00000000
00000000
00000000
00000000
00000100
00000000
00000000
00000100
00000000
00000000
,
00010000
00010000
00001000
00001000
00100000
00100000
00000000
00010000
,
00010000
00000000
10000000
10000000
01000000
00000000
01000000
00000000
,
01000000
00000000
00000000
00000000
01000000
00000000
00000000
00100000
00010000
00000000
00000000
00000000
00100000
00000000
00001000
00000000
,
00000000
00010000
00010000
00000100
00001000
00000000
00001000
00000000
,
00001000
00000000
00000000
00000000
00001000
00000000
00000000
00000010
00000100
00000000
00000010
00000000
00001000
00000000
00000001
00000000
,
00000010
00000000
00000000
00000010
00000000
00000000
00000010
00000000
00000100
00000000
00001000
00000000
00001000
00000000
00000000
00000000
,
00000001
00000000
00000000
00000000
00000001
00000000
00000000
00000100
00000010
00000000
00000000
00000100
00001000
00000000
00010000
00000000
,
00000000
00001000
00001000
01000000
00010000
00000000
00010000
00000000
,
00010000
00000000
00000000
00000000
00010000
00000000
00000000
10000000
01000000
00000000
00100000
00000000
00010000
00000000
10000000
00000000
,
00100000
00000000
00000000
00010000
00000000
00000000
00001000
00000000
00020000
00000000
00000000
00000000
00000000
00000000
00000000
00000000
,
00000000
00000000
00000000
00000000
,
00030000
00000000
00000100
00001000
00000100
00000000
00000010
00000100
,
00000000
00000000
00000000
00000000
00000010
00000000
00000001
00000000
00001000
00000000
00000000
00000100
00000000
00000000
00010000
00000000
,
00001000
00010000
00001000
00000000
01000000
00000000
00010000
10000000
,
01000000
00100000
00010000
00000000
01000000
00001000
01000000
00001000
,
00010000
00000000
00000100
00000000
00001000
00000000
00000010
00000100
,
00000000
00000000
00000000
00000000
00000001
00000000
00001000
00000000
00000001
00000000
00000000
00000010
00000000
00000000
00001000
00000000
,
00010000
00100000
00010000
00100000
01000000
00000000
00100000
10000000
,
00100000
10000000
00010000
00000000
00100000
00000000
00001000
00010000
,
00000000
00010000
00001000
00000000
00000010
00000000
00000001
00000100
,
00000000
00000010
00000000
00000000
00001000
00000000
00000100
00000000
00000010
00000000
00000000
00000000
00000100
00000000
00001000
00000000
,
00000000
00000100
00000000
00000000
00010000
00000000
00000000
00000000
00001000
00000000
00000000
00000000
00010000
00000000
01000000
00000000
,
00000000
10000000
00000000
00000000
00010000
00000000
00100000
00000000
01000000
00000000
00000000
00000000
00100000
00000000
00010000
00000000
,
00000000
01000000
00000000
00000000
00001000
00000000
00000000
00000000
00010000
00000000
00001000
00000000
00010000
00000000
00000000
00000000
,
00000100
00001000
00000100
00000000
00001000
00000001
00001000
00000000
,
00000001
00000100
00000001
00000000
00000100
00000010
00000100
00000010
,
00001000
00000000
00000000
00001000
00000000
00000000
00001000
00000000
00000001
00000000
00000000
00000000
00000000
00000000
00000000
00000000
,
00000000
00000000
00000000
00000000
00001000
00000000
00000100
00010000
,
00000000
00001000
00000000
00000000
01000000
00000000
00010000
00000000
01000000
00000000
00000000
00100000
00000000
00000000
10000000
00000000
,
01000000
00000000
00100000
00000000
00010000
00000000
00000000
00000000
01000000
00000000
00000000
00001000
00000000
00000000
00001000
00000000
,
00000000
00000000
00010000
00000000
00000010
00000000
00001000
00000000
00000001
00000000
00000000
00000010
00000000
00000000
00000100
00000000
,
00001000
00000000
00000100
00010000
00001000
00000000
01000000
00010000
,
00000000
01000000
00000000
00000000
00100000
00000000
10000000
00000000
00100000
00000000
00000000
10000000
00000000
00000000
01000000
00000000
,
00010000
00000000
00001000
00000000
00000010
00000000
00000000
00000000
00000001
00000000
00000000
00001000
00000000
00000000
00000001
00000000
,
00000000
00000100
00001000
00010000
00100000
00000000
10000000
01000000
,
00100000
00000000
01000000
00000000
10000000
00000000
00010000
00100000
,
00000000
00001000
00000000
00000000
00010000
00000000
00001000
00000000
00010000
00000000
00000000
00000100
00000000
00000000
00001000
00000000
,
00000001
00000000
00000010
00000000
00000100
00000000
00000000
00000000
00001000
00000000
00000000
00000010
00000000
00000000
00000010
00000000
,
00000000
00000000
00010000
00000000
00001000
00000000
00010000
00000000
00001000
00000000
00000000
01000000
00000000
00000000
00010000
00000000
,
00100000
00000000
01000000
10000000
01000000
00000000
10000000
00010000
,
00000000
01000000
00000000
00000000
00010000
00000000
10000000
00000000
00100000
00000000
00000000
00010000
00000000
00000000
00001000
00000000
,
00000100
00000010
00000100
00000000
00000001
00001000
00000100
00010000
,
00000000
00001000
00010000
00001000
00100000
00010000
00000000
01000000
,
00000000
00100000
00000000
00000000
10000000
01000000
10000000
00000000
,
00010000
00000000
00100000
00000000
00010000
00000000
00000000
00000000
01000000
00000000
00000000
01000000
00000000
00000000
00001000
00000000
,
00000000
00001000
00000000
00000000
00011000
00000000
00000000
00000000
00010000
00000000
00000000
00000000
00000100
00000000
00000000
00000000
,
00000100
00000000
00000000
00000000
00000100
00000000
00001000
00000000
00000100
00000000
00000000
00000010
00000000
00000000
00000001
00000000
,
00000000
00001000
00001000
00000100
00010000
00000000
00001000
00000000
,
00001000
00000000
00000000
00001000
00000000
00000000
01000000
00000000
00010000
00000000
01000000
00000000
00010000
00000000
10000000
00000000
,
01000000
00000000
00000000
00100000
00000000
00000000
00010000
00000000
10000000
00000000
00000000
00000000
00100000
00000000
01000000
00000000
,
01000000
00000000
00000000
00000000
00010000
00000000
00100000
00000000
00010000
00000000
00000000
10000000
00000000
00000000
01000000
00000000
,
00000000
00010000
00000000
00000000
00001000
00000000
00010000
00000000
00001000
00000000
00000000
00000000
00000100
00000000
00000000
00000000
,
00000100
00000000
00000000
00000100
00000000
00000000
00000001
00000000
00001000
00000000
00000100
00000000
00010000
00000000
00001000
00000000
,
01000000
00000000
00000000
00010000
00000000
00000000
00100000
00000000
00000000
00000000
00000000
00000000
00000000
00000000
00000000
00000000
,
00001000
00000000
00010000
00000000
00000010
00001000
00000010
00001000
,
00000001
00000100
00000001
00000100
00001000
00010000
00001000
00010000
,
00100000
10000000
00100000
10000000
00000000
00000000
01000000
00010000
,
00000000
00011000
00000000
00000000
00000000
00000000
00000000
00000000
,
00000000
00000000
00000000
00000000
;
#NOTES:
     dance-double:
     :
     Hard:
     16:
     :
00000000
00000000
00000000
00000000
,
00000000
00000000
00000000
00000000
,
00000000
00000000
00000000
00000000
,
00000000
00000000
00000000
00000000
00000000
00000000
00000000
10000000
,
01000000
00000000
00100000
00000000
00010000
00100000
00010000
00000000
10000000
00000000
00100000
00000000
00010000
00000000
00001000
00000000
,
00000200
00000000
00000000
00000302
00000000
00000000
00001003
00000000
00000001
00000000
00001001
00000000
,
00001000
00000000
00000010
00000000
00001000
00000010
00001000
00000000
00000001
00000000
00000100
00000000
00001000
00000000
00010000
00000000
,
00200000
00000000
00000000
20300000
00000000
00000000
30010000
00000000
10000000
00000000
10010000
00000000
,
00010000
00000000
00100000
00001000
00010000
00000100
00001000
00000001
,
00000010
00000000
00000001
00000100
00000000
00000100
00001000
00010000
,
00100000
00000000
00100000
01000000
00000000
00010000
01000000
00010000
,
00100000
00000000
00000000
00000000
00001000
00000000
00000000
00000000
00011000
00000000
00000000
00000000
00000000
00000000
00000000
00000000
00000000
00000000
00010000
00000000
00000000
00000010
00000000
00000000
,
00001000
00000000
00000001
00000100
00000001
00000000
00001000
00000000
00000010
00000000
00010000
00000000
00001000
00000000
00010000
00000000
,
00001000
00000000
01000000
00010000
01000000
00000000
00100000
00000000
10000000
00000000
01000000
00000000
00100000
00000000
00010000
00000000
,
00200000
00000000
00000000
00000000
00301000
00010000
00001000
00000000
00020000
00000000
00000000
00000000
00000000
00000000
00000000
00000000
,
00030100
00001000
00000000
00001100
00000000
00000100
00001000
00000010
,
00000100
00000000
00000010
00001000
00000010
00000000
00010000
00000000
00001000
00000000
00100000
00000000
00010000
00000000
01000000
00000000
,
00100000
00000000
10000000
00100000
10000000
00000000
00010000
00000000
01000000
00000000
00001000
00000000
00010000
00000000
00000100
00000000
,
00002000
00000000
00000000
00000000
00003100
00000010
00000100
00000000
00000020
00000000
00000000
00000000
00000000
00000000
00000000
00000000
,
00000031
00000000
00001000
00000000
00000000
00000000
00001100
00000000
00000000
00000000
00000100
00000000
00010000
00001000
00010000
00000000
,
00001000
00001000
01000000
00000000
01010000
01010000
00000000
11000000
,
00000000
00110000
00000000
00000000
00101000
00000000
00000000
00011000
00000000
00000000
00000000
00000000
00010000
00000000
00010000
00000000
,
00000010
00000000
00000000
00000000
00001010
00000000
00001010
00000000
00000000
00000000
00000011
00000000
00000000
00001100
00000000
00000000
,
00010100
00000000
00000000
00011000
00000000
00000000
00000000
00000000
00001000
00000000
00000000
00000000
01000000
00000000
00010000
00000000
,
01000000
00000000
00000000
00000000
00010000
10000000
00010000
00000000
10000000
00000000
00000000
00000000
01000000
00000000
00100000
00000000
,
01000000
10000000
00100000
00010000
00001000
00000000
00010000
00010000
,
00001000
00000000
00000010
00000000
00000001
00000000
00001000
00000000
00000100
00000000
00000000
00000100
00000000
00000000
00000100
00000000
,
00020000
00000000
00000000
00030000
00011000
00000000
00000000
00000000
,
00000000
00000000
00000000
00000000
00000000
00000000
00000000
00000000
00001000
00000000
00100000
00010000
00100000
00000000
01000000
10000000
,
01000000
00000000
10000000
00010000
10000000
00000000
00000000
00000000
10010000
00000000
00000000
00000000
00000000
00000000
00010000
01000000
,
00010000
00000000
00000000
01000000
00000000
00000000
01000000
00000000
00000000
01000000
00000000
00000000
01001000
00000000
00000000
00000000
00011000
00000000
00000000
00000000
00010100
00000000
00000000
00000000
,
00001100
00000000
00000000
00000000
00000000
00000000
00000000
00000000
00000110
00000000
00000000
00000000
00000000
00000000
00000000
00000000
00000011
00000000
00000000
00000000
00000000
00000000
00000000
00000000
00001001
00000000
00000000
00000000
00000000
00000000
00000000
00000000
00000000
00000000
00000000
00000000
00000000
00000000
00000000
00000000
00000000
00000000
00001000
00000000
00000000
00000100
00000000
00000000
,
00001000
00000000
00000000
00000100
00000000
00000000
00000100
00000000
00000000
00000100
00000000
00000000
00010100
00000000
00000000
00000000
00011000
00000000
00000000
00000000
00101000
00000000
00000000
00000000
,
00110000
00000000
00000000
00000000
00000000
00000000
00000000
00000000
01100000
00000000
00000000
00000000
00000000
00000000
00000000
00000000
11000000
00000000
00000000
00000000
00000000
00000000
00000000
00000000
10010000
00000000
00000000
00000000
00000000
00000000
00000000
00000000
00000000
00000000
00000000
00000000
00000000
00000000
00000000
00000000
00000000
00000000
10000000
00000000
00000000
01000000
00000000
00000000
,
10000000
00000000
00000000
00010000
00000000
00000000
00010000
00000000
00000000
00010000
00000000
00000000
01010000
00000000
00000000
00000000
01001000
00000000
00000000
00000000
00011000
00000000
00000000
00000000
,
00010010
00000000
00000000
00000000
00000000
00000000
00000000
00000000
00001010
00000000
00000000
00000000
00000000
00000000
00000000
00000000
00000110
00000000
00000000
00000000
00000000
00000000
00000000
00000000
00001001
00000000
00000000
00000000
00000000
00000000
00000000
00000000
00000000
00000000
00000000
00000000
00000001
00000000
00000000
00000010
00000000
00000000
00000001
00000000
00000000
00000000
00000000
00000000
,
00000010
00000100
00000010
00000000
00000100
00001000
00000100
00000000
00010000
00000000
00010000
00000000
00000000
00000000
00001000
00000000
,
00001000
00000000
00000000
00000000
01000000
00010000
01000000
00000000
01100000
00000000
00000000
00000000
01100000
00000000
00000000
00000000
,
10100000
00000000
00000000
00000000
10010000
00000000
00000000
10000000
01000000
00000000
00000000
00000000
00100000
00000000
00010000
00000000
,
00000000
01000000
01000000
00001000
00011000
00000000
00011000
00000000
,
00010100
00000000
00000000
00000000
00001100
00000000
00000000
00001000
00000010
00000000
00000100
00000001
00000100
00000000
00000001
00000000
,
00000010
00000000
00000000
00001000
00000000
00000000
00010000
00000000
00001000
00000000
00010000
00000000
00010000
00000000
00000000
00000000
,
00011000
00000000
00000000
00000000
00101000
00000000
00000000
00100000
00010000
00000000
00000000
00100000
01000000
00000000
10000000
00000000
,
00000000
00100000
00100000
01000000
01010000
00000000
00011000
00000000
,
00001100
00000000
00000000
00000000
00000110
00000000
00000000
00000001
00001000
00000000
00000010
00000100
00000001
00000000
00000010
00000000
,
00001000
00000000
00000000
00010000
00000000
00000000
01000000
00000000
20000000
00000000
00000000
00000000
00000000
00000000
00000000
00000000
,
00000000
00000000
00000000
00000000
,
30000000
00000000
00100000
01000000
00100000
00000000
10000000
01000000
,
00000000
00000000
00000000
00000000
00010000
00000000
00001000
00010000
00001000
00000000
00000000
00000100
00000000
00000000
00000001
00000000
,
00001000
00000100
00010000
00001000
01000000
00000000
00010000
00100000
,
01000000
00000000
10000000
00000000
00010000
00000000
01000000
00001000
00010000
00000000
00001000
00000000
00010000
00000000
00000010
00000000
,
00001000
00000001
00000100
00000001
00000100
00000000
00000001
00000010
,
00000000
00000000
00000000
00000000
00001000
00000000
00010000
00001000
00010000
00000000
00000000
00100000
00000000
00000000
10000000
00000000
,
01000000
00100000
00010000
00100000
00001000
00000000
00010000
00001000
,
00000100
00000000
00000010
00000000
00000100
00000000
00000001
00001000
00000001
00000000
00000000
00000000
00000100
00000000
00001000
00000000
,
00000000
00001000
00010000
00000000
00001000
00000000
00100000
00010000
,
00000000
01000000
00000000
00000000
00100000
00000000
10000000
00100000
10000000
00000000
00000000
00000000
00010000
00000000
01000000
00000000
,
00000000
00001000
00000000
00000000
00010000
00000000
00000000
00000000
00000100
00000000
00000000
00000000
00001000
00000000
00000010
00000000
,
00000000
00000100
00000000
00000000
00000001
00000000
00000010
00000001
00000010
00000000
00000000
00000000
00000100
00000000
00001000
00000000
,
00000000
00000010
00000000
00000000
00010000
00000000
00000000
00000000
00001000
00000000
01000000
00000000
00010000
00000000
00100000
00000000
,
01000000
10000000
00010000
00100000
00001000
00010000
00000100
00001000
,
00000010
00000000
00000100
00000000
00000001
00000000
00000010
00000000
00000100
00001000
00000100
00001000
00000100
00001000
00000100
00000000
,
00010000
00000000
00000000
00001000
00000000
00000000
00100000
00000000
01100000
00000000
00000000
00000000
00000000
00000000
00000000
00000000
,
00000000
00000000
00000000
00000000
10000000
00010000
00100000
00010000
,
00000000
01000000
00000000
00000000
00001000
00000000
00010000
00000100
00010000
00000000
00000100
00001000
00000000
00000100
00000010
00000000
,
00000001
00000000
00000010
00000000
00000100
00000000
00001000
00000000
00000001
00000000
00000000
00000100
00000000
00000000
00001000
00000000
,
00010000
00000000
01000000
00000000
10000000
00000000
01000000
00000000
01100000
00000000
00000000
00110000
00000000
00000000
00101000
00000000
,
00011000
00000000
00000000
00000000
00010000
00001000
00010000
00000000
00000010
00000000
00001000
00000000
00000001
00000000
00000100
00000000
,
00000000
00000001
00000000
00000000
00001000
00000000
00000100
00000010
00000100
00000000
00001000
00000100
00000000
00010000
00001000
00000000
,
00010000
00000000
00001000
00000000
00010000
00000000
00100000
00000000
01000000
00000000
00010000
10000000
00000000
00100000
01000000
00000000
,
00010000
10000000
01000000
00010000
00001000
00000000
00010000
00001000
,
00000010
00000000
00000001
00000000
00000010
00000100
00000010
00000000
00000001
00000000
00000000
00000000
00001000
00000000
00000010
00000000
,
00000000
00000100
00000000
00000000
00000010
00000000
00001000
00000100
00001000
00000000
00000000
00000100
00000000
00000000
00010000
00000000
,
00001000
00000000
00010000
00000000
00011000
00000000
00000000
00000000
00001000
00000000
00000000
00100000
00000000
00000000
00001000
00000000
,
00010000
00000000
00100000
00000000
10000000
00000000
00100000
00000000
10000000
00000000
00000000
00010000
00000000
00000000
00100000
00000000
,
00001000
00000000
00000000
00000000
00010000
00000010
00010000
00000000
00000010
00000000
00001000
00000000
00000100
00000000
00001000
00000000
,
00000000
00000001
00000000
00000000
00000010
00000000
00000100
00001000
00000001
00000000
00000100
00000010
00000000
00001000
00000001
00000000
,
00000010
00001000
00010000
01000000
10000000
00100000
01000000
00010000
,
10000000
01000000
00010000
00001000
00000100
00000010
00000000
00001000
,
00000000
00000001
00000000
00000000
00000010
00000100
00001000
00000100
,
00010000
00000000
00001000
00000000
00100000
00000000
00010000
00000000
00110000
00000000
00000000
00011000
00000000
00000000
00001010
00000000
,
00000000
00000011
00000000
00000000
00001001
00000000
00000000
00000000
00001100
00000000
00000000
00000000
00010100
00000000
00000000
00000000
,
00011000
00000000
00000000
00000000
00001000
00000000
01000000
00000000
00010000
00000000
00000000
01000000
00000000
00000000
00100000
00000000
,
00000000
10000000
10000000
01000000
11000000
00000000
10010000
00000000
,
01010000
00000000
00000000
01001000
00000000
00000000
00011000
00000000
00010000
00000000
00001000
00000000
00000010
00000000
00000001
00000000
,
00000100
00000000
00000000
00000010
00000000
00000000
00001000
00000000
00001001
00000000
00000000
00000000
00000001
00000000
00000100
00000000
,
00000100
00000000
00000000
00000000
00000100
00000000
00000010
00000100
00000010
00000000
00000000
00001000
00000010
00000000
00010000
00000000
,
00000000
00000100
00001000
00000000
00001000
00000000
00000010
00000000
00001010
00000000
00000000
00000000
00001010
00000000
00000000
00000000
,
00011000
00000000
00000000
00101000
00000000
00000000
00110000
00000000
00100000
00000000
00010000
00000000
01000000
00000000
00100000
00000000
,
10000000
00000000
00000000
00010000
00000000
00000000
10010000
00000000
00000000
00000000
00000000
00000000
00000000
00000000
00000000
00000000
,
00010000
00000000
00000000
00000000
00100000
00000000
00000000
00000000
00001000
00010000
00001000
00010000
00001000
00010000
00001000
00010000
,
00001000
00010000
00001000
00010000
00001000
00010000
00001000
00010000
00001000
00010000
00001000
00010000
00001000
00010000
00001000
00010000
,
00001000
00010000
00001000
00010000
00001000
00010000
00001000
00010000
00000000
00000000
00000000
00000000
00001000
00000000
00000100
00000000
,
00000000
00000110
00000000
00000000
00000000
00000000
00000000
00000000
,
00000000
00000000
00000000
00000000
;
