
//----- song ID: hhwn -----//
#TITLE:悲報!ワイ!ニート!;
#ARTIST:Shu;
#TITLETRANSLIT:Hihou! Wai! Neet!;
#BANNER:Hihou! Wai! Neet!.png;
#BACKGROUND:Hihou! Wai! Neet!-bg.png;
#CDTITLE:./CDTitles/pnm Jam&Fizz.png;
#MUSIC:Hihou! Wai! Neet!.ogg;
#SAMPLESTART:37.813;
#SAMPLELENGTH:15;
#BPMS:0=165;
#NOTES:
     dance-single:
     :
     Beginner:
     3:
     :
0000
0000
0000
0000
,
0000
0000
0000
0000
,
1001
0000
0000
0000
,
1000
0000
0002
0000
,
0003
0000
1000
0000
,
0001
0000
0000
0010
,
0000
0000
0000
0000
,
0001
0000
2000
0000
,
3000
0000
0001
0000
,
1000
0000
1000
0000
,
0001
0000
0000
0000
,
1000
0000
0000
0000
,
0001
0000
0001
0000
,
0001
0000
0000
0000
,
1000
0000
1000
0000
,
1000
0000
0000
0000
,
0010
0000
0010
0000
,
0010
0000
0000
0000
,
1000
0000
0000
0000
,
0100
0000
0000
0000
,
1000
0000
0000
0000
,
0200
0000
0300
0000
,
2000
0000
3000
0000
,
0002
0000
0003
0000
,
1000
0000
0001
0000
,
2000
0000
3000
0000
,
0001
0000
0000
0000
,
0001
0000
0000
0000
,
1000
0000
0000
0000
,
1000
0000
0001
0000
,
0001
0000
0000
0000
,
1000
0000
0000
0000
,
0002
0000
0003
0000
,
1000
0000
1000
0000
,
2000
0000
3000
0000
,
0002
0000
0003
0000
,
1000
0000
0001
0000
,
0100
0000
0000
0000
,
0002
0000
0003
0000
,
2000
0000
3000
0000
,
0001
0000
1000
0000
,
0100
0000
0100
0000
,
0000
0000
2000
0000
,
0000
3000
0000
0000
,
0100
0000
0100
0000
,
0200
0000
0300
0000
,
1000
0000
0000
0000
,
0100
0000
1000
0000
,
0100
0000
0000
0000
,
2000
0000
0000
0000
,
3002
0000
0000
0000
,
0003
0000
0000
0000
,
0100
0000
0001
0000
,
0200
0000
0300
0000
,
0001
0000
0000
0000
,
1000
0000
0000
0000
,
0001
0000
0100
0000
,
0002
0000
0003
0000
,
1000
0000
0000
0000
,
0001
0000
2000
0000
,
3000
0000
0000
0000
,
0001
0000
1000
0000
,
0002
0000
0000
0000
,
0003
0000
0000
0000
,
1000
0000
0000
0000
,
0001
0000
1000
0000
,
0000
0010
0000
0000
,
1000
0000
0001
0000
,
0000
0000
1000
0000
,
0000
0000
0100
0000
,
2000
0000
3000
0000
,
0002
0000
0003
0000
,
0200
0000
0000
0000
,
0300
0000
0000
0000
,
0001
0000
1000
0000
,
0010
0000
2000
0000
,
3000
0000
0001
0000
,
1000
0000
0000
0010
,
0000
0000
0000
0000
,
1000
0000
0002
0000
,
0003
0000
1000
0000
,
0100
0000
1000
0000
,
0002
0000
0000
0000
,
0003
0000
0000
0000
,
1000
0000
0010
0000
,
1000
0000
0001
0000
,
0000
0000
0000
0000
,
1001
0000
0000
0000
,
0000
0000
0000
0000
;
#NOTES:
     dance-single:
     :
     Easy:
     7:
     :
0000
0000
0000
0000
,
0000
0000
0000
0000
,
1001
0000
0001
0100
,
0001
1000
0010
0100
,
0001
1000
0001
0100
,
0010
1000
0001
0020
,
0030
1001
0001
1000
,
0100
1000
0010
0100
,
0001
1000
0001
1000
,
0100
0010
0001
1000
,
0010
0000
0010
0000
,
1000
0010
1000
0000
,
0001
0010
0001
0010
,
0001
1000
0100
0000
,
1000
0100
1000
0100
,
1000
0001
0100
0000
,
0001
1000
0010
0100
,
0001
0010
0200
0300
,
1000
1000
0001
0001
,
1000
0001
1000
0000
,
0010
0100
0010
0010
,
0200
0000
0300
0000
,
0001
0010
0100
1000
,
0001
0010
0100
1000
,
0002
0000
2003
0000
,
3001
1000
0002
1003
,
0001
0010
0100
0010
,
0001
0010
0100
0000
,
1000
0010
0100
0001
,
0100
0010
1000
1000
,
0001
0000
1000
0010
,
0100
0010
1000
0001
,
0020
0230
1300
0001
,
0100
0010
0100
0000
,
0002
1003
0002
1003
,
0010
0100
0010
0000
,
1000
0100
0010
0001
,
1000
0010
0010
0000
,
2000
3001
2000
3001
,
0010
0100
0010
0001
,
1000
0010
0100
0001
,
0010
0100
0010
0100
,
0000
0000
2000
0000
,
0000
3000
0000
0000
,
0001
1000
0001
1000
,
0100
0100
0100
1000
,
0001
0010
0100
0010
,
0100
1000
0001
1000
,
0001
0010
0100
1000
,
0002
0000
2003
0000
,
3100
0010
0010
0010
,
0100
0010
0001
1000
,
0100
1000
0001
1000
,
0001
0010
0100
1000
,
0002
0000
2003
0000
,
3002
0000
0013
0100
,
0020
0000
0130
1000
,
0002
0000
2003
0000
,
3001
0010
0100
0010
,
0001
0100
0001
1000
,
0010
0100
0010
1000
,
0001
0100
0010
1000
,
0002
0000
2003
0000
,
3001
0010
0001
1000
,
0000
1001
0001
0010
,
0100
1000
0001
0100
,
0001
0010
0100
1000
,
0001
0100
0010
0010
,
0000
1001
0001
0010
,
0100
0010
0001
1000
,
0010
0001
0010
1000
,
0100
1000
0010
0000
,
1000
0010
0100
0001
,
0010
0100
2000
0000
,
3010
0100
0001
0100
,
0010
0100
0001
1000
,
0010
0100
0001
0100
,
0001
1000
0100
0020
,
0030
0001
1000
0100
,
1000
0001
0010
0100
,
1000
0001
0100
0001
,
1000
0100
0010
0000
,
0002
0000
2003
0000
,
3020
0000
0130
0000
,
0001
0010
1000
0010
,
0001
0100
1000
0100
,
0000
0000
0000
0000
,
0110
0000
0000
0000
,
0000
0000
0000
0000
;
#NOTES:
     dance-single:
     :
     Medium:
     12:
     :
0000
0000
0000
0000
,
0000
0000
0000
0000
,
1001
1001
1001
1001
,
0110
0000
0110
0000
0010
0100
0010
0100
,
0010
0110
1001
1001
,
0001
1000
0001
1000
0001
0000
2000
0000
,
3001
1001
1001
1001
,
0110
0000
0110
0000
0010
0100
0010
0100
,
0010
0110
1001
1001
,
1000
0001
1000
0001
1000
0000
1001
0000
,
0001
0000
0100
0000
0001
0100
0000
0000
0001
0000
1000
0000
0001
1000
0000
0000
,
0001
0000
0010
0000
0001
0010
0000
0001
0000
0000
1000
0000
1000
0000
0000
0000
,
0001
1000
0001
1000
0010
0100
0010
0100
,
0001
1000
0100
0010
0001
0000
1001
0000
,
1000
0000
0100
0000
1000
0100
0000
1000
0001
0000
0100
0000
0001
0100
0000
0001
,
1000
0000
0100
0000
1000
0100
0000
1000
0000
0000
0001
0000
0001
0000
0000
0000
,
1000
0001
1000
0001
0010
0100
0010
0100
,
1000
0001
0100
0010
2000
0000
3001
0000
,
1000
0000
0000
1000
0000
0000
1000
0000
0001
0000
0000
0001
0000
0000
0001
0000
,
2000
0000
3000
0001
1000
0000
0010
0000
0100
0000
0000
0000
0001
0000
0100
0000
,
0001
0000
0100
0001
0000
0000
1000
0000
0100
0000
0000
1000
0000
0000
0100
0000
,
2000
0000
0000
3000
0000
0001
1000
0001
,
1000
0100
0010
0001
0100
0001
1000
0001
,
1000
0100
0010
0001
0100
0000
0001
0100
,
0002
0000
0000
1003
0200
0000
0000
1300
,
0001
0100
0001
1000
0200
0000
0310
0000
,
0001
0000
0000
0000
0010
0000
0000
0010
0001
0000
0010
0000
0100
0000
1000
0000
,
0001
0100
0010
1000
0001
0000
1000
0001
,
0100
0000
0020
0030
1000
0001
0010
0100
,
2000
0000
3010
0100
0010
0000
0010
0000
,
0100
0000
1001
0000
1000
0100
0010
0001
,
1000
0010
0100
0001
2000
3000
0001
0100
,
0020
0000
2030
0000
3001
0010
0100
1000
,
0010
0010
0100
0110
,
0002
0000
0003
0010
0001
0000
0010
0000
0200
0000
0300
0010
0100
0000
0010
0000
,
0001
1000
0001
0100
0001
0000
1000
0010
,
1000
0000
0001
0010
0001
1000
0100
1000
,
0001
0010
0010
0100
,
2000
0000
3000
0010
1000
0000
0010
0000
0200
0000
0300
0010
0100
0000
0010
0000
,
1000
0001
1000
0100
1000
0001
0100
0010
,
1000
0010
0001
0010
1000
0100
0001
0100
,
1000
0010
0110
1001
,
0000
0000
2000
0000
,
0000
0000
0000
0000
0000
3000
0000
0000
0000
0000
0000
0000
0000
0000
0000
0000
,
0001
1000
0010
0100
0001
1000
0010
0100
,
0001
0000
0010
0000
0100
0000
1000
0001
,
2000
0000
3001
0010
0002
0000
2003
0000
,
3010
0100
0001
1000
0100
0010
0100
0010
,
0002
0000
1003
0010
2000
0000
3002
0000
,
0013
0000
0000
0001
0000
0000
1000
0000
0000
0001
0000
0000
0100
0000
0000
0000
,
0001
0101
1100
0101
,
1001
0000
0001
0000
0100
0010
0100
0010
,
1000
0000
0001
0010
0100
1000
0010
0100
,
0001
1000
0001
1000
0001
0000
0100
0100
,
0020
0030
0020
0030
0020
0030
0020
0030
,
0200
0300
0200
0300
0010
0100
0010
0100
,
0020
0000
0000
0030
0100
0000
0100
0000
,
0020
0000
0230
2300
3002
0000
0013
0000
,
1001
0000
0000
0000
0001
0000
0010
0000
0001
0000
1000
0000
0100
0000
0000
1000
,
0000
0010
0100
0001
0010
0100
0010
0100
,
0010
0000
0110
0000
0010
0001
0100
1000
,
0100
0001
0010
0100
1000
0000
1001
0000
,
0001
0000
0000
0000
1000
0000
0000
1000
0001
0000
0010
0000
0100
0000
1000
0000
,
0010
0100
0001
0010
0100
0000
1000
0001
,
1000
0000
0000
0000
1001
0000
0000
0001
1000
0000
0001
0000
0010
0000
0100
0000
,
1000
0010
0100
0001
1000
0000
0001
0010
,
0100
0000
2000
3000
0001
0010
1000
0010
,
0001
0100
1000
0100
0010
0000
0010
0000
,
0100
0000
0000
0000
1001
0000
0000
0001
1000
0000
0001
0000
0010
0000
0001
0000
,
0100
0010
1000
0100
0010
0000
0001
0010
,
0001
0000
1000
0010
1000
0000
0001
0010
,
0100
0010
0001
0100
0010
0000
1000
0010
,
0100
0001
1000
0000
0100
0010
0001
1000
,
0010
0000
0100
0000
0010
0000
0000
0100
0020
0000
0000
0000
1030
0000
0000
0000
,
1001
0000
0001
0100
0001
0010
0001
0100
,
0001
0010
0001
0100
0010
0100
0010
0100
,
0001
0000
1000
0100
1000
0010
1000
0100
,
1000
0010
1000
0100
1000
0000
0020
0030
,
1001
0110
0110
0110
,
1001
0000
0000
0000
1001
0000
0000
0000
0010
0000
0100
0000
0010
0000
0200
0300
,
0000
1001
1001
1001
,
0001
1000
0001
1000
0001
0000
1000
0000
,
0002
0000
0000
0000
0000
0000
0000
0003
0020
0000
0000
0000
0000
0000
0000
0030
,
2000
0000
0000
0000
0000
0000
0000
0000
3000
0010
0000
0000
0000
0000
0000
0000
,
0001
0100
0001
0010
0100
1000
0010
1000
,
0100
0001
0100
1000
0020
0000
0031
0000
,
0000
0000
0000
0000
,
0220
0000
0000
0330
0000
0000
0000
0000
0000
0000
0000
0000
0000
0000
0000
0000
,
0000
0000
0000
0000
;
#NOTES:
     dance-single:
     :
     Hard:
     15:
     :
0000
0000
0000
0000
,
0000
0000
0000
0000
,
1001
0000
0000
0000
0220
0000
0330
0000
0001
1000
0000
0020
0000
0000
0130
0000
,
0000
0001
2000
0000
3010
0001
0010
1000
,
1001
0000
0000
0000
0220
0000
0330
0000
1000
0001
0000
0020
0000
0000
0130
0000
,
0000
0000
0010
0100
0010
0100
0010
0100
0010
0000
0000
0000
0210
0000
0000
0000
,
0310
0000
0000
0000
1001
0000
0000
0000
0001
1000
0000
0020
0000
0000
0130
0000
,
0000
0001
2000
0000
3001
0010
1000
0010
,
1001
0000
0000
0000
0220
0000
0330
0000
0001
1000
0000
0020
0000
0000
0130
0000
,
0000
0000
0010
0100
0010
0100
0010
0100
0010
0000
0000
0000
1001
0000
0000
0000
,
1000
0000
0100
0000
1000
0001
0000
1000
0010
0000
0100
0000
0001
0100
0000
0001
,
1000
0000
0001
0000
0010
0100
0010
0100
0000
0000
1000
0000
1001
0000
0000
0000
,
1000
0010
1000
0010
1000
0000
0001
1000
0001
0100
0001
0100
0001
0000
1000
0001
,
0100
0010
1000
0001
0010
0000
0110
0000
,
1000
0000
0010
0000
0100
0010
0000
1000
0001
0000
0010
0000
0100
0010
0000
0001
,
1000
0000
0010
0000
0100
0010
0100
0010
0000
0000
1000
0000
1001
0000
0000
0000
,
0002
0000
0013
1000
0010
0000
0001
0000
2000
0000
3010
0001
0010
0000
1000
0000
,
0001
0010
1000
0001
0200
0000
1300
0000
,
0001
0000
0000
0001
0000
0000
0001
0000
1000
0000
0000
1000
0000
0001
1000
0000
,
0002
0000
0003
0100
0010
0000
1000
0000
0001
0000
0000
0000
1000
0000
0100
0000
,
0010
0000
0100
1000
0000
0000
0001
0000
0010
0000
0000
0100
0000
0000
0010
0000
,
0002
0000
0000
0003
0000
1000
0001
1000
,
0001
0000
0010
0100
1000
0000
0010
0000
0100
0000
0001
1000
0001
1000
0001
0000
,
1000
0000
0010
0100
0001
0000
0010
0000
0100
0000
0000
0000
1000
0000
0010
0000
,
0002
0000
0000
0013
2000
0000
0000
3100
,
0001
1000
0010
0001
0200
0000
0310
0000
,
1000
0000
0000
0000
0010
0000
0000
0010
0100
0000
0010
0000
1000
0000
0100
0000
,
0010
0100
1000
0010
0100
0000
0001
1000
,
0001
0000
0000
0000
0020
0000
0030
0000
0001
0000
0010
0100
0010
0000
0001
0000
,
0200
0000
0301
0010
0110
0000
1100
0000
,
0101
0000
0000
0000
1001
0000
0000
0000
1000
0000
0010
0100
0010
0000
1000
0000
,
0100
0000
0010
0000
1000
0000
0010
0000
0100
0000
0000
0000
1000
0000
0001
1000
,
0200
0000
0000
0000
0320
0000
0000
0000
0130
0000
0010
0001
1000
0000
0010
0000
,
0110
1010
0011
1001
,
0001
0000
0000
0010
0001
0000
0010
0000
0100
0000
0000
1000
0100
0000
1000
0000
,
0002
0003
0020
0030
0200
0300
2000
3000
0002
0003
0000
0000
1000
0000
1000
0010
,
1000
0000
0000
0000
0001
0000
0001
0010
0001
0000
1000
0000
0001
0000
0100
0000
,
0010
0000
0010
0100
0020
0000
0030
0000
,
1000
0000
0000
0010
1000
0000
0010
0000
0100
0000
0000
0001
0100
0000
0001
0000
,
2000
3000
0020
0030
0200
0300
0002
0003
1000
0000
1000
0000
0001
0000
0001
0000
,
0010
0000
0001
0010
0001
0000
1000
0000
0010
0000
1000
0010
1000
0000
0001
0100
,
0001
1100
0101
1001
,
0000
0000
0002
0000
,
0000
0000
0003
2000
0000
3000
0000
0000
0000
0000
0000
0000
0000
0000
0000
0000
,
0001
1000
0001
1000
0001
1000
0001
1000
0001
1000
0001
1000
0001
1000
0001
1000
,
0001
0010
0100
1001
,
0002
0000
0000
0000
1003
0000
1000
0000
0020
0000
0000
0000
0230
0000
0000
0301
,
0000
2000
3010
0100
0001
0010
0100
1000
,
0020
0000
0130
0100
0002
0000
2003
0000
,
3020
0000
0000
0000
0000
0000
0002
0030
0000
0000
0000
0000
2000
0003
0000
0000
0000
0000
0200
3000
0000
0000
0000
0000
0002
0300
0000
0000
0000
0000
0000
0000
,
1000
0003
0000
0000
0000
0000
0000
0000
1001
0000
0000
0000
0000
0000
0000
0000
0110
0000
0000
0000
0000
0000
0000
0000
1001
0000
0000
0000
0000
0000
0000
0000
,
0110
0000
0110
0000
0100
0001
0100
1000
,
1100
1100
0101
0101
,
0001
0000
0000
0000
0000
0000
0000
0000
0000
0000
0000
0000
0010
0000
0000
0000
0000
0000
0000
0000
0000
0000
0000
0000
0100
0000
0000
0000
0000
0000
0000
0000
0000
0000
0000
0000
1000
0000
0000
0000
0000
0000
0000
0000
0000
0000
0000
0000
0010
0000
0000
0000
0000
0000
0000
0000
0000
0000
0000
0000
0000
0000
0000
0000
0000
0000
0000
0000
0000
0000
0000
0000
0200
0300
0000
0000
0000
0000
0000
0000
0000
0000
0000
0000
0200
0300
0000
0000
0000
0000
0000
0000
0000
0000
0000
0000
,
0020
0032
2003
3020
,
0230
0000
0302
0000
0013
0001
0100
1000
,
0100
0000
0010
0000
0010
0000
0110
0000
0000
1001
0000
0000
,
0002
0000
0000
0000
0000
0000
0000
0000
0020
0003
0000
0000
0200
0030
0000
0000
0020
0300
0000
0000
0000
0000
0000
0000
0001
0030
0000
0000
0000
0000
0000
0000
,
1000
0000
0000
0000
0001
0000
0001
0000
1000
0010
0100
0000
0001
0000
0000
1000
,
0000
0010
0100
0100
0010
0001
1000
0100
,
0010
0000
0000
0000
0100
0000
0000
0000
0010
0100
0000
0020
0000
0000
0130
0000
,
0000
0000
0010
0100
0010
0100
0010
0100
0010
0000
0000
0000
1001
0000
0000
0000
,
0001
0000
0000
0000
1000
0000
0000
1000
0010
0000
0001
0000
0010
0000
0100
0000
,
0001
1000
0100
0010
0001
0000
1000
0100
,
0110
0000
0000
0000
1001
0000
0000
1000
0001
0000
0010
0000
1000
0000
0010
0000
,
0001
0100
1000
0100
0001
0000
1000
0010
,
0100
0000
0000
0000
0020
0000
0030
0000
1000
0000
0001
0010
0100
0000
1000
0000
,
0100
1000
0100
1000
0100
0000
0010
0000
0011
0000
0000
0000
1010
0000
0000
0000
,
0110
0000
0000
0000
1001
0000
0000
1000
0001
0000
0010
0100
1000
0000
0001
0000
,
0100
0010
1000
0100
0010
0000
0001
0010
,
0001
0000
1000
0010
1000
0000
0001
0010
,
0100
0000
0010
0001
1000
0000
0001
0000
1000
0000
0000
0000
0100
0000
1000
0100
,
0010
0000
0100
0000
1000
0000
0000
0000
0001
0100
0001
0100
0001
0000
1000
0100
,
1000
0000
0100
0000
0010
0000
0000
0100
2000
0000
0000
0000
3001
0000
0000
0000
,
1001
0000
0000
0000
0001
0100
0001
0100
0001
0100
0001
0100
0001
0100
0001
0100
,
0001
0100
0001
0100
0001
0100
0001
0100
0001
0000
0010
0000
0100
0000
0010
0000
,
0001
0000
0000
0000
1000
0100
1000
0100
1000
0100
1000
0100
1000
0100
1000
0100
,
1000
0100
1000
0100
1000
0100
1000
0100
1000
0000
0100
0000
0010
0000
0000
0000
,
1001
0000
0000
0000
0220
0000
0330
0000
0001
1000
0000
0020
0000
0000
0130
0000
,
0000
0000
0010
0000
0200
0000
0000
0000
0301
0000
0001
0000
1000
0000
1000
0200
,
0000
0000
0310
0000
0002
0000
0000
0000
0013
0100
0000
2000
0000
0000
3001
0000
,
0000
0000
1000
0001
1000
0001
1000
0001
1000
0000
0000
0000
0001
0000
0000
0000
,
2002
0000
0000
0000
0000
0000
0000
3003
2200
0000
0000
0000
0000
0000
0000
3300
,
2020
0000
0000
0000
0000
0000
0000
0000
3030
0011
0000
0000
0000
0000
0000
0000
,
0002
0203
0320
0032
2003
3200
0320
2030
,
3200
0320
2030
3020
0230
0000
1300
0000
,
0000
0000
0000
0000
,
2002
0000
0000
3003
0000
0000
0000
0000
0000
0000
0000
0000
0000
0000
0000
0000
,
0000
0000
0000
0000
;
#NOTES:
     dance-double:
     :
     Easy:
     7:
     :
00000000
00000000
00000000
00000000
,
00000000
00000000
00000000
00000000
,
00011000
00000000
00001000
00010000
,
00001000
01000000
00010000
10000000
,
00100000
01000000
00010000
00100000
,
01000000
10000000
00100000
00010000
,
00001000
00000000
00010000
00001000
,
00010000
00000100
00001000
00000001
,
00000010
00000100
00001000
00000010
,
00000100
00000001
00000010
00000100
,
00000010
00000000
00000010
00000000
,
00000001
00001000
00000010
00000000
,
00010000
00001000
00100000
00010000
,
10000000
00100000
01000000
00000000
,
00010000
01000000
00001000
00010000
,
00000100
00001000
00000001
00000000
,
00001000
00000010
00010000
00001000
,
00100000
00010000
10000000
00000000
,
01000000
00100000
01000000
00100000
,
00010000
10000000
00010000
00000000
,
01000000
00001000
00010000
00000100
,
00002000
00000000
00003000
00000000
,
00000001
00000010
00000100
00001000
,
00000010
00010000
00001000
00000000
,
00200000
00000000
02300000
00000000
,
13000000
00100000
01000000
00010000
,
10000000
01000000
00010000
00001000
,
00010000
00100000
10000000
00000000
,
01000000
00100000
00001000
00010000
,
00000100
00001000
00000001
00000001
,
00001000
00000000
00000010
00000100
,
00001000
00010000
00100000
00000000
,
20000000
30020000
00130000
01000000
,
00100000
00001000
00010000
00000000
,
00001000
00010000
00100000
00010000
,
00001000
00010000
01000000
00000000
,
10000000
00100000
01000000
00001000
,
00010000
00010000
00001000
00000000
,
00010000
00001000
00000010
00001000
,
00010000
00001000
00000100
00000000
,
00000001
00000010
00000100
00010000
,
00001000
00001000
00010000
00000000
,
00000000
00000000
00002000
00000000
,
00000000
00003000
00000000
00000000
,
00010000
00001000
00100000
00010000
,
01000000
01000000
01000000
00100000
,
10000000
01000000
00100000
00001000
,
00010000
00000100
00001000
00000001
,
00000010
00000001
00000100
00001000
,
00020000
00000000
00032000
00000000
,
00013000
00000010
00001000
00000010
,
00000100
00000001
00000010
00001000
,
00010000
00001000
00100000
00010000
,
10000000
00100000
01000000
00010000
,
00200000
00000000
00302000
00000000
,
00023000
00000000
00030010
00001000
,
00000002
00000000
00000013
00000100
,
00002000
00000000
00003002
00000000
,
00001003
00000010
00000100
00000010
,
00001000
00000100
00010000
00001000
,
01000000
00010000
00100000
01000000
,
10000000
00100000
00010000
00001000
,
00020000
00000000
00032000
00000000
,
00013000
00000010
00001000
00000001
,
00000000
00001001
00001000
00000010
,
00000100
00000001
00000010
00000100
,
00010000
00001000
00100000
00010000
,
10000000
01000000
00100000
00100000
,
00000000
10010000
00010000
00100000
,
01000000
10000000
00100000
01000000
,
00010000
01000000
00001000
00010000
,
00000100
00001000
00000001
00000000
,
00001000
00000010
00000100
00000001
,
00000010
00001000
00020000
00000000
,
00031000
00100000
00010000
10000000
,
00010000
00100000
00001000
00010000
,
00000010
00001000
00000001
00001000
,
00000010
00010000
00001000
00200000
,
00300000
00010000
10000000
00100000
,
01000000
00001000
00010000
00001000
,
00010000
00000010
00001000
00000001
,
00001000
00000100
00010000
00000000
,
00002000
00000000
00203000
00000000
,
00320000
00000000
10030000
00000000
,
00010000
00100000
01000000
00010000
,
00001000
00000010
00000100
00001000
,
00000000
00000000
00000000
00000000
,
00001001
00000000
00000000
00000000
,
00000000
00000000
00000000
00000000
;
#NOTES:
     dance-double:
     :
     Medium:
     12:
     :
00000000
00000000
00000000
00000000
,
00000000
00000000
00000000
00000000
,
00011000
00011000
00101000
00101000
,
00110000
00000000
00110000
00000000
00100000
01000000
00100000
01000000
,
00100000
01100000
11000000
11000000
,
10000000
00010000
00100000
00001000
00010000
00000000
00002000
00000000
,
00013000
00011000
00010010
00010010
,
00001010
00000000
00001010
00000000
00000010
00000100
00000010
00000100
,
00000010
00000110
00000101
00000101
,
00000001
00001000
00000010
00010000
00001000
00000000
00011000
00000000
,
00010000
00001000
00100000
00010000
10000000
01000000
00100000
00010000
,
10000000
00100000
01000000
00010000
00100000
00001000
00010000
00000000
,
00001000
00010000
00001000
00100000
00001000
00010000
00001000
01000000
,
00001000
00010000
00100000
10000000
01000000
00000000
01100000
00000000
,
00100000
01000000
10000000
00100000
01000000
00010000
00100000
01000000
,
10000000
00010000
01000000
00001000
00010000
00000000
00011000
00000000
,
00010000
00001000
00010000
00000010
00010000
00001000
00010000
00000100
,
00010000
00001000
00000010
00000001
00000100
00000000
00000110
00000000
,
00000010
00000000
00000000
00000010
00000000
00000000
00000010
00000000
00000100
00000000
00000000
00000100
00000000
00000000
00000100
00000000
,
00000020
00000000
00000030
00000100
00000010
00000000
00001000
00000000
00000100
00000000
00000000
00000000
00010000
00000000
00001000
00000000
,
00010000
00000000
00001000
00010000
00000000
00000000
00001000
00000000
00100000
00000000
00000000
00010000
00000000
00000000
10000000
00000000
,
02000000
00000000
00000000
03000000
00000000
00100000
01000000
00100000
,
01000000
10000000
00100000
00010000
00001000
00010000
00001000
00100000
,
01000000
10000000
00100000
00010000
00001000
00000000
00010000
00001000
,
00200000
00000000
00000000
00310000
20000000
00000000
00000000
31000000
,
00100000
00001000
00010000
00000010
00002000
00000000
00003001
00000000
,
00001000
00000000
00000001
00000010
00000100
00001000
00000010
00000100
,
00000001
00000010
00001000
00010000
00001000
00000000
00010000
00001000
,
01000000
00000000
00200000
00300000
10000000
00010000
00100000
01000000
,
20000000
00000000
30100000
00010000
00001000
00000000
00001000
00000000
,
00010000
00000000
00011000
00000000
00001000
00010000
00000010
00001000
,
00000001
00000010
00000100
00010000
00002000
00003000
00100000
00010000
,
20000000
00000000
32000000
00000000
03100000
00010000
01000000
00001000
,
00010000
00010000
00001000
00011000
,
00010000
00001000
00100000
01000000
00010000
00001000
00100000
01000000
,
10000000
00100000
01000000
00001000
00010000
00000000
00001000
00010000
,
00000010
00000000
00010000
00001000
00100000
00010000
01000000
00100000
,
00010000
00001000
00000010
00000001
,
00000100
00000010
00010000
00001000
00000100
00000010
00010000
00001000
,
00000100
00000001
00000010
00001000
00010000
00001000
00100000
01000000
,
10000000
00100000
00010000
00001000
00010000
01000000
10000000
00100000
,
00010000
00001000
00000100
00000001
,
00000000
00000000
00002000
00000000
,
00000000
00000000
00000000
00000000
00000000
00003000
00000000
00000000
00000000
00000000
00000000
00000000
00000000
00000000
00000000
00000000
,
00000001
00001000
00000100
00010000
00001000
01000000
00010000
10000000
,
00100000
00000000
00010000
00000000
00001000
00000000
00010000
00001000
,
00020000
00000000
00030010
00001000
00000002
00000000
00000203
00000000
,
00000310
00001000
00000100
00000010
00000001
00001000
00000001
00001000
,
00000020
00000000
00010030
00001000
00200000
00000000
00320000
00000000
,
00130000
00000000
00000000
00010000
00000000
00000000
10000000
00000000
00000000
00010000
00000000
00000000
01000000
00000000
00000000
00000000
,
00010000
00001000
00000010
00000100
,
00001001
00000000
00001000
00000000
00000100
00000010
00000100
00000010
,
00000001
00000000
00001000
00000010
00010000
00001000
00100000
00010000
,
10000000
00010000
10000000
00010000
10000000
00000000
01000000
01000000
,
00200000
00300000
00200000
00300000
00200000
00300000
00200000
00300000
,
02000000
03000000
02000000
03000000
00100000
01000000
00100000
01000000
,
00200000
00000000
00000000
00300000
01000000
00000000
01000000
00000000
,
00200000
00000000
02300000
03020000
20030000
00000000
30100000
00000000
,
10010000
00000000
10000000
00100000
01000000
00010000
00100000
00001000
,
00010000
00000010
00001000
00000100
00000010
00000100
00000010
00000100
,
00001000
00000000
00001001
00000000
00000001
00000010
00000100
00010000
,
00001000
01000000
00100000
00010000
00001000
00000000
00011000
00000000
,
00010000
00000000
00000000
00000000
00001000
00000000
00000000
00001000
00010000
00000000
00000010
00000000
00001000
00000000
00000001
00000000
,
00000010
00000001
00000100
00001000
00010000
00000000
00001000
00010000
,
00001000
00000000
00000000
00000000
00011000
00000000
00000000
00010000
00001000
00000000
00010000
00000000
00000010
00000000
00001000
00000000
,
00000100
00000010
00000001
00001000
00000100
00000000
00010000
00001000
,
00100000
00000000
02000000
03000000
10000000
00100000
00010000
00001000
,
00010000
00001000
00000010
00000001
00001000
00000000
00001000
00000000
,
00000001
00000000
00000000
00000000
00001001
00000000
00000000
00001000
00000001
00000000
00001000
00000000
00000010
00000000
00000100
00000000
,
00000001
00001000
00000010
00010000
00001000
00000000
00010000
00001000
,
00100000
00000000
00001000
00010000
00000010
00000000
00010000
00001000
,
01000000
00010000
00100000
00010000
01000000
00000000
00100000
10000000
,
00010000
01000000
00001000
00000000
00010000
00000100
00001000
00000001
,
00001000
00000000
00000100
00000000
00010000
00000000
00000000
00001000
00020000
00000000
00000000
00000000
00031000
00000000
00000000
00000000
,
00011000
00000000
00010000
00001000
00100000
01000000
00010000
00001000
,
00100000
01000000
00010000
00001000
00100000
01000000
00100000
01000000
,
10000000
00000000
00100000
01000000
00001000
00010000
00100000
01000000
,
00001000
00010000
00100000
01000000
00001000
00000000
00020000
00030000
,
00011000
00011000
00010010
00010010
,
00001010
00000000
00000000
00000000
00001010
00000000
00000000
00000000
00000010
00000000
00000100
00000000
00000010
00000000
00000200
00000300
,
00000000
00000110
00000101
00000101
,
00000001
00001000
00000010
00010000
00001000
00000000
00010000
00000000
,
00002000
00000000
00000000
00000000
00000000
00000000
00000000
00003000
00020000
00000000
00000000
00000000
00000000
00000000
00000000
00030000
,
00200000
00000000
00000000
00000000
00000000
00000000
00000000
00000000
00300000
10000000
00000000
00000000
00000000
00000000
00000000
00000000
,
00100000
01000000
00001000
00010000
00000100
00000010
00000001
00001000
,
00000100
00000010
00001000
00010000
00200000
00000000
01300000
00000000
,
00000000
00000000
00000000
00000000
,
20020000
00000000
00000000
30030000
00000000
00000000
00000000
00000000
00000000
00000000
00000000
00000000
00000000
00000000
00000000
00000000
,
00000000
00000000
00000000
00000000
;
#NOTES:
     dance-double:
     :
     Hard:
     15:
     :
00000000
00000000
00000000
00000000
,
00000000
00000000
00000000
00000000
,
10010000
00000000
00000000
00000000
02200000
00000000
03300000
00000000
10000000
00010000
00000000
00200000
00000000
00000000
00301000
00000000
,
00000000
00010000
00000200
00000000
00000310
00000001
00000010
00001000
,
00000010
00000000
00000000
00000000
00002002
00000000
00003003
00000000
00000001
00001000
00000000
00000020
00000000
00000000
00010030
00000000
,
00000000
00000000
00001000
00010000
00001000
00010000
00001000
00010000
00001000
00000000
00000000
00000000
00021000
00000000
00000000
00000000
,
00130000
00000000
00000000
00000000
10100000
00000000
00000000
00000000
10000000
00010000
00000000
02000000
00000000
00000000
03001000
00000000
,
00000000
00010000
00000020
00000000
00000130
00001000
00000100
00000001
,
00000100
00000000
00000000
00000000
00002002
00000000
00003003
00000000
00000001
00001000
00000000
00000200
00000000
00000000
00010300
00000000
,
00000000
00000000
00001000
00010000
00001000
00010000
00001000
00010000
00001000
00000000
00000000
00000000
00011000
00000000
00000000
00000000
,
00010000
00000000
00000100
00000000
00001000
00000001
00000000
00001000
00000010
00000000
00000100
00000000
00000001
00000100
00000000
00000001
,
00001000
00000000
00000100
00000000
00000010
00000001
00000010
00000001
00000000
00000000
00001000
00000000
00001001
00000000
00000000
00000000
,
00001000
00000010
00001000
00000010
00010000
00000000
00001000
00000000
00100000
00010000
00100000
00010000
10000000
00000000
00010000
00000000
,
00100000
01000000
10000000
00100000
00010000
00000000
00011000
00000000
,
00001000
00000000
01000000
00000000
00100000
01000000
00000000
00100000
10000000
00000000
00010000
00000000
00100000
00010000
00000000
00100000
,
01000000
00000000
10000000
00000000
00010000
01000000
00010000
01000000
00000000
00000000
00001000
00000000
00010000
00000000
00000000
00000000
,
00002000
00000000
00013000
00000010
00001000
00000000
00000100
00000000
00020000
00000000
00031000
00100000
00010000
00000000
01000000
00000000
,
00010000
00100000
01000000
00010000
00002000
00000000
00013000
00000000
,
00001000
00000000
00000000
00001000
00000000
00000000
00001000
00000000
00010000
00000000
00000000
00010000
00000000
00001000
00010000
00000000
,
00002000
00000000
00003000
00100000
00010000
00000000
01000000
00000000
00100000
00000000
00000000
00000000
10000000
00000000
01000000
00000000
,
00010000
00000000
00001000
00010000
00000000
00000000
00000100
00000000
00001000
00000000
00000000
00000010
00000000
00000000
00010000
00000000
,
00002000
00000000
00000000
00003000
00000000
00010000
00001000
01000000
,
00010000
00000000
10000000
01000000
00100000
00000000
00001000
00000000
00010000
00000000
00001000
00010000
00001000
00000000
00100000
00000000
,
00010000
00000000
10000000
00100000
01000000
00000000
00001000
00000000
00010000
00000000
00000000
00000000
00000010
00000000
00001000
00000000
,
00000002
00000000
00000000
00000103
00000020
00000000
00000000
00001030
,
00000100
00010000
00001000
00100000
02000000
00000000
13000000
00000000
,
00010000
00000000
00000000
00000000
00100000
00000000
00000000
00100000
01000000
00000000
00100000
00000000
00010000
00000000
01000000
00000000
,
00100000
00010000
00001000
00010000
01000000
00000000
00100000
00001000
,
00010000
00000000
00000000
00000000
00000020
00000000
00000030
00000000
00001000
00000000
00000001
00000010
00000100
00000000
00000010
00000000
,
00000200
00000000
00000310
00001000
00010000
00000000
00110000
00000000
,
10100000
00000000
00000000
00000000
10010000
00000000
00000000
00000000
10000000
00000000
00010000
00100000
01000000
00000000
00100000
00000000
,
01000000
00010000
00001000
00010000
00100000
00000000
00010000
00001000
,
00200000
00000000
00000000
00000000
02300000
00000000
00000000
00000000
03010000
00000000
01000000
00100000
00010000
00000000
10000000
00000000
,
00010000
00101000
00010010
00001001
,
00000001
00000000
00000000
00000010
00000001
00000000
00000010
00000000
00000100
00000000
00000000
00010000
00001000
00000000
01000000
00000000
,
00020000
00030000
00200000
00300000
02000000
03000000
00200000
00300000
00020000
00030000
00000000
00000000
01000000
00000000
01000000
00100000
,
10000000
00000000
00000000
00000000
00010000
00000000
00010000
00100000
00001000
00000000
00010000
00000000
00000010
00000000
00001000
00000000
,
00000001
00000000
00000010
00000100
00000020
00000000
00000030
00000000
,
00000001
00000000
00000000
00000010
00000100
00000000
00001000
00000000
00000100
00000000
00000000
00010000
00001000
00000000
00100000
00000000
,
02000000
03000000
20000000
30000000
00200000
00300000
20000000
30000000
01000000
00000000
00100000
00000000
00010000
00000000
01000000
00000000
,
00001000
00000000
00010000
00001000
01000000
00000000
00001000
00000000
00010000
00000000
00001000
00010000
00000100
00000000
00001000
00000001
,
00000100
00000010
00010000
00011000
,
00000000
00000000
00020000
00000000
,
00000000
00000000
00030000
00002000
00000000
00003000
00000000
00000000
00000000
00000000
00000000
00000000
00000000
00000000
00000000
00000000
,
00010000
00001000
00010000
00001000
00010000
00001000
00010000
00001000
00010000
00001000
00010000
00001000
00010000
00001000
00010000
00001000
,
00010000
00000010
00000100
00000001
,
00002000
00000000
00000000
00000000
00003001
00000000
00000001
00000000
00000020
00000000
00000000
00000000
00002030
00000000
00000000
00013000
,
00000000
00002000
01003000
00100000
00010000
00100000
01000000
10000000
,
02000000
00000000
03100000
00100000
20000000
00000000
30020000
00000000
,
00230000
00000000
00000000
00000000
00000000
00000000
00020000
00300000
00000000
00000000
00000000
00000000
00002000
00030000
00000000
00000000
00000000
00000000
00000200
00003000
00000000
00000000
00000000
00000000
00000002
00000300
00000000
00000000
00000000
00000000
00000000
00000000
,
00000100
00000003
00000000
00000000
00000000
00000000
00000000
00000000
00000110
00000000
00000000
00000000
00000000
00000000
00000000
00000000
00010100
00000000
00000000
00000000
00000000
00000000
00000000
00000000
01001000
00000000
00000000
00000000
00000000
00000000
00000000
00000000
,
01100000
00000000
11000000
00000000
01000000
00010000
01000000
10000000
,
11000000
01100000
00011000
00000110
,
00000001
00000000
00000000
00000000
00000000
00000000
00000000
00000000
00000000
00000000
00000000
00000000
00000010
00000000
00000000
00000000
00000000
00000000
00000000
00000000
00000000
00000000
00000000
00000000
00000100
00000000
00000000
00000000
00000000
00000000
00000000
00000000
00000000
00000000
00000000
00000000
00001000
00000000
00000000
00000000
00000000
00000000
00000000
00000000
00000000
00000000
00000000
00000000
00000001
00000000
00000000
00000000
00000000
00000000
00000000
00000000
00000000
00000000
00000000
00000000
00000000
00000000
00000000
00000000
00000000
00000000
00000000
00000000
00000000
00000000
00000000
00000000
00000200
00000300
00000000
00000000
00000000
00000000
00000000
00000000
00000000
00000000
00000000
00000000
00000200
00000300
00000000
00000000
00000000
00000000
00000000
00000000
00000000
00000000
00000000
00000000
,
00002000
00003020
00020030
00032000
,
02003000
00000000
03020000
00000000
00130000
00010000
01000000
10000000
,
01000000
00000000
00010000
00000000
00010000
00000000
00100000
00000000
00000000
01100000
00000000
00000000
,
02000000
00000000
00000000
00000000
00000000
00000000
00000000
00000000
00200000
03000000
00000000
00000000
00002000
00300000
00000000
00000000
00020000
00003000
00000000
00000000
00000000
00000000
00000000
00000000
01000000
00030000
00000000
00000000
00000000
00000000
00000000
00000000
,
10000000
00000000
00000000
00000000
00010000
00000000
00010000
00000000
10000000
00010000
01000000
00000000
00001000
00000000
00000000
00001000
,
00000000
00010000
00000100
00000100
00000010
00000001
00001000
00000100
,
00010000
00000000
00000000
00000000
00001000
00000000
00000000
00000000
00010000
00001000
00000000
00200000
00000000
00000000
00301000
00000000
,
00000000
00000000
00010000
00001000
00010000
00001000
00010000
00001000
00010000
00000000
00000000
00000000
00011000
00000000
00000000
00000000
,
00001000
00000000
00000000
00000000
00010000
00000000
00000000
00001000
00010000
00000000
00000010
00000000
00001000
00000000
00000001
00000000
,
00000010
00000100
00001000
00000010
00000100
00000000
00001000
00010000
,
00100000
00000000
00000000
00000000
10000000
00000000
00000000
10000000
00100000
00000000
01000000
00000000
00100000
00000000
00010000
00000000
,
10000000
01000000
00100000
00010000
00001000
00000000
00100000
00001000
,
00010000
00000000
00000000
00000000
00021000
00000000
00030000
00000000
00001000
00000000
00010000
00000010
00001000
00000000
00000001
00000000
,
00000100
00000001
00000100
00000001
00000100
00000000
00000010
00000000
00001010
00000000
00000000
00000000
00011000
00000000
00000000
00000000
,
01010000
00000000
00000000
00000000
10100000
00000000
00000000
10000000
00010000
00000000
00100000
00001000
00010000
00000000
00000010
00000000
,
00001000
00000100
00000010
00000001
00001000
00000000
00000001
00000100
,
00000001
00000000
00001000
00000100
00001000
00000000
00000100
00010000
,
00001000
00000000
00010000
00001000
01000000
00000000
00010000
00000000
10000000
00000000
00000000
00000000
01000000
00000000
10000000
01000000
,
00100000
00000000
00010000
00000000
01000000
00000000
00000000
00000000
00001000
01000000
00001000
01000000
00001000
00000000
00010000
00000100
,
00010000
00000000
00000100
00000000
00001000
00000000
00000000
00000001
00000200
00000000
00000000
00000000
00000301
00000000
00000000
00000000
,
00001001
00000000
00000000
00000000
00000001
00000100
00000001
00000000
00001000
00000100
00001000
00000000
00000010
00001000
00000010
00000000
,
00010000
00001000
00010000
00000000
00001000
00100000
00001000
00000000
00010000
00000000
00001000
00000000
01000000
00000000
00100000
00000000
,
10000000
00000000
00000000
00000000
10000000
00100000
10000000
00000000
00010000
00100000
00010000
00000000
01000000
00010000
01000000
00000000
,
00001000
00010000
00001000
00000000
00010000
00000100
00010000
00000000
00000100
00000000
00001000
00000000
00000010
00000000
00000000
00000000
,
00001001
00000000
00000000
00000000
00000110
00000000
00000000
00000000
00000001
00001000
00000000
00000020
00000000
00000000
00000130
00000000
,
00000000
00000000
00000001
00000000
00002000
00000000
00000000
00000000
00003001
00000000
00000001
00000000
00001000
00000000
00001000
00000200
,
00000000
00000000
00000310
00000000
00000002
00000000
00000000
00000000
00000013
00000100
00000000
00002000
00000000
00000000
00003010
00000000
,
00000000
00000000
00010000
00000010
00010000
00000010
00010000
00000010
00010000
00000000
00000000
00000000
00001000
00000000
00000000
00000000
,
00022000
00000000
00000000
00000000
00000000
00000000
00000000
00033000
02020000
00000000
00000000
00000000
00000000
00000000
00000000
03030000
,
22000000
00000000
00000000
00000000
00000000
00000000
00000000
00000000
33000000
10010000
00000000
00000000
00000000
00000000
00000000
00000000
,
00020000
02030000
03200000
00320000
00032000
00003200
00000320
00002030
,
00003200
00000320
00002030
00023000
00032000
00000000
00003100
00000000
,
00000000
00000000
00000000
00000000
,
00000220
00000000
00000000
00000330
00000000
00000000
00000000
00000000
00000000
00000000
00000000
00000000
00000000
00000000
00000000
00000000
,
00000000
00000000
00000000
00000000
;
