
//----- song ID: hitk -----//
#TITLE:ハイテックトキオ;
#ARTIST:lapix ∞ BEMANI Sound Team "Sota Fujimori";
#TITLETRANSLIT:Hi-tech Tokio;
#BANNER:Hi-tech Tokio.png;
#BACKGROUND:Hi-tech Tokio-bg.png;
#CDTITLE:./CDTitles/bm IIDX 29 CastHour.png;
#MUSIC:Hi-tech Tokio.ogg;
#SAMPLESTART:84.363;
#SAMPLELENGTH:15;
#BPMS:0=165;
#NOTES:
     dance-single:
     :
     Beginner:
     3:
     :
0000
0000
0000
0000
,
0000
0000
0000
0000
,
0000
0000
0000
0000
,
0000
0000
0000
0000
,
0000
0000
0000
0000
,
0000
0000
0000
0000
,
0001
0000
0000
0000
,
0001
0000
0000
0000
,
0010
0000
0000
0000
,
0000
0000
0000
0000
,
1000
0000
0000
0000
,
1000
0000
0000
0000
,
0010
0000
0000
0000
,
0000
0000
0000
0000
,
1000
0000
0000
0000
,
0010
0000
0000
0000
,
0001
0000
0000
0000
,
0000
0000
0000
0000
,
0001
0000
0000
0000
,
0001
0000
0000
0000
,
0010
0000
0000
0000
,
0000
0000
0000
0000
,
0001
0000
0000
0000
,
0010
0000
0000
0000
,
1000
0000
0000
0000
,
0000
0000
0000
0000
,
1001
0000
0000
0000
,
0000
0000
0000
0000
,
1001
0000
0000
0000
,
0000
0000
0000
0000
,
1000
0000
1000
0000
,
0100
0000
0000
0000
,
0001
0000
0001
0000
,
0100
0000
0000
0000
,
0010
0000
0000
0000
,
0010
0000
0000
0000
,
0010
0000
0000
0000
,
0000
0000
0000
0000
,
2000
0000
0000
0000
,
3000
0000
0000
0000
,
0002
0000
0000
0000
,
0003
0000
0000
0000
,
1001
0000
0000
0000
,
0001
0000
0000
0000
,
0010
0000
0000
0000
,
0010
0000
0000
0000
,
1000
0000
0000
0000
,
0000
0000
0000
0000
,
1000
0000
0000
0000
,
0100
0000
0000
0000
,
0001
0000
0000
0000
,
0010
0000
0000
0000
,
0100
0000
0000
0000
,
1000
0000
0000
0000
,
0002
0000
0000
0000
,
0003
0000
0000
0000
,
2000
0000
0000
0000
,
3000
0000
0000
0000
,
1000
0000
1000
0000
,
0010
0000
0000
0000
,
0010
0000
0000
0000
,
0000
0000
0000
0000
,
0001
0000
0001
0000
,
0010
0000
0000
0000
,
0010
0000
0000
0000
,
0000
0000
0000
0000
,
1000
0000
1000
0000
,
0100
0000
0000
0000
,
0010
0000
0000
0000
,
0000
0000
0000
0000
,
0001
0000
0001
0000
,
0100
0000
0000
0000
,
0010
0000
0000
0000
,
0000
0000
0000
0000
,
1001
0000
0000
0000
,
0001
0000
0010
0000
,
1000
0000
0000
0000
,
1000
0000
0010
0000
,
0001
0000
0000
0000
,
0100
0000
0000
0000
,
0010
0000
0000
0000
,
1000
0000
0000
0000
,
1001
0000
0000
0000
,
0000
0000
0000
0000
;
#NOTES:
     dance-single:
     :
     Easy:
     6:
     :
0000
0000
0000
0000
,
0000
0000
0000
0000
,
0000
0000
0000
0000
,
0000
0000
0000
0000
,
0000
0000
0000
0000
,
0000
0000
0000
0000
,
0001
0001
0100
0000
,
0001
0001
1000
0000
,
1000
0100
1000
0001
,
2002
0000
0000
3003
,
1000
0100
1000
0100
,
0010
0010
0010
0000
,
0001
0100
0001
0100
,
0010
0010
0010
0000
,
1000
0001
1000
0001
,
0100
0100
0100
0000
,
0001
1000
0001
1000
,
0100
0100
0100
0000
,
1000
0100
0010
0001
,
1000
0010
0100
0001
,
1000
0000
1001
0000
,
0010
0100
0110
0000
,
0001
0100
0010
1000
,
0001
0010
0100
1000
,
0001
0000
1001
0000
,
0010
0100
0110
0000
,
0002
0000
0000
0003
,
2000
0000
0000
3000
,
0020
0000
0000
0030
,
0200
0000
0000
0300
,
0001
0001
0001
0000
,
1000
1000
1000
0000
,
0010
0010
0010
0000
,
0100
0100
0100
0000
,
0001
0100
0010
0100
,
0001
0100
0010
0000
,
1000
0100
0010
0100
,
1000
0100
0010
0000
,
0001
0001
0100
0000
,
0100
0100
0010
0000
,
0010
0010
1000
0000
,
2002
0000
0000
3003
,
0001
0100
0001
0001
,
1000
0010
1000
1000
,
0001
1000
1001
0000
,
0100
0010
0110
0000
,
1000
0100
1000
1000
,
0001
0010
0001
0001
,
1000
0001
1001
0000
,
0100
0010
0110
0000
,
2000
0000
0000
3000
,
0002
0000
0000
0003
,
0200
0000
0000
0300
,
0020
0000
0000
0030
,
1000
1000
0010
0000
,
0100
0100
0001
0000
,
0001
0001
0010
0000
,
0220
0000
0000
0330
,
1000
0001
0100
0010
,
1000
0001
0100
0000
,
0001
1000
0010
0100
,
0010
1000
0001
0000
,
1000
0100
0010
0100
,
1000
0001
0010
0000
,
0001
0100
0010
1000
,
0100
0010
0001
0000
,
0001
0001
0001
0000
,
1000
1000
1000
0000
,
0010
0010
0010
0000
,
0100
0100
0100
0000
,
0001
0001
0100
0000
,
0100
0100
0010
0000
,
0010
0010
1000
0000
,
2002
0000
0000
3003
,
1000
0100
0010
0001
,
1000
0010
0100
0001
,
1000
1000
0100
0000
,
0001
0001
0100
0000
,
0110
0000
1001
0000
,
1000
0010
0100
0000
,
0001
0010
0001
0100
,
0001
0001
1000
0000
,
1001
0000
0000
0000
,
0000
0000
0000
0000
;
#NOTES:
     dance-single:
     :
     Medium:
     13:
     :
0000
0000
0000
0000
,
0000
0000
0000
0000
,
0000
0000
0000
0000
,
0000
0000
0000
0000
,
0000
0000
0000
0000
,
0000
0000
0000
0000
,
0001
0000
1001
0000
1000
0100
0010
0000
,
0002
0000
0000
1003
0000
0000
1001
0000
,
0001
0100
0001
0000
1000
0100
1000
0000
,
2002
0000
0000
3003
,
1000
0010
1000
0100
0010
0001
0100
0000
,
0001
0010
0001
0100
0010
1000
0100
0000
,
1000
0100
0001
0000
0001
0100
1000
0000
,
1100
0000
0110
0000
0001
1000
0001
0000
,
0001
0010
0001
0100
0010
1000
0100
0000
,
1000
0010
1000
0100
0010
0001
0100
0000
,
0001
0100
1000
0000
1000
0100
0001
0000
,
0001
0100
0000
0110
0000
1001
0000
0000
,
0001
0010
0100
1000
0001
0010
0100
0001
,
0100
1000
0001
0100
1000
0100
0001
0000
,
1000
0010
0100
0010
0001
0010
0100
0010
,
1000
0000
0000
1000
0000
0000
0001
0000
0000
0001
0000
0000
1001
0000
0000
0000
,
1000
0010
0100
0001
1000
0010
0100
1000
,
0100
0001
1000
0100
0001
0100
1000
0000
,
0001
0010
0100
0010
1000
0010
0100
0010
,
0001
0000
0000
0001
0000
0000
1000
0000
0000
1000
0000
0000
1001
0000
0000
0000
,
0001
0000
0110
0000
1000
0100
0001
0100
,
1000
0000
0110
0000
0001
0010
1000
0010
,
0001
0000
0110
0000
1000
0010
0001
0010
,
1000
0000
0110
0000
0001
0100
1000
0100
,
0001
0000
0000
1000
0000
0000
0010
0000
0000
0100
0000
0000
0001
0000
0000
0000
,
1000
0000
0100
0000
1000
0000
0000
0100
0000
0000
0010
0000
0001
0000
0000
0000
,
1000
0000
0000
0001
0000
0000
0010
0000
0000
0100
0000
0000
1000
0000
0000
0000
,
0001
0000
0100
0000
0001
0000
0000
0100
0000
0000
0010
0000
1000
0000
0000
0000
,
0001
0100
0010
1000
0100
0010
0001
0000
,
1000
0001
0010
0100
1000
0010
0100
0000
,
0001
0100
0010
0000
1000
0100
0010
0000
,
0011
0000
1010
0000
1000
0001
1000
0000
,
0002
0203
2300
3200
,
0302
0023
2030
3020
,
0032
0203
0320
1030
,
0002
0000
0000
0000
0000
1000
1003
0000
,
0000
0001
0100
0000
0010
1000
0010
1000
,
0010
0000
0010
1000
0100
0000
0100
0010
,
0001
0000
1000
0010
0000
0110
0000
0100
,
0002
0000
0003
0001
1000
0010
1000
0000
,
0000
1000
0100
0000
0010
0001
0100
0001
,
0010
0000
0010
0100
0000
0100
1000
0001
,
1000
0000
0100
0001
0000
0100
1000
0002
,
0000
0000
0003
1000
0100
0010
0001
0000
,
1000
0100
0010
0000
0001
0100
0010
0000
,
1000
0010
0100
0000
0001
0010
0100
0000
,
1000
0100
0001
0000
0100
0010
0001
0000
,
1000
0010
0001
0000
0010
0100
0001
0000
,
2000
3200
0302
2003
,
3020
0032
2003
3200
,
0302
2003
3020
0031
,
2000
0000
0000
0000
0000
0001
3001
0000
,
1000
0100
0010
0001
0100
0010
1000
0000
,
0001
0100
1000
0100
0001
0010
0100
0000
,
1000
0100
0010
0100
0001
1000
0010
0100
,
0010
0001
0100
0001
1000
0010
1000
0000
,
0001
0010
0100
1000
0010
0100
0001
0000
,
1000
0010
0001
0010
1000
0100
0010
0000
,
0001
0010
0100
0010
1000
0001
0100
0010
,
0100
1000
0010
1000
0001
0100
0001
0000
,
1000
0010
0000
1010
0000
0010
0100
0001
,
0000
0010
0000
0011
0000
0001
1000
0001
,
0000
1000
0000
1001
0000
0001
0100
0010
,
0000
0000
1000
0010
0000
1000
0000
0000
0001
0000
0100
0000
0001
0000
0000
0000
,
2000
3100
0002
0103
2000
3100
0020
0000
,
0032
0103
2000
3100
0002
0103
0020
0000
,
2030
3100
0020
0031
0200
0310
1000
0000
,
2002
0000
0000
3003
,
1000
0010
0100
0000
0001
0010
0100
0000
,
1000
0010
0001
0010
1000
0010
0100
0000
,
0001
0100
0010
0000
1000
0100
0010
0000
,
0001
0010
0100
1000
1100
0000
0101
0000
,
0001
0100
0010
0100
0001
0000
1001
0000
,
1000
0100
0010
0100
1000
0000
1001
0000
,
0001
1000
0100
0000
1000
0001
0100
0010
,
0000
1010
0000
1000
0100
0010
0001
0000
,
1001
0000
0000
0000
,
0000
0000
0000
0000
;
#NOTES:
     dance-single:
     :
     Hard:
     15:
     :
0000
0000
0000
0000
,
0000
0000
0000
0000
,
0000
0000
0000
0000
,
0000
0000
0000
0000
,
0000
0000
0000
0000
,
0000
0000
0000
0000
,
1000
0000
1100
0000
0001
0010
0100
1000
,
0020
0000
0000
0130
0000
0000
0110
0000
,
0001
0100
0010
1000
0001
0100
0010
1000
,
0002
0000
0000
0000
0000
0000
0000
0000
1003
0100
0010
0001
1000
0000
0000
0000
,
1001
0000
0000
0000
0001
0100
0010
1000
0010
0000
0000
0100
0000
0000
0010
0000
,
1000
0000
0100
0000
0010
0001
0000
0001
0000
0000
1000
0000
0001
0000
1000
0000
,
1001
0000
0000
0000
1000
0100
0000
0100
0000
0000
0001
0000
0100
0000
1000
0000
,
0001
0000
0000
0100
0000
0000
0010
0000
1000
0100
1000
0000
0001
0000
0000
0000
,
1001
0000
0000
0000
1000
0010
0100
0001
0100
0000
0000
0010
0000
0000
0100
0000
,
0001
0000
0000
0010
0000
0000
0100
0000
0000
1000
0000
0000
0001
0000
0000
0000
,
1001
0000
0000
0000
0001
0010
0100
1000
0001
0000
0000
0100
0000
0000
0010
0000
,
1000
1010
0000
0110
0000
0101
1001
0000
,
0001
0000
0100
0010
0100
0000
0010
1000
0010
0000
1000
0000
0100
0000
0010
0000
,
0001
0010
0000
0001
0010
0000
0100
1000
0100
0000
1000
0000
0001
1000
0001
0000
,
1000
0100
0010
0000
0001
0000
1000
0000
0001
0100
0010
0000
1000
0000
0001
0000
,
1000
0100
0000
0001
0000
0000
1000
0010
0000
0001
0000
0000
1001
0000
0000
0000
,
1000
0000
0100
0010
0100
0000
0010
0001
0010
0000
0001
0000
0100
0000
0010
0000
,
1000
0010
1000
0010
1000
0000
0010
0000
0100
0001
0100
0001
0100
0000
0010
0000
,
1000
0100
0010
0000
0001
0100
0010
0000
1000
0100
0010
0000
0001
0000
1000
0000
,
0001
0100
0000
1000
0000
0000
0001
0010
0000
1000
0000
0000
1001
0000
0000
0000
,
1000
0100
0000
1000
0100
0000
0010
0001
0000
0010
0001
0010
0001
0000
0000
0000
,
0001
0100
0001
0100
0001
0000
0100
0000
0000
0010
1000
0010
1000
0000
0000
0000
,
1000
0001
0000
0100
0010
0000
1000
0001
0000
0100
0010
0100
0010
0000
0100
0000
,
0001
1000
0001
1000
0001
0000
0010
0100
0000
1000
0001
0010
0100
0000
0000
0000
,
1000
0100
0000
0100
0010
0000
0010
0001
0000
0001
1000
0001
1000
0000
0000
0000
,
0001
0100
0001
0100
0010
0000
0010
1000
0000
1000
0001
1000
0001
0000
0000
0000
,
1000
0010
0000
0010
0100
0000
0100
0001
0000
0001
1000
0001
1000
0000
0000
0000
,
0001
0010
0001
0010
0100
0000
0100
1000
0000
1000
0001
1000
0001
0000
0000
0000
,
1000
0100
0001
0100
1000
0100
0001
0100
,
1000
0010
0001
0010
1000
0010
0001
0010
,
1000
0100
0001
0100
1000
0010
0001
0010
,
1000
0100
0010
0001
0010
0100
1000
0000
,
0002
0103
2000
3100
0002
0103
2000
3100
,
0002
0013
2000
3010
0002
0013
2000
3010
,
0002
0103
2000
3100
0002
0013
1000
0010
,
0002
0000
0000
0000
0000
1000
1003
0000
,
1000
0001
1000
0000
1000
0010
0100
0001
,
2000
0000
0000
0000
3100
0010
0100
0000
2000
0000
0000
0000
3000
0000
1000
0001
,
1000
0000
0000
0000
1000
0000
0001
0000
0000
0000
1001
0000
0000
0000
0001
0100
,
0020
0000
0000
0000
0030
0000
0010
0000
1000
0000
0001
0100
0001
0000
0000
0000
,
1000
0100
0010
0100
1000
0010
0100
0001
,
1000
0000
0000
0000
0001
0000
0100
0000
0000
0000
0010
0000
1000
0000
0010
0100
,
0010
0000
0010
1000
0000
1000
0100
0020
,
0000
0000
0000
0000
0030
0000
0000
0000
0001
1000
0001
1000
0001
0000
0000
0000
,
1000
0100
0010
0001
1000
0100
0010
0001
,
1000
0010
0100
0001
1000
0010
0100
0001
,
1000
0100
0001
0100
1000
0010
0001
0010
,
1000
0010
0100
0001
0010
0100
1000
0000
,
0002
0103
0002
0013
0002
0103
0002
0013
,
0200
1300
0200
0310
0200
0301
0200
0310
,
0002
1003
0020
0130
2000
3001
0010
0100
,
0002
0000
0000
0000
0000
1000
1003
0000
,
0001
0000
0100
0010
1000
0000
0100
0010
0001
0000
0010
0100
1000
0000
0010
0000
,
0100
0001
0100
0000
0010
1000
0010
0000
1000
0000
0100
0000
0001
0000
0100
0000
,
1000
0000
0001
0010
0100
0000
1000
0010
0100
0000
0001
0010
0100
0000
1000
0000
,
0001
0000
0100
0010
0000
0100
0010
0000
1000
0000
1000
0000
0001
0000
0001
0000
,
1000
0000
0010
0100
0001
0000
0010
0100
1000
0000
0100
0010
0001
0000
0100
0000
,
0010
1000
0010
0000
0100
0001
0100
0000
0001
0000
0010
0000
1000
0000
0010
0000
,
0001
0000
1000
0100
0010
0000
0001
0100
0010
0000
1000
0100
0010
0000
0001
0000
,
1000
0000
1010
0000
0001
0000
0101
0000
1000
0000
1001
0000
0001
1000
0001
1000
,
0001
0101
0000
0110
0000
1010
1000
1010
,
0000
1100
0000
0110
0000
0011
0001
0011
,
0001
0000
0010
0100
1000
0000
0001
0010
0100
0000
1000
0100
0010
0000
0011
0000
,
0001
0000
1000
0010
0000
0100
0000
0010
0000
1000
0001
1000
0001
0000
0100
0000
,
0020
0000
0130
0001
0200
0000
0310
1000
0020
0000
0130
0001
0200
0000
0300
0000
,
0002
0000
1003
0100
2000
0000
3001
0010
0002
0000
1003
0100
2000
0000
3000
0000
,
0020
0000
1030
0100
0020
0000
0031
0100
0020
0000
1030
0100
0020
0000
0030
0000
,
2002
0000
0000
0000
3003
0001
1000
0000
,
0001
0000
0010
0000
0100
0000
1000
0000
0010
0100
0010
0100
0010
0000
0100
0000
,
0001
0000
0100
0000
1000
0000
0100
0000
0001
0000
1000
0001
1000
0000
0000
0000
,
0001
0010
0001
0000
0100
0000
0010
0000
1000
0100
1000
0000
0010
0000
0100
0000
,
0001
0001
0010
0010
0100
0100
1000
1000
,
0001
0000
0100
0000
1000
0000
0100
0001
0100
0000
0010
0000
1000
0000
0100
0000
,
0010
0001
0010
0000
0001
1000
0000
0010
0000
1000
0000
0010
1000
0000
0000
0000
,
0001
0100
0010
0000
1000
0000
0001
0000
1000
0100
0010
0000
0001
0000
1000
0000
,
0010
0100
0000
0001
0000
1000
0001
0000
,
1001
0000
0000
0000
,
0000
0000
0000
0000
;
#NOTES:
     dance-double:
     :
     Easy:
     7:
     :
00000000
00000000
00000000
00000000
,
00000000
00000000
00000000
00000000
,
00000000
00000000
00000000
00000000
,
00000000
00000000
00000000
00000000
,
00000000
00000000
00000000
00000000
,
00000000
00000000
00000000
00000000
,
00001000
00001000
00010000
00000000
,
00010000
00010000
00001000
00000000
,
00001000
00010000
00000100
00001000
,
00000020
00000000
00000000
00000030
,
00000010
00001000
00000010
00001000
,
00000001
00000100
00000001
00000000
,
00001000
00000001
00001000
00000100
,
00010000
00001000
00010000
00000000
,
00001000
00010000
00001000
00100000
,
00010000
00100000
00010000
00000000
,
10000000
00010000
10000000
00100000
,
01000000
00010000
01000000
00000000
,
00010000
10000000
00010000
00010000
,
10000000
01000000
00100000
00000000
,
00100000
00001000
00010000
00001000
,
00010000
00000000
00011000
00000000
,
00010000
00000010
00001000
00001000
,
00000010
00001000
00000100
00000000
,
00001000
00000001
00000100
00000010
,
00001000
00000000
00001001
00000000
,
00000002
00000000
00000000
00000003
,
00000200
00000000
00000000
00000300
,
00002000
00000000
00000000
00003000
,
00020000
00000000
00000000
00030000
,
00100000
00000000
10010000
00000000
,
01000000
00000000
10010000
00000000
,
10000000
10000000
10000000
00000000
,
00010000
00010000
00010000
00000000
,
00010000
01000000
00010000
01000000
,
00001000
00010000
00001000
00000000
,
00010000
00001000
00010000
00000010
,
00001000
00000010
00001000
00000000
,
00000001
00000001
00000100
00000000
,
00000100
00000100
00001000
00000000
,
00001000
00001000
00010000
00000000
,
00022000
00000000
00000000
00033000
,
00001000
00100000
00010000
00010000
,
01000000
00100000
01000000
01000000
,
00010000
10000000
01000000
00000000
,
00100000
00010000
00100000
00000000
,
00100000
00001000
00010000
00010000
,
00000010
00001000
00000100
00000100
,
00001000
00000100
00000010
00000010
,
00000001
00001000
00000100
00000000
,
00001000
00000100
00001000
00000100
,
00010000
00001000
00010000
00000000
,
00001000
00010000
00001000
00100000
,
00010000
00100000
00010000
00000000
,
10000000
10000000
01000000
00000000
,
01000000
01000000
00010000
00000000
,
00010000
00010000
00001000
00000000
,
00022000
00000000
00000000
00033000
,
00001000
00010000
00000100
00010000
,
00001000
00010000
00000010
00000000
,
00001000
00000001
00000100
00000010
,
00001000
00000001
00000100
00000000
,
00000010
00010000
00001000
00010000
,
00000010
00010000
00001000
00000000
,
00100000
00001000
01000000
00010000
,
00100000
00001000
01000000
00000000
,
00010000
00010000
10000000
00000000
,
10000000
10000000
00010000
00000000
,
00010000
00100000
00001000
00010000
,
00000100
00001000
00000100
00000000
,
00001000
00001000
00000001
00000000
,
00000001
00000001
00000100
00000000
,
00000100
00001000
00010000
00000000
,
00022000
00000000
00000000
00033000
,
00010000
00001000
01000000
00010000
,
10000000
01000000
00100000
00000000
,
00010000
10000000
00010000
00100000
,
00001000
00010000
00001000
00000000
,
00011000
00000000
00011000
00000000
,
00010000
00001000
00000010
00000000
,
00000001
00000100
00000010
00001000
,
00000100
00010000
00001000
00000000
,
00011000
00000000
00000000
00000000
,
00000000
00000000
00000000
00000000
;
#NOTES:
     dance-double:
     :
     Medium:
     13:
     :
00000000
00000000
00000000
00000000
,
00000000
00000000
00000000
00000000
,
00000000
00000000
00000000
00000000
,
00000000
00000000
00000000
00000000
,
00000000
00000000
00000000
00000000
,
00000000
00000000
00000000
00000000
,
00010000
00000000
00011000
00000000
00001000
00010000
00001000
00000000
,
00200000
00000000
00000000
00310000
00000000
00000000
10010000
00000000
,
10000000
01000000
10000000
00000000
00010000
01000000
00010000
00000000
,
20020000
00000000
00000000
30030000
,
10000000
01000000
10000000
00100000
10000000
01000000
00100000
00010000
,
01000000
00100000
01000000
00010000
00100000
00001000
00010000
00000000
,
00001000
00010000
00000100
00010000
00001000
00010000
00000010
00001000
,
00000100
00001000
00000010
00000100
00000010
00001000
00000001
00000000
,
00001000
00000001
00000010
00000001
00001000
00000100
00000010
00000100
,
00001000
00000100
00010000
00001000
01000000
00001000
00010000
00000000
,
00001000
00100000
00010000
00100000
00010000
01000000
00100000
01000000
,
00010000
00100000
00001000
00010000
00001000
00100000
00010000
00000000
,
10000000
01000000
00010000
00000000
00010000
01000000
10000000
00000000
,
10000000
01000000
00100000
00010000
00100000
00001000
00010000
00000000
,
00001000
00100000
00010000
01000000
00001000
00010000
01000000
00010000
,
00001000
00000000
00000000
00001000
00000000
00000000
00010000
00000000
00000000
00010000
00000000
00000000
00011000
00000000
00000000
00000000
,
00001000
00010000
00100000
00000000
00100000
00010000
00001000
00000000
,
00010000
00001000
00010000
00000100
00001000
00000100
00000010
00000000
,
00000001
00000100
00000010
00001000
00000100
00010000
00001000
00010000
,
00000100
00000000
00000000
00000100
00000000
00000000
00001000
00000000
00000000
00001000
00000000
00000000
00001001
00000000
00000000
00000000
,
00000010
00000000
00001001
00000000
00000001
00000100
00001000
00000000
,
00010000
00000000
00011000
00000000
00001000
00010000
00010000
00000000
,
00001000
00000000
00011000
00000000
00001000
00010000
00100000
10000000
,
00010000
00000000
01100000
00000000
10000000
00010000
10000000
00000000
,
00010000
00000000
00000000
01000000
00000000
00000000
00010000
00000000
00000000
00100000
00000000
00000000
00001000
00000000
00000000
00000000
,
00010000
00000000
00001000
00000000
00010000
00000000
00000000
00000010
00000000
00000000
00001000
00000000
00000010
00000000
00000000
00000000
,
00001000
00000000
00000000
00000100
00000000
00000000
00000010
00000000
00000000
00000001
00000000
00000000
00001000
00000000
00000000
00000000
,
00000001
00000000
00000100
00000000
00000001
00000000
00000000
00000100
00000000
00000000
00001000
00000000
00010000
00000000
00000000
00000000
,
00001000
00010000
00001000
00010000
00001000
01000000
00001000
00000000
,
01000000
00010000
01000000
00010000
00100000
00010000
00100000
00000000
,
00010000
10000000
00010000
10000000
01000000
00100000
01000000
00000000
,
00100000
00010000
00100000
00001000
00010000
00001000
00010000
00000000
,
00002000
00003020
00002030
00023000
,
00032000
00003200
00002300
00023000
,
00032000
00003020
00002030
00013000
,
00022000
00000000
00000000
00033000
,
00001000
00010000
00001000
00000000
01000000
00010000
01000000
00010000
,
00100000
00000000
00100000
01000000
10000000
00000000
10000000
01000000
,
00100000
00000000
00001000
00010000
00000000
00011000
00000000
00001000
,
00010000
00000000
00000100
00001000
00000100
00000010
00000001
00000000
,
00001000
00000100
00001000
00000000
00000010
00000100
00000010
00001000
,
00000010
00000000
00010000
00001000
00000000
00001000
00010000
00001000
,
00010000
00000000
00001000
01000000
00000000
00010000
00100000
00002000
,
00000000
00000000
00003000
00000000
00001000
00010000
00011000
00000000
,
00010000
00001000
00010000
00001000
00010000
00000100
00010000
00000000
,
00000100
00001000
00000100
00001000
00000010
00001000
00000010
00000000
,
00001000
00000001
00001000
00000001
00000100
00000010
00000100
00000000
,
00000010
00001000
00000010
00010000
00001000
00010000
00001000
00000000
,
00020000
00230000
00320000
00032000
,
00023000
02030000
03020000
00032000
,
00023000
00230000
00320000
00031000
,
00022000
00000000
00000000
00033000
,
00001000
00100000
00010000
00000000
01000000
00100000
10000000
00000000
,
01000000
00010000
00001000
00100000
00001000
00010000
00001000
00000000
,
00010000
00000010
00001000
00000000
00000100
00000010
00000001
00000000
,
00000100
00001000
00010000
00000010
00010000
00001000
00010000
00000000
,
00001000
00100000
00010000
01000000
00100000
01000000
00010000
00000000
,
10000000
01000000
00010000
01000000
00100000
00001000
00010000
00001000
,
00010000
00000010
00001000
00000100
00000010
00000100
00001000
00000000
,
00000001
00000100
00001000
00000100
00000010
00010000
00001000
00010000
,
00000000
00001000
00000000
00101000
00000000
00100000
00010000
01000000
,
00000000
01010000
00000000
01001000
00000000
00001000
00010000
00001000
,
00000000
00010000
00000000
00011000
00000000
00001000
00010000
00000100
,
00000000
00000000
00001000
00000010
00000000
00001000
00000000
00000000
00000001
00000000
00000100
00000000
00000001
00000000
00000000
00000000
,
00000002
00000203
00002300
00023000
,
00230000
20300000
32000000
03020000
,
00032000
00003020
00000032
00001003
,
00002002
00000000
00000000
00003003
,
00000001
00000010
00000001
00000000
00000100
00000010
00000100
00000000
,
00000010
00001000
00000010
00010000
00001000
00010000
00001000
00000000
,
01000000
00010000
01000000
00000000
00010000
00100000
00010000
00000000
,
10000000
01000000
10000000
01000000
00010000
00001000
00010000
00000000
,
00001000
00010000
00000010
00001000
00000010
00000100
00000001
00000000
,
00000010
00000001
00000100
00000000
00000010
00001000
00000100
00000000
,
00000010
00000001
00001000
00000010
00010000
00001000
00010000
00000000
,
00001000
00010000
00000000
00100000
00000000
10000000
00010000
00000000
,
10010000
00000000
00000000
00000000
,
00000000
00000000
00000000
00000000
;
#NOTES:
     dance-double:
     :
     Hard:
     15:
     :
00000000
00000000
00000000
00000000
,
00000000
00000000
00000000
00000000
,
00000000
00000000
00000000
00000000
,
00000000
00000000
00000000
00000000
,
00000000
00000000
00000000
00000000
,
00000000
00000000
00000000
00000000
,
00001000
00000000
00011000
00000000
00010000
00001000
00100000
00010000
,
20000000
00000000
00000000
30100000
00000000
00000000
01100000
00000000
,
00100000
10000000
00010000
01000000
00001000
00010000
00000010
00001000
,
00000002
00000000
00000000
00000000
00000000
00000000
00000000
00000000
00001003
00000100
00000010
00000001
00001000
00000000
00000000
00000000
,
00001001
00000000
00000000
00000000
00000001
00000100
00000001
00000100
00000010
00000000
00000000
00010000
00000000
00000000
00001000
00000000
,
00010000
00000000
01000000
00000000
10000000
00010000
00000000
00010000
00000000
00000000
01000000
00000000
00100000
00000000
01000000
00000000
,
01100000
00000000
00000000
00000000
10000000
00100000
00000000
00100000
00000000
00000000
10000000
00000000
01000000
00000000
00010000
00000000
,
00001000
00000000
00000000
00010000
00000000
00000000
00011000
00000000
00001000
00010000
00001000
00000000
00010000
00000000
00000010
00000000
,
00001010
00000000
00000000
00000000
00001000
00000010
00000100
00000001
00000100
00000000
00000000
00000010
00000000
00000000
00000001
00000000
,
00000010
00000000
00000000
00001000
00000000
00000000
00000010
00000000
00000000
00010000
00000000
00000000
00001000
00000000
00000000
00000000
,
00011000
00000000
00000000
00000000
00010000
00001000
00100000
00010000
00100000
00000000
00000000
00010000
00000000
00000000
01000000
00000000
,
00100000
20000000
00000000
30020000
00000000
01030000
01100000
00000000
,
10000000
00000000
00100000
01000000
00010000
00000000
00100000
01000000
10000000
00000000
00100000
00000000
00010000
00000000
00001000
00000000
,
00000100
00000010
00000000
00000100
00000010
00000000
00001000
00000001
00001000
00000000
00000100
00000000
00001001
00000000
00000000
00000000
,
00000001
00000100
00000010
00000000
00000100
00000000
00001000
00000000
00010000
00100000
01000000
00000000
00100000
00000000
10000000
00000000
,
01000000
00100000
00000000
00100000
00000000
00000000
00010000
10000000
00000000
10000000
00000000
00000000
10010000
00000000
00000000
00000000
,
10000000
00000000
01000000
00100000
00010000
00000000
01000000
00100000
10000000
00000000
01000000
00000000
00010000
00000000
00001000
00000000
,
00000010
00000100
00000010
00000000
00000001
00001000
00000001
00000100
00000010
00000000
00001000
00000010
00001000
00000000
00000001
00000000
,
00000100
00000000
00001000
00000000
00010000
00100000
00010000
00000000
00001000
00000000
00010000
00000000
01000000
10000000
01000000
00000000
,
10000000
00100000
00000000
00100000
00000000
00000000
01000000
00010000
00000000
00010000
00000000
00000000
10010000
00000000
00000000
00000000
,
10000000
00100000
00000000
10000000
00100000
00000000
01000000
00010000
00000000
01000000
00001000
01000000
00001000
00000000
00000000
00000000
,
00010000
00001000
00010000
00001000
00010000
00000000
00001000
00010000
00000000
00000100
00001000
00000000
00000100
00000000
00000000
00000000
,
00000010
00000001
00000000
00000010
00000001
00000000
00001000
00000100
00000000
00010000
00000100
00010000
00000100
00000000
00000000
00000000
,
00010000
00001000
00010000
00001000
00010000
00000000
00001000
00100000
00000000
00010000
00100000
00000000
01000000
00000000
00000000
00000000
,
10000000
00100000
00000000
00100000
01000000
00000000
01000000
00010000
00000000
00010000
00100000
00010000
00100000
00000000
00010000
00000000
,
00100000
00001000
00100000
00001000
00010000
00000000
00001000
00010000
00000000
00010000
00000100
00010000
00000100
00000000
00001000
00000000
,
00000010
00000100
00000000
00000100
00000001
00000000
00000001
00000010
00000000
00000010
00000100
00000010
00000100
00000000
00001000
00000000
,
00000100
00010000
00000100
00010000
00001000
00000000
01000000
00010000
00000000
01000000
00100000
01000000
00100000
00000000
00000000
00000000
,
10000000
01000000
00100000
00010000
10000000
01000000
00010000
00001000
,
00010000
00100000
01000000
00001000
00010000
01000000
00010000
00001000
,
00000010
00000100
00001000
00000100
00010000
00001000
00000100
00000010
,
00010000
00001000
00000010
00001000
00010000
00000100
00000010
00001000
,
00020000
00030100
00020000
00030010
00020000
00031000
00020000
00130000
,
00020000
00031000
00020000
00030100
00020000
00031000
00020000
01030000
,
00020000
00031000
00020000
00130000
00020000
00031000
00010000
00000000
,
00022000
00000000
00000000
00033000
,
00001000
00010000
00001000
00000000
00001000
00010000
00000010
00001000
,
00000002
00000000
00000000
00000000
00000013
00000100
00000010
00000000
00000002
00000000
00000000
00000000
00000003
00000000
00000001
00001000
,
00000001
00000000
00000000
00000000
00000001
00000000
00000100
00000000
00000000
00000000
00000110
00000000
00000000
00000000
00000010
00000100
,
00002000
00000000
00000000
00000000
00013000
00000000
00100000
00000000
10000000
00100000
10000000
00000000
00010000
00000000
00000000
00000000
,
10000000
01000000
00100000
00010000
01000000
00010000
00100000
01000000
,
10000000
00000000
00000000
00000000
00100000
00000000
01000000
00000000
00000000
00000000
00100000
00000000
00010000
00000000
00001000
00010000
,
00001000
00000000
00010000
00000010
00000000
00000010
00001000
00000200
,
00000000
00000000
00000000
00000000
00000300
00000000
00000000
00000000
00000010
00000100
00000010
00000100
00000010
00000000
00000000
00000000
,
00000001
00000100
00000010
00001000
00000001
00000100
00001000
00010000
,
00001000
00000010
00000100
00010000
00001000
00000100
00001000
00010000
,
00100000
01000000
00010000
01000000
00001000
00010000
01000000
00100000
,
00001000
00010000
00100000
00010000
00001000
01000000
00100000
00010000
,
00002000
01003000
00002000
00103000
00002000
00013000
00002000
00003010
,
00002000
00013000
00002000
01003000
00002000
00013000
00002000
00003100
,
00002000
00013000
00002000
00003010
00002000
00013000
00001000
00000000
,
00022000
00000000
00000000
00033000
,
00001000
00000000
00010000
00001000
01000000
00000000
00010000
00100000
01000000
00000000
10000000
00010000
01000000
00000000
00100000
00000000
,
10000000
00100000
10000000
00000000
00100000
00010000
00100000
00000000
00010000
00001000
00010000
00000000
00001000
00000000
00000000
00000000
,
00010000
00000000
00001000
00010000
00000100
00000000
00001000
00000010
00000100
00000000
00000001
00001000
00000100
00000000
00000010
00000000
,
00000001
00000010
00000001
00000000
00000010
00001000
00000010
00000000
00001000
00010000
00001000
00000000
00010000
00000000
00000000
00000000
,
00001000
00000000
01000000
00010000
00100000
00000000
01000000
10000000
00100000
00000000
00010000
00001000
00010000
00000000
00001000
00000000
,
00100000
00010000
00100000
00000000
00001000
00010000
00001000
00000000
00010000
00000000
00000100
00000000
00010000
00000000
00001000
00000000
,
00010000
00000000
00000100
00001000
00000010
00000000
00000100
00000001
00000010
00000000
00001000
00010000
00001000
00000000
00010000
00000000
,
00000010
00001000
00000010
00000000
00010000
00001000
00010000
00000000
00001000
00000000
01000000
00000000
00001000
00010000
00001000
00010000
,
00001000
00101000
00000000
01001000
00000000
00001000
00010000
00011000
,
00000000
00010010
00000000
00010100
00000000
00010000
00001000
00011000
,
00010000
00000000
00001000
00100000
00010000
00000000
01000000
00100000
01000000
00000000
00010000
00100000
00001000
00000000
00010000
00000100
,
00001000
00000000
00000010
00000100
00000000
00000100
00000000
00000010
00000000
00001000
00000001
00001000
00000001
00000000
00000100
00000000
,
00002000
00000000
00013000
00000000
00002000
00000000
00003010
00000000
00002000
00000000
00013000
00000000
00002000
00000000
01003000
00100000
,
00020000
00000000
00031000
00000000
00020000
00000000
01030000
00000000
00020000
00000000
00031000
00000000
00020000
00000000
00030010
00000100
,
00002000
00000000
00013000
00001000
00020000
00000000
00031000
00100000
00002000
00000000
00013000
00000100
00020000
00000000
00030000
00000000
,
00022000
00000000
00000000
00033000
,
00001000
00000000
01000000
00010000
01000000
00000000
00100000
00000000
10000000
00010000
10000000
00000000
01000000
00000000
00100000
00000000
,
01000000
00000000
00010000
00000000
00001000
00000000
00000010
00000000
00000001
00001000
00000001
00001000
00000001
00000000
00000100
00000000
,
00000010
00001000
00000010
00000000
00001000
00000000
00000100
00000000
00010000
00001000
00010000
00000000
00001000
00000000
00100000
00000000
,
00010000
01000000
10000000
01000000
00010000
10000000
10010000
00000000
,
10000000
00000000
01000000
00000000
00100000
00000000
00010000
00100000
00010000
00000000
00100000
00000000
00001000
00000000
00010000
00000000
,
00000100
00010000
00000100
00000000
00001000
00000100
00000000
00000010
00000000
00000001
00000000
00001000
00000001
00000000
00000000
00000000
,
00001000
00000001
00001000
00000000
00000001
00000000
00000100
00000000
00000010
00000000
00001000
00000000
00010000
00000000
01000000
00000000
,
00100000
10000000
00000000
01000000
00000000
00010000
00001000
00000000
,
00011000
00000000
00000000
00000000
,
00000000
00000000
00000000
00000000
;
