
//----- song ID: hesk -----//
#TITLE:閉塞的フレーション;
#ARTIST:Pizuya's Cell VS BEMANI Sound Team "dj TAKA";
#TITLETRANSLIT:Heisokuteki flation;
#BANNER:Heisokuteki flation.png;
#BACKGROUND:Heisokuteki flation-bg.png;
#CDTITLE:./CDTitles/DDR WORLD.png;
#MUSIC:Heisokuteki flation.ogg;
#SAMPLESTART:24.49;
#SAMPLELENGTH:15;
#BPMS:0=176;
#NOTES:
     dance-single:
     :
     Beginner:
     3:
     :
0000
0000
0000
0000
,
0000
0000
0000
0000
,
0000
0000
0000
0000
,
0000
0000
0000
0000
,
0000
0000
0000
0000
,
0000
0000
0000
0000
,
0000
0000
0000
0000
,
0000
0000
0000
0000
,
0000
0000
0000
0000
,
0000
0000
0000
0000
,
0001
0000
0000
0000
,
0001
0000
0000
0000
,
0010
0000
0000
0000
,
0000
0000
0000
0000
,
0010
0000
0000
0000
,
0010
0000
0000
0000
,
1000
0000
0000
0000
,
0000
0000
0000
0000
,
1000
0000
0000
0000
,
0010
0000
0000
0000
,
1000
0000
1000
0000
,
0010
0000
0000
0000
,
0001
0000
0000
0000
,
0010
0000
0000
0000
,
0001
0000
0001
0000
,
0010
0000
0000
0000
,
0001
0000
0000
0000
,
0100
0000
0000
0000
,
0001
0000
0001
0000
,
0100
0000
0000
0000
,
1000
0000
0000
0000
,
0100
0000
0000
0000
,
1000
0000
1000
0000
,
0100
0000
0000
0000
,
2000
0000
0000
0000
,
3000
0000
0000
0000
,
0020
0000
0000
0000
,
0030
0000
0000
0000
,
0002
0000
0000
0000
,
0003
0000
0000
0000
,
0001
0000
0010
0000
,
0001
0000
0000
0000
,
0002
0000
0000
0000
,
0003
0000
0000
0000
,
0020
0000
0000
0000
,
0030
0000
0000
0000
,
2000
0000
0000
0000
,
3000
0000
0000
0000
,
1000
0000
0010
0000
,
1000
0000
0000
0000
,
1001
0000
0000
0000
,
0000
0000
0000
0000
,
1001
0000
0000
0000
,
0000
0000
0000
0000
,
0001
0000
0001
0000
,
0100
0000
0000
0000
,
0010
0000
0000
0000
,
0000
0000
0000
0000
,
1000
0000
1000
0000
,
0100
0000
0000
0000
,
0010
0000
0000
0000
,
0000
0000
0000
0000
,
0001
0000
0000
0000
,
0010
0000
0000
0000
,
1000
0000
0000
0000
,
0000
0000
0000
0000
,
1000
0000
1000
0000
,
0010
0000
0000
0000
,
0001
0000
0000
0000
,
0000
0000
0000
0000
,
0001
0000
0001
0000
,
0010
0000
0000
0000
,
1000
0000
0000
0000
,
0000
0000
0000
0000
,
1000
0000
0000
0000
,
0100
0000
0000
0000
,
0001
0000
0000
0000
,
0000
0000
0000
0000
,
0001
0000
0000
0000
,
0100
0000
0000
0000
,
1000
0000
0000
0000
,
0000
0000
0000
0000
,
1000
0000
1000
0000
,
0010
0000
0000
0000
,
0010
0000
0000
0000
,
0000
0000
0000
0000
,
0001
0000
0001
0000
,
0010
0000
0000
0000
,
0010
0000
0000
0000
,
0100
0000
0000
0000
,
1001
0000
0000
0000
,
0000
0000
0000
0000
;
#NOTES:
     dance-single:
     :
     Easy:
     7:
     :
0000
0000
0000
0000
,
0000
0000
0000
0000
,
0000
0000
0000
0000
,
0000
0000
0000
0000
,
0000
0000
0000
0000
,
0000
0000
0000
0000
,
0000
0000
0000
0000
,
0000
0000
0000
0000
,
0000
0000
0000
0000
,
0000
0000
0000
0000
,
0001
1000
0001
0000
,
0001
1000
0001
0000
,
1000
0001
1000
0000
,
1000
0001
1000
0000
,
0010
0100
0010
0000
,
0010
0100
0010
0100
,
0000
0000
0000
0000
,
2002
0000
0000
3003
,
0001
0001
0010
0000
,
0001
0001
0100
0000
,
0001
0100
0010
1000
,
0002
0000
0000
0003
,
1000
1000
0100
0000
,
1000
1000
0010
0000
,
1000
0100
0010
0001
,
2000
0000
0000
3000
,
0001
0100
0001
0100
,
0001
0000
1001
0000
,
1000
0100
1000
0100
,
1000
0000
1001
0000
,
0001
0010
0001
0010
,
0001
0000
1001
0000
,
1000
0010
1000
0010
,
1000
0000
1001
0000
,
1000
1000
1000
0000
,
0001
0001
0001
0000
,
0100
0100
0100
0000
,
0010
0010
0010
0000
,
1000
0000
0010
0000
,
1010
0000
0000
0000
,
0001
0000
0010
0000
,
0011
0000
0000
0000
,
1000
0000
0100
0000
,
1100
0000
0000
0000
,
0001
0000
0100
0000
,
0101
0000
0000
0000
,
0001
0001
0100
0000
,
0010
0010
1000
0000
,
1000
1000
0100
0000
,
0010
0010
0001
0000
,
2000
0000
0000
0000
,
3000
0000
0000
0000
,
0002
0000
0000
0000
,
0003
0000
0000
0000
,
1000
0010
0100
0010
,
1000
0010
0100
0000
,
0001
0010
0100
0010
,
0001
0010
0100
0000
,
1000
0100
1000
0010
,
1000
0100
1000
0000
,
0001
0100
0001
0010
,
0001
0100
0001
0000
,
1000
0010
0100
0100
,
0001
0010
0100
0100
,
1000
0001
1000
0010
,
0100
0000
0110
0000
,
0001
0100
0010
1000
,
0001
0000
0100
0000
0010
1000
0010
0000
,
1000
0000
1010
0000
,
1000
0100
0010
0001
,
1000
0001
0100
0010
,
0100
0001
1000
0100
,
0010
0000
0011
0000
,
0001
1000
0001
0000
,
1000
0100
0001
0000
,
0100
0000
1000
0000
,
1000
0000
0110
0000
,
0001
0000
1001
0000
,
0001
0100
1000
0000
,
0100
0000
0001
0000
,
0001
0000
0110
0000
,
1000
0000
1001
0000
,
0001
0010
0001
0001
,
1000
0010
1000
1000
,
0100
0000
0110
0000
,
0001
1000
1001
0000
,
1000
0010
1000
1000
,
0001
0010
0001
0001
,
0100
0000
0110
0000
,
1000
0001
1000
1001
,
0000
0000
0000
0000
;
#NOTES:
     dance-single:
     :
     Medium:
     11:
     :
0000
0000
0000
0000
,
0000
0000
0000
0000
,
0000
0000
0000
0000
,
0000
0000
0000
0000
,
0000
0000
0000
0000
,
0000
0000
0000
0000
,
0000
0000
0000
0000
,
0000
0000
0000
0000
,
0000
0000
0000
0000
,
0000
0000
0000
0000
,
0001
1000
0001
0000
0100
0000
0100
0000
,
0001
1000
0001
0000
0010
0000
0110
0000
,
1000
0001
1000
0000
0100
0000
0100
0000
,
1000
0001
1000
0000
0010
0000
0110
0000
,
0001
0100
0010
1000
,
0001
0000
0100
0000
0010
0000
1000
0001
,
0000
0000
0000
0000
,
1000
0000
0000
0001
0000
0000
1000
0000
0002
0000
0000
0000
0003
0000
0000
0000
,
1000
0010
0100
0010
,
1000
0000
0100
0010
0001
0000
0001
0000
,
1000
0100
1000
0000
0001
0100
0001
0000
,
2000
3020
0230
0302
,
1003
0000
0000
1000
0100
0000
0000
0100
,
0010
0000
0000
0010
0001
0000
1000
0001
,
1000
0000
0000
0001
0100
0000
0100
0010
,
0000
1000
0010
0000
1010
0000
0101
0000
,
0001
0010
0100
0010
,
0001
0000
0100
0010
1000
0000
1000
0000
,
0001
0100
0001
0000
1000
0100
1000
0000
,
0002
0023
0230
2300
,
3001
0000
0100
0001
0100
0000
0001
0000
,
0010
0000
0000
0100
0000
0000
1000
0000
0100
0000
0000
0000
1000
0000
0000
0000
,
0001
1000
0100
0000
0010
0001
1000
0000
,
0010
0100
0010
0000
1010
0000
0101
0000
,
2002
3003
1001
0000
,
0220
0330
0110
0000
,
2020
3030
1010
0000
,
0202
0303
0101
0000
,
0001
0010
0001
0000
1000
0000
0100
0000
,
1000
0000
1000
0010
0000
0000
0100
0000
0100
0001
0000
0000
,
1000
0110
0001
0110
,
2002
0000
0000
3003
,
0001
0100
0010
1000
,
1100
0000
0011
0000
,
0101
0000
1010
0000
,
2002
0000
0000
3003
,
0001
0000
0001
0100
0000
0100
0010
0000
0000
1010
0000
0000
,
1000
0000
1000
0100
0000
0100
0010
0000
0000
0011
0000
0000
,
0001
0000
1000
0100
1000
0000
0001
0010
,
0001
0100
0010
1000
0001
0100
0010
0000
,
2000
0000
0000
3000
,
0020
0000
0000
0030
,
0200
0000
0000
0300
,
0002
0000
0000
0003
,
1000
0000
1000
0000
1000
0000
1000
0100
,
0010
0000
0010
0000
0010
0000
0010
0001
,
1000
0010
0100
0000
0001
0010
0100
0000
,
0220
0000
0330
0000
0001
1000
0001
0000
,
1000
0100
0001
0100
,
1000
0000
0001
0010
0100
0000
1000
0000
,
0001
0100
0010
0000
0100
0010
1000
0000
,
0001
0011
0110
1100
,
1001
0000
0000
0001
0100
0000
0010
0100
,
0010
0000
0000
1000
0100
0000
0010
0100
,
0010
0000
0000
0001
1000
0000
1000
0001
,
0000
1000
0010
1000
0001
0010
0001
0000
,
1000
0010
0001
0010
,
1000
0000
0001
0100
0010
0000
1000
0000
,
0001
0010
0100
0000
0010
0100
1000
0000
,
0001
0101
0110
1010
,
1001
0000
0001
0010
0001
0000
1000
0100
,
1000
0010
0110
1001
,
0001
0100
0010
0000
1000
0100
0010
0000
,
0002
0003
2000
3000
,
0001
0010
0001
0010
0001
0000
1001
0000
,
1000
0010
1000
0010
1000
0000
1001
0000
,
0001
0000
0001
0010
0000
0010
0100
0000
,
2000
3020
0230
0302
,
1003
0100
1000
0100
1000
0000
1001
0000
,
0001
0100
0001
0100
0001
0000
1001
0000
,
1000
0100
1000
0000
0100
0000
0010
0001
,
0000
0001
1000
0000
0010
0000
0110
0000
,
1000
0000
0010
1000
0000
0010
1000
0000
,
0001
0100
0000
0001
0100
0000
0110
0000
,
0001
0000
0010
0001
0000
0010
0001
0000
,
1000
0100
0000
1000
0100
0000
0110
0000
,
0001
0000
0000
0001
0000
0000
0001
0000
0100
0000
0000
0000
0110
0000
0000
0000
,
1000
0000
0000
1000
0000
0000
1000
0000
0100
0000
0000
0000
0110
0000
0000
0000
,
0001
1000
0001
0000
1000
0001
1000
0000
,
0010
0100
0010
0000
0100
0010
0100
0010
,
0000
0000
0000
0000
;
#NOTES:
     dance-single:
     :
     Hard:
     14:
     :
0000
0000
0000
0000
,
0000
0000
0000
0000
,
0000
0000
0000
0000
,
0000
0000
0000
0000
,
0000
0000
0000
0000
,
0000
0000
0000
0000
,
0000
0000
0000
0000
,
0000
0000
0000
0000
,
0000
0000
0000
0000
,
0000
0000
0000
0000
,
0001
0010
0100
1000
0100
0010
0001
0010
,
0100
0000
1000
0000
0100
0000
0010
0000
0001
0000
0000
0001
0000
0000
0001
0000
,
1000
0010
0100
0001
0100
0010
1000
0010
,
0100
0000
0001
0000
0100
0000
0010
0000
1000
0000
0000
1000
0000
0000
1000
0000
,
0002
0100
1000
0100
,
1000
0000
0103
0000
0001
0010
0100
1000
,
0000
0000
0000
0000
,
1000
0000
0000
0010
0000
0000
0010
0000
0100
0000
0000
0001
0000
0000
0001
0000
,
1000
0100
0010
0100
1000
0010
0100
0010
,
1000
0100
0010
0001
0101
0000
1001
0000
,
0001
0000
0100
0000
1000
0000
0100
0000
0001
0000
0010
0100
0010
0000
0001
0000
,
1000
0100
0001
0100
2000
0000
3002
0000
,
1003
0000
1000
0001
0010
0100
0010
0100
,
1000
0000
1000
0001
0100
0010
0100
0010
,
1000
0000
0100
0000
0010
0000
0001
0000
0100
0000
0010
1000
0010
0000
1000
0000
,
0000
1010
0010
0100
1000
0100
0001
1000
,
0001
0100
0010
0100
0001
0010
0100
0010
,
0001
0100
0010
1000
1100
0000
1001
0000
,
1000
0000
0100
0000
0001
0000
0100
0000
1000
0000
0010
0100
0010
0000
1000
0000
,
0001
0100
1000
0100
0002
0000
1003
0001
,
1000
0000
0001
1000
0010
0100
0010
0100
,
0001
0000
0000
0010
0000
0000
0100
0000
1000
0000
0000
0000
1001
0000
0000
0000
,
0001
0000
0100
0000
0010
0000
1000
0000
0100
0000
0010
0001
0010
0000
0001
0000
,
0010
0100
0001
0100
0010
0100
1000
0001
,
0202
0000
0000
0000
0303
0000
0000
0000
1000
0000
0000
1000
0000
0000
1000
0000
,
2020
0000
3030
0000
0001
0010
0001
0000
,
0022
0000
0000
0000
0033
0000
0000
0000
0001
0000
0000
0001
0000
0000
0001
0000
,
0202
0000
0000
0000
0303
0000
0000
0000
1000
0010
1000
0000
0100
0000
0000
0000
,
1000
0100
1000
0100
0010
0001
0010
0001
,
1000
0010
1000
0010
0100
0010
0100
0001
0100
0001
1000
0001
,
2000
0000
0000
3000
0100
0010
0002
0000
0000
0003
0100
0010
,
2000
0000
0000
3000
,
1000
0010
0001
0010
1000
0010
0001
0010
,
1000
0000
0000
0100
0000
0000
0100
0000
0001
0000
0000
0100
0000
0000
0100
0000
,
1000
0000
0001
0000
0100
0000
0010
1000
0010
0000
0100
0000
0001
0000
0010
0000
,
0100
0000
0000
1000
0000
0000
2002
0000
0000
0000
3003
0000
1000
0001
1000
0000
,
0001
0100
0001
0100
0001
0100
0001
0010
0001
0010
0000
0001
,
1000
0100
1000
0100
1000
0100
1000
0010
1000
0010
0000
0000
,
1001
0000
0001
0010
0001
0001
0100
0100
,
0010
0000
1000
0010
1000
0010
1000
0000
0001
0100
0001
0100
0001
0000
0000
0000
,
2000
0000
0000
3000
,
0200
0000
0000
0300
,
0020
0000
0000
0030
,
0002
0000
0000
0003
,
0001
0100
0001
0100
0001
0010
0001
0010
,
0100
1000
0100
1000
0010
1000
0010
1000
,
0001
0000
0100
0000
0010
0000
1000
0000
0100
0000
0010
0100
0010
0000
0001
0000
,
2000
0000
3000
0000
1000
0010
0001
0010
,
1000
0100
0010
0001
0100
0010
0001
0010
,
1000
0010
0100
0001
0010
0100
0001
0100
,
1000
0000
0001
0000
0010
0000
0100
0000
1000
0000
0001
0100
0010
0000
1000
0000
,
0100
0010
0011
0000
1000
0010
0110
0000
,
1001
0000
0001
0100
1000
0001
0010
1000
,
0001
0000
1000
0100
0001
1000
0010
0001
,
1000
0000
0100
0000
1000
0000
0100
0000
0010
0000
0001
0010
0001
0000
0011
0000
,
0000
0101
0001
1000
1010
0010
0110
0000
,
0001
0100
0010
1000
0100
0010
1000
0010
,
0001
0010
0100
1000
0010
0100
1000
0100
,
0001
0000
1000
0000
0010
0000
0100
0000
0001
0000
1000
0100
0010
0000
0001
0000
,
0100
0010
1010
0000
0001
0010
0110
0000
,
1001
0000
1000
0100
0001
1000
0010
0001
,
1000
0000
0001
0100
1000
0001
0010
1000
,
0001
0000
0100
0000
0001
0000
0100
0000
0010
0000
1000
0010
1000
0000
0010
0000
,
1000
0000
1000
0000
0100
0000
0100
0000
0010
0001
0010
0000
0001
0000
0000
0000
,
1000
0100
0010
0001
1000
0100
0010
0001
,
0100
0000
0010
0000
0100
0000
1000
0000
0100
0000
0001
1000
0001
0000
0100
0000
,
0010
1000
0010
0001
0010
1000
0001
0100
,
0010
1000
1010
0000
1000
0001
0101
0000
,
0100
0001
0010
0001
0100
0010
1000
0100
,
0010
0100
1000
0010
0100
0001
0010
0001
,
1000
0010
0100
0001
1000
0010
0100
0101
,
0000
0001
0100
1000
0001
0010
1000
0000
,
0001
0010
0010
0001
1000
1000
0001
0100
,
0100
0001
1000
1000
0001
0010
0001
0000
,
1000
0010
0010
1000
0001
0001
1000
0100
,
0100
1000
0001
0001
1000
0010
1000
0000
,
0001
0000
0100
0010
0000
0100
0010
0000
1000
0010
0000
1000
0010
0000
0000
0000
,
1000
0100
1000
0000
0100
0000
0010
0000
0001
0000
1000
0000
0001
0000
0000
0000
,
1000
0000
0001
0100
0000
0001
0100
0000
0010
0100
0010
0000
0100
0000
0000
0000
,
0001
0000
0010
0000
0100
0000
1000
0000
0001
1000
0001
0000
1000
0000
1001
0000
,
0000
0000
0000
0000
;
#NOTES:
     dance-double:
     :
     Easy:
     7:
     :
00000000
00000000
00000000
00000000
,
00000000
00000000
00000000
00000000
,
00000000
00000000
00000000
00000000
,
00000000
00000000
00000000
00000000
,
00000000
00000000
00000000
00000000
,
00000000
00000000
00000000
00000000
,
00000000
00000000
00000000
00000000
,
00000000
00000000
00000000
00000000
,
00000000
00000000
00000000
00000000
,
00000000
00000000
00000000
00000000
,
00001000
00010000
00001000
00010000
,
00001000
01000000
00001000
01000000
,
00010000
01000000
00010000
01000000
,
00100000
10000000
00100000
00000000
,
10000000
01000000
10000000
01000000
,
00100000
00010000
00100000
00001000
,
00000000
00000000
00000000
00000000
,
00022000
00000000
00000000
00033000
,
00001000
00001000
00010000
00000000
,
00000100
00000100
00001000
00000000
,
00000010
00000000
00000110
00000000
,
00000001
00001000
00000001
00000000
,
00000001
00000001
00000100
00000000
,
00000100
00000100
00000010
00000000
,
00000010
00010000
00001000
00010000
,
00002000
00000000
00000000
00003000
,
00010000
00001000
00010000
00000000
,
00001000
01000000
00001000
00000000
,
01000000
00010000
01000000
00100000
,
01000000
00000000
01100000
00000000
,
10000000
00100000
10000000
00100000
,
10000000
00010000
10000000
00000000
,
00010000
01000000
00010000
00100000
,
00010000
00000000
00100000
00000000
,
00002000
00000000
00003000
00000000
,
00020000
00000000
00030000
00000000
,
00010000
00000010
00001000
00000010
,
00000200
00000000
00000300
00000000
,
00000001
00000001
00001000
00000000
,
00000100
00000100
00010000
00000000
,
00001000
00001000
00100000
00000000
,
00010000
00010000
10000000
00000000
,
10000000
01000000
00100000
01000000
,
10000000
00000000
10010000
00000000
,
00010000
00100000
00001000
00010000
,
00001000
00000000
00011000
00000000
,
00001000
00000000
00010000
00000000
,
00000010
00001000
00000010
00000000
,
00000100
00000000
00000001
00000000
,
00000001
00000100
00001000
00000000
,
00020000
00000000
00000000
00000000
,
00030000
00000000
00000000
00000000
,
00002000
00000000
00000000
00000000
,
00003000
00000000
00000000
00000000
,
00001000
00010000
00001000
00000000
,
00010000
01000000
00010000
00000000
,
01000000
10000000
00100000
01000000
,
00010000
00000000
10010000
00000000
,
10000000
01000000
00010000
00000000
,
00001000
00010000
00001000
00000000
,
00001000
00000010
00000001
00000000
,
00001000
00000001
00001000
00000000
,
00000001
00000100
00001000
00000000
,
00010000
00001000
00010000
00000000
,
00010000
00100000
10000000
00000000
,
00010000
10000000
00010000
00000000
,
10000000
01000000
00100000
00010000
,
00001000
00000000
00000100
00000000
00000010
00000001
00000010
00000000
,
00000001
00000000
00001001
00000000
,
00000100
00000010
00000110
00000000
,
00000001
00000100
00000010
00001000
,
00010000
00000000
01000000
00000000
00100000
10000000
00100000
00000000
,
10000000
00000000
10010000
00000000
,
01000000
00100000
01100000
00000000
,
10000000
00100000
00010000
00000000
,
00001000
00000000
00001000
00000000
,
00010000
00001000
00010000
00000100
,
00010000
00000000
00011000
00000000
,
00010000
00001000
00000100
00000001
,
00001000
00000000
00001001
00000000
,
00000001
00000100
00000010
00000000
,
00001000
00000100
00000010
00000000
,
00000001
00000100
00000010
00000100
,
00000001
00000010
00000100
00001000
,
00000100
00010000
00001000
01000000
,
00010000
00000000
01100000
00000000
,
10000000
01000000
00010000
00001000
,
00000010
00000001
00001000
00000000
,
00000001
00000100
00001000
00010000
,
00100000
00100000
10000000
10000000
,
00000000
00000000
00000000
00000000
;
#NOTES:
     dance-double:
     :
     Medium:
     11:
     :
00000000
00000000
00000000
00000000
,
00000000
00000000
00000000
00000000
,
00000000
00000000
00000000
00000000
,
00000000
00000000
00000000
00000000
,
00000000
00000000
00000000
00000000
,
00000000
00000000
00000000
00000000
,
00000000
00000000
00000000
00000000
,
00000000
00000000
00000000
00000000
,
00000000
00000000
00000000
00000000
,
00000000
00000000
00000000
00000000
,
00010000
00001000
00010000
00000000
00000100
00000000
00000100
00000000
,
00001000
00000010
00001000
00000000
00000001
00000000
00000001
00000000
,
00000100
00000010
00000100
00000000
00000010
00001000
00000010
00000000
,
00010000
00001000
00010000
00000000
00001000
00000000
00011000
00000000
,
00010000
00001000
00100000
00010000
,
01000000
00100000
01000000
00000000
00010000
00000000
10000000
00010000
,
00000000
00000000
00000000
00000000
,
10000000
00000000
00000000
01000000
00000000
00000000
00100000
00000000
00020000
00000000
00000000
00000000
00030000
00000000
00000000
00000000
,
10000000
01000000
00010000
01000000
,
00100000
00000000
00001000
00010000
00001000
00000000
00011000
00000000
,
00010000
00000100
00001000
00000000
00000010
00001000
00000010
00000000
,
00000200
00000302
00002003
00003020
,
00000130
00000000
00000000
00000001
00000100
00000000
00001000
00000000
,
00010000
00000000
00000000
00001000
00010000
00000000
00100000
00000000
,
00010000
00000000
00000000
00001000
00010000
00000000
00010000
00000100
,
00000000
00001000
00000100
00000000
00000010
00000000
00000110
00000000
,
00000001
00000100
00001000
00000100
,
00000010
00000000
00010000
00001000
00010000
00000000
00011000
00000000
,
00001000
01000000
00010000
00000000
00100000
00010000
00100000
00000000
,
02000000
23000000
30020000
00230000
,
01300000
10000000
01000000
00010000
,
00001000
00000000
00000000
00010000
00000000
00000000
00000100
00000000
00001000
00000000
00000000
00000000
00000010
00000000
00000000
00000000
,
00001000
00000100
00010000
00000000
00001000
00000000
00001000
01000000
,
00010000
00000000
01100000
00000000
,
20020000
30030000
10010000
00000000
,
10000000
01000000
00010000
00001000
,
00022000
00033000
00011000
00000000
,
00010000
00001000
00000010
00000001
,
00001000
00000010
00001000
00000000
00000100
00000000
00010000
00000000
,
00001000
00000000
00001000
00100000
00000000
00000000
00010000
00000000
00010000
00100000
00000000
00000000
,
00010000
01000000
10000000
01000000
,
02200000
00000000
00000000
03300000
,
10000000
00100000
01000000
00100000
,
10000000
01000000
00100000
00010000
,
00100000
00001000
00010000
00001000
,
00022000
00000000
00000000
00033000
,
00010000
00000000
00010000
00000100
00000000
00000100
00001000
00000000
00000000
00001010
00000000
00000000
,
00000010
00000000
00000010
00000100
00000000
00000100
00000001
00000000
00000000
00001001
00000000
00000000
,
00001000
00000000
00000100
00001000
00000100
00010000
00001000
00000000
,
00010000
00001000
00010000
00001000
00100000
00010000
00100000
00010000
,
02000000
00000000
00000000
03000000
,
00200000
00000000
00000000
00300000
,
20000000
00000000
00000000
30000000
,
00020000
00000000
00000000
00030000
,
00100000
00000000
00100000
00000000
00001000
00010000
00001000
00000000
,
00010000
00000000
00010000
00000000
00000010
00001000
00000010
00000000
,
00001000
00000100
00000010
00000000
00000001
00000100
00000010
00000000
,
00000220
00000330
00002002
00003003
,
00000001
00000100
00000010
00000100
,
00001000
00000000
00010000
00001000
00010000
00000000
00011000
00000000
,
00001000
00100000
00010000
00000000
01000000
00010000
00100000
00000000
,
00010000
10010000
10000000
10010000
,
00010000
00000000
00000000
10000000
01000000
00000000
00100000
01000000
,
00100000
00000000
00000000
00001000
00010000
00000000
00001000
00010000
,
00001000
00000000
00000000
00010000
00001000
00000000
00001000
00000010
,
00000000
00000010
00000001
00000000
00001000
00000100
00000010
00000000
,
00000001
00000010
00000100
00000010
,
00001000
00000000
00010000
00001000
00010000
00000000
00011000
00000000
,
00001000
01000000
00010000
00000000
00100000
00010000
10000000
00000000
,
00100000
01100000
01000000
01100000
,
00010000
00000000
10000000
01000000
00100000
00000000
00010000
00100000
,
01000000
00000000
10000000
00000000
00100000
01000000
00001000
00000000
,
00010000
00001000
00010000
00000000
00001000
00010000
00000100
00000000
,
00002000
00003000
00000002
00000003
,
00000001
00000010
00000001
00000000
00001000
00000010
00001000
00000000
,
00000001
00000000
00000100
00000000
00001000
00010000
00001000
00000000
,
00010000
00100000
00010000
00000000
00100000
10000000
00100000
00000000
,
20000000
32000000
03200000
00320000
,
10030000
01000000
00100000
00000000
00001000
00100000
00001000
00000000
,
00010000
00000100
00001000
00000100
,
00000010
00000001
00001000
00000000
00000010
00000100
00000010
00000100
,
00000000
00000100
00000001
00000000
00001000
00000000
00001100
00000000
,
00000100
00000000
00010000
00001000
00000000
00010000
00001000
00000000
,
00100000
00010000
00000000
00100000
00010000
00000000
01000000
00000000
,
00010000
00000000
01000000
00010000
00000000
01000000
00001000
00000000
,
00010000
00001000
00000000
00010000
00000100
00000000
00001100
00000000
,
00001000
00000000
00000000
00000100
00000000
00000000
00000010
00000000
00000001
00000000
00000000
00000000
00001001
00000000
00000000
00000000
,
00000001
00000100
00000010
00000000
00010000
00000000
00011000
00000000
,
00001000
00100000
00010000
00100000
,
01000000
10000000
00100000
00000000
00010000
00000000
00001000
00010000
,
00000000
00000000
00000000
00000000
;
#NOTES:
     dance-double:
     :
     Hard:
     14:
     :
00000000
00000000
00000000
00000000
,
00000000
00000000
00000000
00000000
,
00000000
00000000
00000000
00000000
,
00000000
00000000
00000000
00000000
,
00000000
00000000
00000000
00000000
,
00000000
00000000
00000000
00000000
,
00000000
00000000
00000000
00000000
,
00000000
00000000
00000000
00000000
,
00000000
00000000
00000000
00000000
,
00000000
00000000
00000000
00000000
,
00001000
00000000
00010000
00000000
00100000
01000000
00100000
00000000
,
00010000
00000000
00000000
00000000
00011000
00000000
00000000
00000000
00001000
00000000
00000000
00010000
00000000
00000000
00001000
00000000
,
00010000
00000000
00001000
00000000
00000010
00000100
00000010
00000000
,
00001000
00000000
00000000
00000000
00011000
00000000
00000000
00000000
00010000
00000000
00000000
00001000
00000000
00000000
00010000
00000000
,
00001000
00100000
00001000
00100000
00010000
01000000
00010000
01000000
,
00100000
10000000
00100000
10000000
00010000
10000000
00010000
10000000
,
00000000
00000000
00000000
00000000
,
10000000
00000000
00000000
01000000
00000000
00000000
01000000
00000000
00100000
00000000
00000000
00010000
00000000
00000000
00010000
00000000
,
10000000
00100000
01000000
00100000
10000000
01000000
00100000
00001000
,
00010000
00000100
00010000
00001000
00010000
00100000
00010000
00000000
,
00001000
00000000
00010000
00000000
00000100
00000000
00001000
00000000
00000010
00000000
00001000
00000100
00001000
00000000
00000010
00000000
,
00000100
00000001
00000010
00000100
00001000
00000010
00000100
00000000
,
00000001
00000000
00000001
00000100
00001000
00010000
00001000
00000000
,
00011000
00000000
00001000
00010000
00100000
10000000
00010000
00000000
,
10000000
01000000
00100000
00001000
00010000
00000100
00001000
00000010
,
00000000
00000010
00001000
00000100
00000001
00000100
00001000
00000000
,
00000001
00000010
00000100
00000010
00000001
00000100
00000010
00010000
,
00001000
01000000
00001000
00010000
00001000
00000010
00001000
00000000
,
00010000
00000000
00001000
00000000
01000000
00000000
00010000
00000000
00100000
00000000
00010000
01000000
00010000
00000000
00100000
00000000
,
01000000
10000000
00100000
01000000
00010000
00100000
01000000
00000000
,
10000000
00000000
10000000
01000000
00010000
00001000
00010000
00000000
,
00011000
00000000
00010000
00001000
00000010
00000001
00001000
00000000
,
00000001
00000100
00000010
00010000
00001000
01000000
00010000
00100000
,
00020000
00000000
02030000
00000000
13000000
01000000
00010000
01000000
,
00002000
00000000
00000000
00000000
00003000
00000000
00000000
00000000
00010000
00000000
00000000
00000100
00000000
00000000
00001000
00000000
,
00000020
00000000
00000030
00000000
00001000
00000001
00000100
00001000
,
00020000
00000000
00000000
00000000
00030000
00000000
00000000
00000000
00001000
00000000
00000000
00100000
00000000
00000000
00010000
00000000
,
02000000
00000000
00000000
00000000
03000000
00000000
00000000
00000000
00100000
01000000
00100000
00000000
10000000
00000000
00010000
00000000
,
10000000
01000000
10000000
01000000
00100000
00010000
00100000
00001000
,
00010000
00001000
00010000
00000010
00010000
00000010
00001000
00000010
00001000
00000010
00000000
00000000
,
00002000
00000000
00000000
00003000
00000001
00000010
00000200
00000000
00000000
00000300
00010000
00001000
,
00020000
00000000
00000000
00030000
,
00001000
00010000
00001000
00010000
01000000
10000000
01000000
10000000
,
00100000
00010000
00100000
00010000
00001000
00000100
00001000
00000100
,
00000001
00000010
00001000
00010000
00000100
00000010
00001000
00010000
,
00001000
00000000
00000000
00000100
00000000
00000000
00000002
00000000
00000000
00000000
00000003
00000000
00001001
00000000
00000000
00000000
,
00000001
00000100
00000001
00000100
00000001
00000100
00000010
00001000
00000010
00001000
00000000
00000010
,
00010000
00001000
00010000
00001000
00010000
00001000
01000000
00010000
01000000
00010000
00000000
00000000
,
10010000
00000000
10000000
01000000
00010000
00010000
00001000
00001000
,
00000010
00000000
00000001
00000010
00000100
00000000
00001000
00000010
00000100
00000000
00000001
00001000
00000001
00000000
00000000
00000000
,
00002000
00000000
00000000
00003000
,
00000200
00000000
00000000
00000300
,
00020000
00000000
00000000
00030000
,
00002000
00000000
00000000
00003000
,
01000000
00010000
01000000
00000000
00010000
00100000
01000000
10000000
,
00100000
00000000
00100000
00010000
00001000
00000100
00000001
00000000
,
00001000
00000000
00000100
00000000
00000010
00000000
00000001
00000000
00000100
00000000
00001000
00010000
00001000
00000000
00010000
00000000
,
00002000
00000000
00003000
00000000
00001000
00100000
00010000
00100000
,
01000000
10000000
00100000
01000000
00010000
00100000
00001000
00010000
,
00000100
00001000
00000010
00000100
00000001
00000010
00001000
00000010
,
00000001
00000000
00000100
00000000
00001000
00000000
00010000
00000000
00000010
00000000
00000100
00000010
00000100
00000000
00000010
00000000
,
00001000
00000100
00010100
00000000
00010000
00001000
00101000
00000000
,
00110000
00000000
00010000
01000000
00100000
00010000
00001000
00010000
,
00100000
00000000
10000000
01000000
00100000
00001000
00010000
01000000
,
00100000
00000000
00000000
00000000
00001000
00000000
00010000
00000000
00000100
00000000
00001000
00000010
00001000
00000000
00001010
00000000
,
00000000
00000010
00010000
00001000
00000010
00000001
00001000
00000010
,
00000100
00000001
00000010
00000100
00001000
00000010
00010000
00001000
,
01000000
00010000
00100000
01000000
10000000
00100000
00010000
00100000
,
10000000
00000000
01000000
00000000
00010000
00000000
00001000
00000000
00100000
00000000
01000000
00100000
01000000
00000000
00100000
00000000
,
00010000
01000000
01001000
00000000
00001000
00010000
00010010
00000000
,
00001010
00000000
00001000
00000100
00000010
00001000
00010000
00001000
,
00000010
00000000
00000001
00000100
00000010
00010000
00001000
00000100
,
00000010
00000000
00000000
00000000
00010000
00000000
00001000
00000000
01000000
00000000
00010000
00100000
00010000
00000000
00100000
00000000
,
00001000
00010000
00000100
00001000
00000010
00000100
00000001
00000000
,
00001000
00000100
00000001
00000100
00001000
00000010
00000001
00000010
,
00001000
00000100
00010000
00001000
00100000
00010000
01000000
00010000
,
10000000
01000000
00010000
01000000
10000000
00100000
00010000
00100000
,
10000000
00000000
10000000
01000000
00100000
00010000
00001000
00000100
,
00000010
00000001
00000100
00000001
00000010
00000100
00010000
00001000
,
00010000
01000000
00100000
00001000
00010000
01000000
00100000
00001000
,
00010000
00100000
00010000
00100000
10000000
00100000
10000000
10100000
,
00000000
10000000
00100000
01000000
01010000
00000000
10010000
00000000
,
10000000
00100000
00100000
01000000
00100000
00100000
10000000
01000000
,
01000000
00010000
00001000
00001000
00010000
00000100
00001000
00000000
,
00000010
00000100
00000100
00000001
00000100
00000100
00000001
00000010
,
00000010
00000100
00000001
00000100
00010000
00000000
00011000
00000000
,
00001000
00000000
00100000
00010000
00000000
00100000
00010000
00000000
01000000
00100000
00000000
01000000
00100000
00000000
10000000
00000000
,
01000000
00000000
00100000
00000000
00001000
00000000
00010000
00000000
00000100
00001000
00000100
00000000
00000010
00000000
00000000
00000000
,
00000001
00000000
00000100
00000010
00000000
00000100
00000010
00000000
00001000
00000010
00001000
00000000
00000010
00000000
00010000
00000000
,
00000000
00010000
00001000
01000000
00010000
00100000
01000000
01100000
,
00000000
00000000
00000000
00000000
;
