
//----- song ID: hkrs -----//
#TITLE:はるかぜリスタート!;
#ARTIST:qfeileadh feat.Risa Kodaka;
#TITLETRANSLIT:Harukaze restart!;
#BANNER:Harukaze restart!.png;
#BACKGROUND:Harukaze restart!-bg.png;
#CDTITLE:./CDTitles/DDR WORLD.png;
#MUSIC:Harukaze restart!.ogg;
#SAMPLESTART:77.967;
#SAMPLELENGTH:15;
#BPMS:0=164;
#TIMESIGNATURES:0=4=4,8=7=4,85=4=4,157=7=4,199=4=4,287=7=4,308=4=4;
#NOTES:
     dance-single:
     :
     Beginner:
     3:
     :
0000
0000
0000
0000
,
0000
0000
0000
0000
,
0000
0000
0000
0000
,
0000
0000
0000
0000
,
0000
0000
0000
0000
,
0000
0000
1000
0000
,
0000
1000
0000
0000
,
0000
0001
0000
0000
,
0001
0000
0000
0000
,
0010
0000
0000
0000
,
0000
0000
0000
0100
,
0000
0000
0000
0000
,
0000
0000
1000
0000
,
0000
1000
0000
0000
,
0000
0001
0000
0000
,
0001
0000
0000
0000
,
2000
0000
3000
0000
,
0000
0000
0000
0002
,
0000
0003
0000
0000
,
0000
0000
2000
0000
,
3000
0000
0000
0000
,
0000
0020
0000
0030
,
0000
0000
0000
0000
,
0000
1000
0000
0000
,
0000
1000
0000
0000
,
0000
0001
0000
0000
,
0000
0001
0000
0000
,
0000
0010
0000
0000
,
0000
0010
0000
0000
,
0000
0010
0000
0000
,
0000
0010
0000
0000
,
0000
0001
0000
0000
,
0000
0001
0000
0000
,
0000
1000
0000
0000
,
0000
1000
0000
0000
,
0000
0010
0000
0000
,
0000
0000
0000
0000
,
0010
0000
0000
0000
,
0010
0000
0000
0000
,
0000
1000
0000
0000
,
1000
0000
0000
0000
,
0001
0000
0000
0001
,
0000
0000
0000
1000
,
0000
0000
1000
0000
,
0000
0000
0001
0000
,
0000
0001
0000
0000
,
0000
1000
0000
0000
,
0000
0000
0000
0000
,
0001
0000
0000
0000
,
0000
0000
0000
1000
,
0000
0000
0000
1000
,
0000
0000
0000
0001
,
0000
0000
0000
0000
,
0000
0000
0000
1000
,
0000
0000
0000
1000
,
0000
0000
0000
0001
,
0000
0000
0000
0001
,
0000
0000
0000
0010
,
0000
0000
0000
0010
,
0000
0000
0000
0010
,
0000
0000
0000
0000
,
0000
0000
0000
0001
,
0000
0000
0000
0001
,
0000
0000
0000
1000
,
0000
0000
0000
1001
,
0000
0000
0000
1000
,
0000
0000
0000
1000
,
0000
0000
0000
0001
,
0000
0000
0000
0001
,
0000
0000
0000
0010
,
0000
0000
0000
0010
,
0000
0000
0000
0002
,
0000
0003
0000
0000
,
0000
0000
2000
0000
,
3000
0000
0000
0000
,
0000
0002
0000
0003
,
0000
0000
0000
0000
,
0020
0000
0030
0000
,
0000
0000
0000
0000
;
#NOTES:
     dance-single:
     :
     Easy:
     6:
     :
0000
0000
0000
0000
,
0000
0000
0000
0000
,
0000
0000
0000
0000
,
0000
0000
0000
0000
,
0000
0000
0000
0000
,
0000
0000
2000
0000
,
0000
3010
0000
1000
,
0000
0002
0000
0000
,
0013
0000
0001
0000
,
2002
0000
3003
0000
,
1000
0000
0000
0001
,
0010
0100
1000
0000
,
0001
0000
0100
0000
,
0000
0010
0000
1000
,
0000
0001
1000
0001
,
2002
0000
3003
0000
,
1000
0100
1000
0000
,
0001
0000
0100
0001
,
0010
0001
0000
1000
,
0000
0010
1000
0001
,
1000
0000
0010
0000
,
0100
0001
1000
0001
,
0000
0010
0100
0010
,
0010
0001
0000
0001
,
0000
0100
0000
0100
,
0000
0010
1000
0010
,
1000
1000
0000
0001
,
0000
1000
0100
0010
,
0001
0010
0100
1000
,
0000
0001
0100
0001
,
0000
1001
0000
0000
,
0000
1000
0010
0100
,
0001
0100
0010
1000
,
0001
0000
0000
0001
,
0000
1000
0000
0001
,
0000
1000
0100
1000
,
0001
0010
0001
0000
,
0110
0000
0010
0000
,
1001
0000
0001
1000
,
0001
1000
0100
1000
,
0000
0001
0000
0001
,
0010
0100
0010
0000
,
0001
0000
1000
0010
,
0100
0010
1000
0000
,
0001
0001
0001
0010
,
0001
1000
0100
0000
,
0000
1000
0001
0100
,
0010
1000
0001
0010
,
0100
1000
0001
0100
,
0001
1000
0010
1000
,
1000
0001
0001
0100
,
0100
0010
0010
0220
,
0000
0000
0000
0330
,
0000
0000
0000
2000
,
0000
0000
3100
1000
,
0100
0010
0000
0001
,
0010
0100
0000
0010
,
0100
1000
0000
1000
,
0000
0010
0000
0001
,
0000
0010
0000
1000
,
0000
0001
0000
1000
,
1000
0001
0001
0010
,
0000
0010
0000
0100
,
0000
1000
0000
1000
,
0010
0100
0001
0200
,
0000
0020
0330
1000
,
0100
1000
0000
0001
,
0010
0001
0000
1000
,
0000
0100
0000
0010
,
0000
0001
0000
0100
,
0000
0010
0000
1000
,
1000
0010
0010
1000
,
0010
1000
0000
0001
,
0000
0010
0001
0100
,
0001
0000
1000
0000
,
0100
1000
0001
1000
,
0000
0100
0000
0010
,
0001
1000
0001
0000
,
0100
0010
0000
0000
,
0000
0000
0000
0000
;
#NOTES:
     dance-single:
     :
     Medium:
     12:
     :
0000
0000
0000
0000
,
0000
0000
0000
0000
,
0000
0000
0000
0000
,
0000
0000
0000
0000
,
0000
0000
0000
0000
,
0000
0000
0000
0000
1000
0100
0010
0001
,
0010
0000
0002
0000
0000
0000
0010
0013
,
0000
0000
0001
0000
0001
0010
0000
0010
,
0200
0000
0000
0310
,
0002
1000
0100
0010
,
1003
0001
0010
0100
1000
0100
0010
0000
,
0010
0001
0000
2000
0001
0000
0100
0000
,
0010
0000
3001
1000
0010
1000
0001
0100
,
0001
0000
2200
0000
3300
0001
0010
0001
,
0000
0000
1000
0000
1000
0010
0000
0100
,
0002
0000
0000
1003
,
1000
0100
1000
0010
1000
0001
1000
0100
,
1000
0010
1000
0001
1000
1000
0001
0100
,
0001
0010
0001
1000
0001
0100
0001
0010
,
0001
1000
0001
0001
0100
0001
0100
0010
,
0100
1000
0100
0010
0100
0001
0100
0010
,
0100
0100
0010
1000
0010
0100
0010
0001
,
0010
0100
0010
1000
0010
0100
0010
0010
,
0010
0010
0000
0000
1100
0000
0001
0000
,
0011
1000
1010
0001
,
0101
0000
0000
1000
0100
0010
0001
1000
,
0001
1000
0001
0000
1000
0100
1000
0000
,
0001
0010
0001
0000
1100
0000
1001
0000
,
0101
0000
0002
0000
0013
0001
0000
0001
,
0020
0000
0000
0030
0001
1000
0000
0000
,
1000
0000
0100
0000
0010
0000
0001
0000
0100
0000
0010
0000
0100
0000
0000
0100
,
0000
0100
0001
0000
0100
0001
0010
0100
,
1000
0010
1010
0000
0010
1000
0100
0010
,
0012
0100
0010
1003
,
1000
0100
0010
0100
0010
0001
1000
0100
,
0010
0001
0011
0000
1100
0000
0110
0000
,
1001
0000
0101
0000
0001
0010
0000
0001
,
0200
0001
1000
0301
,
0001
0010
0001
1000
0100
1000
0010
0100
,
0010
0000
1000
0100
0000
0001
0100
0000
,
1000
0010
0000
0001
0010
0000
0010
0000
,
1000
0010
0000
0001
0010
0000
1000
0100
,
0000
0001
0100
0000
0100
0000
1000
1000
,
0000
0010
0010
0000
0100
0100
0000
0001
,
0001
0000
0100
0000
0001
0101
0000
1000
,
1010
0000
0010
0110
0000
1000
1001
0000
,
0000
2000
3200
0302
,
2003
3002
0203
2300
,
3020
0230
2300
3002
,
2003
0000
3200
0000
0301
0000
1000
0100
,
1000
0000
0100
0000
1000
0000
0000
1000
0000
0000
1000
0000
0001
0000
0010
0000
,
0001
0000
0010
0000
0001
0000
0000
0001
0000
0000
0001
0000
1000
0000
0100
0000
,
0010
0001
1000
0010
0100
0001
0200
0000
,
0310
1000
1000
0001
0010
0000
2002
0000
,
0000
0000
0000
3003
0010
0000
0110
0000
,
1000
0001
0010
0001
0100
0000
0110
0000
,
0001
1000
0010
1000
0100
0000
0110
0000
,
1000
0010
0100
0001
0010
0000
1100
0000
,
0001
0100
1000
0100
0001
0000
0011
0000
,
1000
0100
0001
0100
1000
0000
1100
0000
,
0001
0010
0100
1000
0001
0100
0010
0000
,
1001
0000
0011
0000
1100
0000
1000
0010
,
0100
0000
0001
0000
0010
0000
0000
0100
0000
0000
0010
0000
0001
0000
0100
0000
,
0010
0000
1000
0000
0010
0000
0000
0100
0000
0000
0010
0000
1000
0000
0010
0000
,
1000
0010
0100
0001
0100
0001
0012
0000
,
0000
0000
2003
0000
0000
0000
3001
0010
,
0100
0000
0010
0000
0001
0000
0000
0001
0000
0000
0001
0000
1000
0000
0100
0000
,
0010
0000
0100
0000
1000
0000
0000
1000
0000
0000
1000
0000
0002
0000
0000
0000
,
0003
1000
0200
0000
0010
0010
0000
0001
,
0001
1300
1000
0002
,
0010
0013
0000
0000
0100
0000
0110
0000
,
1100
0000
0011
0000
1001
0000
0001
0010
,
0001
0100
0001
1000
0001
0010
0001
0100
,
0001
1000
0001
0001
1000
0010
1000
0100
,
1000
0001
1000
0010
1000
0100
1000
0001
,
1000
1000
0010
1000
0010
0100
0010
0001
,
0010
0100
0010
0001
0010
0100
0010
0010
,
0100
0001
0100
0010
0100
1000
0100
0010
,
0100
0100
0100
0110
0000
0000
0000
0000
,
0000
0000
0000
0000
;
#NOTES:
     dance-single:
     :
     Hard:
     15:
     :
0000
0000
0000
0000
,
0000
0000
0000
0000
,
0000
0000
0000
0000
,
0000
0000
0000
0000
,
0000
0000
0000
0000
,
0000
0000
0000
0000
1000
0100
0010
0001
,
0010
0100
1000
1000
0000
0010
0010
0100
,
0001
1000
0100
0100
0001
0100
0100
1000
,
0010
0010
0001
0010
0010
1000
0001
0001
,
0200
0001
1000
0010
,
0310
0001
0010
0100
0010
1000
0010
0000
,
1000
0000
0001
0000
0000
0000
0100
0000
0001
0000
1000
0100
1000
0000
0001
0000
,
1000
0000
0001
0010
0001
0000
0010
0000
0001
0000
0010
0000
0100
0000
1000
0000
,
0100
0000
2200
0000
3300
0001
0010
0001
,
0100
0010
1000
0000
0001
0010
0100
1000
,
0001
0010
0001
1000
0100
1000
1001
0000
,
1000
0100
1000
0100
1000
0000
0001
0010
0001
0010
0001
0000
1000
0010
1000
0010
,
1000
0000
0001
0100
0001
0100
0001
0000
1000
0000
0001
0000
1000
0010
1000
0010
,
1000
0000
0001
0100
0001
0100
0001
0000
1000
0100
1000
0100
1000
0000
0001
0010
,
0001
0010
0001
0000
1000
0000
0001
0000
1000
0100
1000
0001
0100
0000
0001
0010
,
0001
1000
0010
0000
1000
0100
0010
0001
0010
0000
0001
0010
0100
1000
0100
0000
,
1000
0000
0001
0000
0100
0010
0100
0010
0100
0000
0001
1000
0001
1000
0001
0000
,
0100
0010
0100
0010
0100
0000
0001
1000
0001
1000
0001
0000
0010
0000
0010
0000
,
0100
0100
1000
0000
1100
0000
0001
0000
,
0011
1000
1010
0001
,
0101
0000
0110
1000
0100
0010
0001
1000
,
0001
1000
0001
0000
1000
0100
1000
0000
,
0001
0010
0001
0000
1100
0000
1001
0000
,
0101
0000
0002
0000
0013
0001
0000
0001
,
1000
0100
1000
0100
0010
0001
0010
0001
,
1000
0000
0100
0000
0010
0000
0001
0000
0010
0000
0100
0010
0001
0000
1000
0100
,
0010
0000
0100
0000
1100
0000
0000
1000
0100
0000
1000
0000
0010
0000
0100
0000
,
0001
0000
0010
0000
0011
0000
0000
0001
0010
0000
0001
0000
0100
0000
0010
0000
,
2001
0000
0100
0000
0010
0000
3001
0010
,
0100
0000
1000
0000
0100
0000
0010
0001
0010
0000
0001
0000
1000
0000
0010
0000
,
1000
0100
0002
0000
0203
0000
2300
0000
,
3020
0000
0032
0000
0013
1000
0000
0001
,
0200
0001
1000
0301
,
0001
0010
0001
0000
1000
0100
1000
0000
0001
0010
0001
1000
0010
1000
0001
0100
,
0010
0000
1000
1100
0000
0001
0011
0000
,
0100
0110
0000
0001
1001
1000
0100
0010
,
0001
0011
0000
1000
1100
0000
0010
0110
,
0000
0000
1000
0000
1001
0000
0001
0000
0010
0000
0100
0000
1000
0100
1000
0000
,
0100
0000
0001
0100
0001
0000
0100
0000
1000
0100
1000
0000
0100
0000
0010
0001
,
0010
0210
2300
3020
,
0032
2003
3200
0301
,
2010
0000
0000
3001
0010
0100
1000
0100
0010
0001
0010
0100
,
1000
0100
0010
0001
1000
0010
0100
0001
0010
0100
1000
0010
,
0001
0010
0100
0001
1000
0100
0010
0001
0010
1000
0010
0100
,
1000
0000
0000
0000
0010
0000
0000
0000
0100
0000
0000
0000
0001
0000
0000
0000
0000
0000
0000
0000
0000
0101
0000
0000
0000
0000
0000
0000
0000
0000
0001
0000
0000
0000
0000
0000
1000
0000
0000
0000
0000
0000
0100
0000
0000
0000
0000
0000
,
1000
0000
0100
0000
1000
0000
0100
0010
0001
0000
0010
0000
0001
0000
0010
0000
,
0001
0000
0010
0000
0001
0000
0010
0100
1000
0000
0001
0000
1000
0000
1000
0000
,
0001
0000
0001
0000
0100
0010
0100
0010
0100
0010
0100
0010
0200
0000
0000
0000
,
0310
0000
1000
0100
1000
0000
0001
0000
0010
0000
0000
0000
2002
0000
0000
0000
,
0000
0000
0000
3003
0010
0100
0110
0000
,
1000
0000
0001
0010
0001
0000
0100
0000
0010
0000
1000
0000
1100
0000
0000
0000
,
1000
0000
0001
0100
0001
0000
0100
0000
0010
0000
1000
0000
1010
0000
0000
0000
,
1000
0000
0001
1000
0001
0000
0100
0000
0001
0000
0000
0000
0101
0000
0000
0000
,
1000
0000
0010
0100
0010
0000
0100
0000
0010
0000
0100
0000
0011
0000
0000
0000
,
1000
0000
0100
0010
0100
0000
1000
0000
0100
0000
0010
0000
0001
0000
1000
0000
,
0100
0000
1000
0100
0010
0000
0001
0010
0100
0000
1000
0000
1100
0000
0000
0000
,
0110
0000
0011
0000
1001
0000
1000
0100
,
1000
0000
0100
0000
1000
0000
0001
0010
0100
0000
1000
0000
0001
0000
0100
0000
,
0001
0000
0100
0000
0001
0000
1000
0010
0100
0000
0001
0000
1000
0000
0010
0000
,
1000
0000
0010
0000
1000
0000
0001
0100
0010
0000
1000
0000
0012
0000
0000
0000
,
0000
0000
0000
0000
2003
0000
0000
0000
3000
0000
0000
0000
0001
0010
0100
0000
,
1000
0000
0100
0010
0001
0000
0000
0010
0000
0000
0001
0000
0100
0000
1000
0000
,
0100
0000
1000
0100
0010
0000
0000
0100
0000
0000
0001
0000
2000
0000
0000
0000
,
3000
0001
0200
0000
0010
0010
0000
1000
,
1000
0000
0000
0000
0301
0000
1000
0100
1000
0000
0100
0000
1000
0000
0010
0000
,
0100
0000
0001
0000
0010
0000
1000
0010
0100
0010
0001
0010
0100
0000
0000
0000
,
1100
0000
0000
0000
0011
0000
0000
0000
1001
0000
0000
0000
1000
0100
1000
0100
,
1000
0000
0001
0010
0001
0010
0001
0000
1000
0100
1000
0001
0100
0000
0001
0010
,
0001
1000
0010
0000
1000
0000
0001
0000
1000
0010
1000
0010
1000
0000
0001
0100
,
0001
0100
0001
0000
1000
0010
1000
0001
0100
0000
0001
0100
0001
1000
0010
0000
,
1000
0000
0001
0000
1000
0010
0100
0010
1000
0000
0001
0100
0010
0100
0001
0000
,
1000
0100
0010
0001
1000
0000
0001
0010
0100
1000
0001
0000
1000
0000
0001
0000
,
1000
0100
1000
0010
0100
0000
0001
0010
0001
0100
0010
0000
1000
0001
1000
0001
,
1000
0110
0110
1001
0000
0000
0000
0000
,
0000
0000
0000
0000
;
#NOTES:
     dance-double:
     :
     Easy:
     6:
     :
00000000
00000000
00000000
00000000
,
00000000
00000000
00000000
00000000
,
00000000
00000000
00000000
00000000
,
00000000
00000000
00000000
00000000
,
00000000
00000000
00000000
00000000
,
00000000
00000000
00000000
00000000
,
20000000
00000000
31000000
00000000
,
00200000
00000000
00301000
00000000
,
00020000
00000000
00031000
00000000
,
00022000
00000000
00033000
00000000
,
00010000
00000100
00001000
00000010
,
00000100
00000001
00001000
00000000
,
00000001
00000000
00001000
00000000
,
00000000
00000010
00000000
00001000
,
00000000
00000100
00010000
00001000
,
00022000
00000000
00033000
00000000
,
00001000
00100000
00010000
00000000
,
00100000
00000000
00001000
00010000
,
00000010
00000100
00000000
00000010
,
00000000
00000100
00000001
00000010
,
00000100
00000000
00010000
00000000
,
00001000
00100000
00010000
10000000
,
00000000
00100000
01000000
00100000
,
00100000
10000000
00000000
01000000
,
00000000
00100000
00000000
00001000
,
00000000
00010000
00000100
00001000
,
00000001
00000001
00000000
00001000
,
00000000
00000001
00000100
00000010
,
00010000
00001000
01000000
00100000
,
00000000
10000000
00100000
01000000
,
00000000
10010000
00000000
00000000
,
00000000
10000000
01000000
00100000
,
00010000
00100000
00001000
00010000
,
00001000
00000000
00000000
00010000
,
00000000
00000100
00000000
00000010
,
00000000
00000001
00000100
00000001
,
00001000
00000010
00010000
00000000
,
00011000
00000000
00100000
00000000
,
10010000
00000000
00010000
00100000
,
00010000
10000000
01000000
00100000
,
00000000
01000000
00000000
00100000
,
00001000
00010000
00000100
00000000
,
00001000
00000000
00000100
00001000
,
00000100
00000010
00000001
00000000
,
00001000
00001000
00000100
00010000
,
00001000
00100000
00001000
00000000
,
00000000
00010000
00001000
00000010
,
00000100
00001000
00000001
00000010
,
00000100
00010000
00001000
00100000
,
01000000
10000000
00010000
10000000
,
10000000
01000000
01000000
00010000
,
00010000
00001000
00001000
00022000
,
00000000
00000000
00000000
00033000
,
00000000
00000000
00000000
00020000
,
00000000
00000000
00030100
00001000
,
00000100
00000010
00000000
00000001
,
00000100
00000010
00000000
00010000
,
00001000
00100000
00000000
00010000
,
00000000
10000000
00000000
01000000
,
00000000
00010000
00000000
00001000
,
00000000
00000010
00000000
00000010
,
00000010
00000100
00000100
00001000
,
00000000
00000010
00000000
00001000
,
00000000
00010000
00000000
01000000
,
00010000
10000000
01000000
00200000
,
00000000
00020000
00330000
00100000
,
00001000
00010000
00000000
00000010
,
00010000
00001000
00000000
00010000
,
00000000
00000100
00000000
00000010
,
00000000
00000001
00000000
00000100
,
00000000
00001000
00000000
00010000
,
00010000
00001000
00010000
00001000
,
00100000
00010000
00000000
00100000
,
00000000
00001000
00010000
00000010
,
00000100
00000000
00000010
00000000
,
00000100
00000001
00000010
00000100
,
00000000
00010000
00000000
00001000
,
00100000
00010000
10000000
00000000
,
00100000
01000000
00000000
00000000
,
00000000
00000000
00000000
00000000
;
#NOTES:
     dance-double:
     :
     Medium:
     12:
     :
00000000
00000000
00000000
00000000
,
00000000
00000000
00000000
00000000
,
00000000
00000000
00000000
00000000
,
00000000
00000000
00000000
00000000
,
00000000
00000000
00000000
00000000
,
00000000
00000000
00000000
00000000
10000000
01000000
00100000
00010000
,
00100000
00000000
00002000
00000000
00000000
00000000
00010000
00013000
,
00000000
00000000
00001000
00000000
00000100
00000010
00000000
00000010
,
00000200
00000000
00000000
00000300
,
00000002
00001000
00000010
00000100
,
00001003
00000001
00000010
00000100
00001000
00000100
00010000
00000000
,
00010000
00001000
00000000
00020000
00000100
00000000
00000010
00000000
,
00000100
00000000
00031000
00010000
00001000
00100000
00010000
01000000
,
00100000
00000000
02200000
00000000
03300000
10000000
01000000
10000000
,
00000000
00000000
10000000
00000000
10000000
01000000
00000000
01000000
,
00020000
00000000
00000000
00031000
,
00010000
00001000
00010000
00000100
00010000
00000010
00010000
00000100
,
00010000
00001000
00010000
00000100
00010000
00010000
00001000
00010000
,
00001000
00100000
00001000
01000000
00001000
00100000
00001000
00010000
,
00001000
00100000
00001000
00001000
00100000
00010000
10000000
00100000
,
01000000
00010000
00100000
00001000
00010000
00000100
00001000
00000001
,
00000010
00000010
00000100
00001000
00000001
00000100
00000010
00001000
,
00000100
00010000
00001000
00100000
00010000
01000000
00100000
00100000
,
00100000
00100000
00000000
00000000
00100000
00000000
01000000
00000000
,
00001000
00010000
00000010
00001000
,
00000001
00000000
00000000
00000001
00000010
00000100
00001000
00000100
,
00010000
00001000
00010000
00000000
00100000
01000000
00100000
00000000
,
10000000
01000000
00100000
00000000
01100000
00000000
00110000
00000000
,
00101000
00000000
00002000
00000000
00003000
00010000
00000000
00010000
,
00000020
00000000
00000000
00000030
00000100
00000010
00000000
00000000
,
00001000
00000100
00000010
00000001
00000010
00000200
00000000
00000000
,
00001300
00000001
00000100
00001000
,
00010000
00000000
00001000
00000000
00001000
00100000
00000000
00100000
,
02000000
10000000
00100000
13000000
,
10000000
01000000
00100000
00000000
00100000
00001000
00000000
00001000
,
00000000
00010000
00011000
00000000
00001100
00000000
00000110
00000000
,
00001001
00000000
00000011
00000000
00000001
00000010
00000000
00000001
,
00000200
00000000
00000000
00000000
00000310
00001000
00000000
00001000
,
00000100
00010000
00001000
00100000
00010000
01000000
00100000
00000000
,
00100000
00000000
10000000
01000000
00000000
00010000
01000000
00000000
,
00100000
00001000
00000000
00010000
00000100
00000000
00001000
00000000
,
00000001
00000100
00000000
00001000
00000100
00000000
00000010
00010000
,
00000000
00001000
01000000
00000000
00100000
00000000
20000000
00000000
,
32000000
03200000
00302000
00013000
,
00020000
00030200
00000320
00000032
,
00000203
00002300
00013000
00011000
,
00010000
00001000
00200000
00000000
00000000
00000000
00310000
00000000
,
10000000
01000000
00200000
00000000
00301000
00010000
00000000
00010000
,
00002000
00000000
00013000
00000000
00001000
00000100
00000020
00000000
,
00002030
00003002
00000203
00000310
,
00001000
00000000
00000000
00000000
00010000
00000000
00000000
01000000
00000000
00000000
00010000
00000000
00100000
00000000
00000000
00000000
,
00010000
00000000
00000000
00000000
00001000
00000000
00000000
00000100
00000000
00000000
00001000
00000000
00000010
00000000
00000100
00000000
,
00001000
00010000
00001000
00010000
00100000
01000000
00200000
00000000
,
20300000
00000000
31000000
00100000
01000000
00000000
20020000
00000000
,
00000000
00000000
00000000
30030000
10010000
00000000
10000000
00000000
,
11000000
00000000
01000000
00100000
01000000
00000000
00200000
00000000
,
00000000
00302000
00000000
00000000
00020000
00000000
00000000
00033000
,
00011000
00000000
00001000
00000100
00000010
00000000
00002000
00000000
,
00000000
00003020
00000000
00000000
00000200
00000000
00000000
00000330
,
00000110
00000000
00000100
00000010
00001000
00000000
00000002
00000000
,
00000000
00001003
00000100
00010000
00001000
00000000
00011000
00000000
,
00110000
01100000
10010000
20000000
,
00000000
30010000
00100000
00001000
00010000
00000000
00002000
00000000
,
00000000
00013000
00000100
00010000
00001000
00000000
00011000
00000000
,
00001100
00000110
00001001
00000102
,
00000010
00000000
00002003
00000000
00003001
00000000
00000001
00000010
,
00000100
00000000
00001000
00000000
00000100
00000000
00000000
00000100
00000000
00000000
00000100
00000000
00010000
00000000
00001000
00000000
,
00010000
00000000
01000000
00000000
00100000
00000000
00000000
00100000
00000000
00000000
00100000
00000000
00020000
00000000
00000000
00000000
,
00030000
20000000
00010000
00000000
00100000
00100000
00000000
00010000
,
00010000
30100000
10000000
00200000
,
01000000
01300000
00000000
00000000
00010000
00000000
10010000
00000000
,
01010000
00000000
00110000
00000000
00101000
00000000
00001000
00010000
,
00001000
01000000
00001000
00100000
00001000
01000000
00001000
00010000
,
00001000
01000000
00001000
00001000
00010000
00001000
00010000
00000010
,
00010000
00000100
00010000
00000010
00010000
00001000
00010000
00000010
,
00010000
00010000
00000010
00001000
00000001
00000100
00000010
00001000
,
00010000
00001000
00010000
01000000
00100000
10000000
01000000
01000000
,
00100000
00010000
10000000
01000000
00100000
00010000
00001000
00000100
,
00010000
00010000
00010000
00011000
00000000
00000000
00000000
00000000
,
00000000
00000000
00000000
00000000
;
#NOTES:
     dance-double:
     :
     Hard:
     15:
     :
00000000
00000000
00000000
00000000
,
00000000
00000000
00000000
00000000
,
00000000
00000000
00000000
00000000
,
00000000
00000000
00000000
00000000
,
00000000
00000000
00000000
00000000
,
00000000
00000000
00000000
00000000
10000000
00010000
01000000
00001000
,
00010000
00000000
00002000
00000000
00000000
00000000
00000010
00003010
,
00000000
00000000
00000001
00000000
00000001
00000100
00000000
00001000
,
00010000
00000000
00100000
10000000
00000000
10000000
01000000
00010000
,
02000000
00010000
10000000
10000000
,
03100000
00010000
00100000
00001000
00010000
00000100
00001000
00000000
,
00000001
00000000
00000010
00000000
00000000
00000000
00000100
00000000
00001000
00000000
00000100
00000010
00000100
00000000
00001000
00000000
,
00000100
00000000
00010000
00001000
00010000
00000000
00001000
00000000
00100000
00000000
00010000
00000000
01000000
00000000
00100000
00000000
,
10000000
00000000
22000000
00000000
33000000
10000000
01000000
00010000
,
00001000
00000010
00000001
00000000
00000001
00000100
00000010
00001000
,
00000100
00010000
00001000
00100000
00010000
01000000
10010000
00000000
,
10000000
01000000
10000000
01000000
10000000
00000000
00010000
00100000
00010000
00100000
00010000
00000000
01000000
00001000
01000000
00001000
,
01000000
00000000
00001000
00010000
00001000
00010000
00001000
00000000
00010000
00000000
00000100
00000000
00001000
00000100
00001000
00000100
,
00001000
00000000
00000010
00000100
00000010
00000100
00000010
00000000
00001000
00000001
00001000
00000001
00001000
00000000
00000100
00010000
,
00000100
00010000
00000100
00000000
00010000
00000000
00001000
00000000
00100000
00010000
00100000
00010000
00100000
00000000
01000000
00100000
,
01000000
00100000
01000000
00000000
10000000
00010000
10000000
00010000
10000000
00000000
00010000
00100000
00010000
00100000
00010000
00000000
,
00100000
00000000
00001000
00000000
00010000
00000100
00010000
00000100
00010000
00000000
00001000
00100000
00001000
00100000
00001000
00000000
,
00010000
00000010
00010000
00000010
00010000
00000000
00001000
01000000
00001000
01000000
00001000
00000000
00010000
00000000
00010000
00000000
,
00001000
00001000
00010000
00000000
00001000
00000000
00000010
00000000
,
00000001
00000010
00001000
00010000
,
01000000
00000000
01100000
10000000
01000000
00100000
00010000
00001000
,
00000100
00000010
00000001
00000000
00001000
00000100
00001000
00000000
,
00000001
00000010
00000001
00000000
00001100
00000000
00010100
00000000
,
00011000
00000000
00101000
00000000
00100000
00010000
00000000
00010000
,
10000000
01000000
10000000
00100000
01000000
00010000
00100000
00001000
,
00010000
00000000
00001000
00000000
00000100
00000000
00000001
00000000
00000010
00000000
00000001
00000010
00000001
00000000
00001000
00000100
,
00001000
00000000
00000100
00000000
00010100
00000000
00000000
00010000
00001000
00000000
00010000
00000000
00001000
00000000
00100000
00000000
,
00010000
00000000
01000000
00000000
01010000
00000000
00000000
00010000
01000000
00000000
00010000
00000000
01000000
00000000
00100000
00000000
,
20010000
00000000
01000000
00000000
00100000
00000000
30010000
10000000
,
00100000
00000000
01000000
00000000
00010000
00000000
00100000
00001000
00100000
00000000
00001000
00000000
00010000
00000000
00000100
00000000
,
00001000
00000010
00000002
00000000
00000023
00000000
00002030
00000000
,
00003002
00000000
00000023
00000000
00000130
00010000
00000000
00010000
,
00002000
00010000
00000100
00013000
,
00001000
00000000
00010000
00000000
00100000
00000000
00010000
00000000
00001000
00100000
00010000
00000000
00100000
00001000
00010000
00001000
,
00100000
00000000
00100000
00100000
00010000
10000000
10000000
00010000
,
01000000
01000000
00010000
00100000
00100000
00010000
00001000
00000100
,
00010000
00010000
00001000
00000100
00000100
00000001
00000010
00000010
,
00000001
00000000
00000100
00000000
00000100
00000000
00000010
00000000
00010000
00000000
00001000
00000000
00100000
00010000
00100000
00000000
,
00001000
00000000
00010000
00001000
00010000
00000000
00000100
00000000
00001000
00000100
00001000
00000000
00000010
00000000
00000100
00000010
,
00000200
00002300
00023000
00230000
,
20300000
32000000
03020000
02030000
,
13000000
00000000
00000000
11000000
00000000
00000000
10000000
01000000
00100000
00010000
00100000
01000000
,
10000000
00100000
01000000
00010000
00100000
00001000
00010000
00000100
00001000
00000100
00000001
00000100
,
00001000
00000010
00000100
00000001
00000100
00000010
00001000
00000100
00010000
00001000
00100000
00010000
,
01000000
00000000
00000000
00000000
00100000
00000000
00000000
00000000
10000000
00000000
00000000
00000000
01000000
00000000
00000000
00000000
00000000
00000000
00000000
00000000
00000000
11000000
00000000
00000000
00000000
00000000
00000000
00000000
00000000
00000000
01000000
00000000
00000000
00000000
00000000
00000000
10000000
00000000
00000000
00000000
00000000
00000000
01000000
00000000
00000000
00000000
00000000
00000000
,
10000000
00000000
01000000
00000000
10000000
00000000
01000000
00100000
00010000
00000000
00100000
00000000
00010000
00000000
00100000
00000000
,
00010000
00000000
00100000
00000000
00010000
00000000
00100000
00001000
00010000
00000000
00001000
00000000
00100000
00000000
00100000
00000000
,
00001000
00001000
00010000
00010000
00000100
00000100
00002000
00000000
,
00003001
00000000
00000100
00001000
00010000
00000000
00001000
00000000
00100000
00000000
00000000
00000000
20020000
00000000
00000000
00000000
,
00000000
00000000
00000000
30030000
00100000
01000000
01100000
00000000
,
10000000
00000000
00010000
00100000
00010000
00000000
00100000
00000000
00001000
00000000
00010000
00000000
00000100
00000000
00000000
00000000
,
00001000
00000000
00000001
00000010
00000001
00000000
00000100
00000000
00000010
00000000
00001000
00000000
00000100
00000000
00000000
00000000
,
00010000
00000000
00001000
00010000
00001000
00000000
00100000
00000000
00010000
00000000
00000000
00000000
00010000
00000000
00000000
00000000
,
10000000
00000000
00100000
01000000
00100000
00000000
01000000
00000000
00100000
00000000
00010000
00000000
00001000
00000000
00000000
00000000
,
00010000
00000000
00000100
00001000
00000100
00000000
00010000
00000000
00001000
00000000
00000100
00000000
00000010
00000000
00000100
00000000
,
00000001
00000000
00001000
00000100
00001000
00000000
00000001
00000010
00000001
00000000
00001000
00000000
00001100
00000000
00000000
00000000
,
00010100
00000000
00011000
00000000
00101000
00000000
00001000
00010000
,
00001000
00000000
00100000
00000000
00010000
00000000
10000000
00100000
01000000
00000000
00010000
00000000
00100000
00000000
00001000
00000000
,
00010000
00000000
00000100
00000000
00001000
00000000
00000001
00000100
00000010
00000000
00001000
00000000
00000100
00000000
00010000
00000000
,
00001000
00000000
00100000
00000000
00010000
00000000
00100000
00001000
00010000
00000000
00001000
00000000
00020000
00000000
00000000
00000000
,
00000000
00000000
00000000
00000000
00030020
00000000
00000000
00000000
00000030
00000000
00000000
00000000
00010000
00001000
00100000
00000000
,
00001000
00000000
00010000
00000100
00001000
00000000
00000000
00000100
00000000
00000000
00010000
00000000
00001000
00000000
00000100
00000000
,
00000001
00000000
00001000
00000100
00001000
00000000
00000000
00000001
00000000
00000000
00000100
00000000
00000020
00000000
00000000
00000000
,
00000030
00001000
00000200
00000000
00001000
00001000
00000000
00010000
,
00010000
00000000
00000000
00000000
00001300
00000000
00000001
00000010
00000001
00000000
00000100
00000000
00000010
00000000
00001000
00000000
,
00000100
00000000
00010000
00000000
00001000
00000000
00010000
00001000
00100000
00010000
01000000
00100000
01000000
00000000
00000000
00000000
,
01010000
00000000
00000000
00000000
10100000
00000000
00000000
00000000
10010000
00000000
00000000
00000000
10000000
01000000
10000000
01000000
,
10000000
00000000
00010000
00100000
00010000
00100000
00010000
00000000
01000000
00001000
01000000
00001000
01000000
00000000
00001000
00010000
,
00001000
00010000
00001000
00000000
00010000
00000000
00000100
00000000
00001000
00000100
00001000
00000100
00001000
00000000
00000010
00000100
,
00000010
00000100
00000010
00000000
00001000
00000001
00001000
00000001
00001000
00000000
00000100
00010000
00000100
00010000
00000100
00000000
,
00010000
00000000
00001000
00000000
00100000
00010000
00100000
00010000
00100000
00000000
01000000
00100000
01000000
00100000
01000000
00000000
,
10000000
00010000
10000000
00010000
10000000
00000000
00010000
00100000
00010000
00100000
00010000
00000000
00100000
00000000
00001000
00000000
,
00010000
00000100
00010000
00000100
00010000
00000000
00001000
00100000
00001000
00100000
00001000
00000000
00010000
00000010
00010000
00000010
,
00010000
00001000
00010000
00011000
00000000
00000000
00000000
00000000
,
00000000
00000000
00000000
00000000
;
