
//----- song ID: hd2u -----//
#TITLE:Happy Dance Day 2 U;
#ARTIST:Shoichiro Hirata feat. ちょぴん;
#ARTISTTRANSLIT:Shoichiro Hirata feat. CHOPIN;
#BANNER:Happy Dance Day 2 U.png;
#BACKGROUND:Happy Dance Day 2 U-bg.png;
#CDTITLE:./CDTitles/DDR WORLD.png;
#MUSIC:Happy Dance Day 2 U.ogg;
#SAMPLESTART:98.125;
#SAMPLELENGTH:15;
#BPMS:0=137;
#BGSTAGE:16;
#NOTES:
     dance-single:
     :
     Beginner:
     3:
     :
0000
0000
0000
0000
,
0000
0000
0000
0000
,
0000
0000
0000
0000
,
0000
0000
0000
0000
,
0000
0000
0000
0000
,
0000
0000
0000
0000
,
0000
0000
0000
0000
,
1000
0000
1000
0000
,
0001
0000
0001
0000
,
0100
0000
0100
0000
,
0010
0000
0010
0000
,
0100
0000
0100
0000
,
0001
0000
0001
0000
,
1000
0000
1000
0000
,
0001
0000
0000
0000
,
0010
0000
0000
0000
,
0001
0000
0000
0000
,
1000
0000
0000
0000
,
0200
0000
0000
0300
,
1000
0000
0000
0000
,
0010
0000
0000
0000
,
1000
0000
0000
0000
,
0002
0000
0000
0003
,
0100
0000
0010
0000
,
0100
0000
0000
0000
,
0001
0000
1000
0000
,
0001
0000
0100
0000
,
0010
0000
1000
0000
,
0010
0000
0000
0000
,
0100
0000
0001
0000
,
1000
0000
0000
0000
,
1001
0000
0000
0000
,
1001
0000
0000
0000
,
0001
0000
1000
0000
,
0100
0000
0000
0000
,
1000
0000
0100
0000
,
1000
0000
0001
0000
,
0100
0000
0010
0000
,
0100
0000
0001
0000
,
1000
0000
0000
0000
,
0010
0000
0010
0000
,
0100
0000
0000
0000
,
0001
0000
0001
0000
,
1000
0000
0000
0000
,
1000
0000
0100
0000
,
1000
0000
0000
0000
,
0001
0000
0000
0000
,
0000
0000
0000
0000
,
1001
0000
0000
0000
,
1000
0000
0000
0000
,
1001
0000
0000
0000
,
0001
0000
1000
0000
,
0010
0000
0100
0000
,
0010
0000
1000
0000
,
0001
0000
0010
0000
,
0001
0000
0000
0000
,
1000
0000
0010
0000
,
1000
0000
0010
0000
,
0100
0000
0001
0000
,
0100
0000
0001
0000
,
1000
0000
0100
0000
,
1000
0000
0100
0000
,
0010
0000
0001
0000
,
1000
0000
0000
0000
,
0002
0000
0000
0000
,
0000
0000
0000
0000
,
0003
0000
0000
0000
,
0000
0000
0000
0000
;
#NOTES:
     dance-single:
     :
     Easy:
     7:
     :
0000
0000
0000
0000
,
0000
0000
0000
0000
,
0000
0000
0000
0000
,
0000
0000
0000
0000
,
0000
0000
0000
0000
,
0000
0000
0000
0000
,
0000
0000
0000
0000
,
1000
0100
1000
0001
,
0100
0010
0100
0001
,
0010
0100
0010
0001
,
1000
1001
0000
0110
,
0001
0010
0001
1000
,
0010
0100
0010
1000
,
0100
0010
0100
1000
,
0001
0000
1000
0000
0010
0100
0010
0000
,
0100
0000
0001
0000
,
1000
1000
0010
0100
,
0002
0003
2000
3000
,
0200
0000
0000
0300
,
1000
0000
0010
0000
,
0100
0100
0001
1000
,
0200
0300
0020
0030
,
0200
0000
0000
1300
,
0010
0100
0000
0010
,
1000
0001
0000
1000
,
0100
0010
0000
0100
,
1000
0001
0010
0100
,
1000
0010
0000
1000
,
0001
0100
0000
0001
,
1000
0000
0001
0000
,
1000
0000
0001
0000
0010
0100
0010
0000
,
0001
0000
1000
0000
0000
1001
0000
0000
,
0010
0000
0100
0000
0000
0110
0000
0000
,
1000
0001
1001
0000
,
0001
0010
0100
1000
,
0001
0000
0001
0000
0100
0001
0100
0000
,
0010
0000
0010
0000
1000
0001
1000
0000
,
0100
0010
0100
0010
,
0001
0000
1000
0000
0100
0010
0100
0000
,
1000
0000
1001
0000
,
0001
0100
0010
0000
,
0100
0000
0110
0000
,
0001
0010
0100
1000
,
0001
0000
0100
0001
,
0010
0001
1000
0000
,
0010
0000
0100
0010
,
0000
1000
0001
0000
,
0000
0000
0000
0000
,
1001
0000
0000
0000
0000
0110
0000
0000
,
1000
1000
0000
0000
0000
0001
0000
0000
,
1001
0000
0000
0000
0000
0110
0000
0000
,
1001
0000
0001
1000
,
0001
0100
0010
0100
,
0001
1000
0100
1000
,
0010
0010
0100
0100
,
0001
0000
1000
0000
0100
1000
0100
0000
,
0110
0011
0001
0100
,
0110
1010
1000
0001
,
1001
0101
0100
0010
,
2000
3100
0002
0103
,
0110
1010
1000
0100
,
0110
0011
0001
1000
,
1001
0000
0110
0000
,
0002
0103
2000
3100
,
0220
0000
0000
0000
,
0000
0000
0000
0000
,
0330
0000
0000
0000
,
0000
0000
0000
0000
;
#NOTES:
     dance-single:
     :
     Medium:
     11:
     :
0000
0000
0000
0000
,
0000
0000
0000
0000
,
0000
0000
0000
0000
,
0000
0000
0000
0000
,
0000
0000
0000
0000
,
0000
0000
0000
0000
,
0000
0000
0000
0000
,
0001
0100
0001
0000
1000
0100
0010
0001
,
0100
0001
0100
0000
0001
0010
0100
1000
,
0010
1000
0010
0000
1000
0100
0010
0001
,
1000
1010
0001
0011
,
1000
0001
1000
0000
0010
0100
0001
1000
,
0001
0010
0001
0000
0010
0100
1000
0001
,
1000
0010
0100
0000
0001
0010
0100
0010
,
0001
1000
0010
0100
0001
0010
0100
1000
,
0001
0000
1000
0010
,
0100
0000
0001
0000
1000
0100
1000
0000
,
0002
0103
2000
3100
,
0002
0000
0000
0000
0000
1003
0000
0000
,
1000
0000
0001
0100
,
0010
0000
1000
0000
0001
0010
0001
0000
,
2000
3010
0002
0013
,
0200
0000
0000
0000
0000
0310
0100
0000
,
0001
0000
0000
1000
0100
0000
0000
0000
0000
0000
1000
0000
0010
0000
0000
0000
,
1000
0000
0000
0001
0100
0000
0000
0000
0000
0000
0001
0000
0010
0000
0000
0000
,
0001
0000
0000
1000
0010
0000
0000
0000
0000
0000
1000
0000
0100
0000
2000
0000
,
0000
3020
0000
0230
0000
0302
0000
1003
,
0100
0000
0000
0010
0100
0000
0000
0000
0000
0000
1000
0000
0001
0000
0000
0000
,
0100
0000
0000
0010
0100
0000
0000
0000
0000
0000
0001
0000
1000
0000
0000
0000
,
0001
0000
0000
0010
0000
0000
0100
0000
0010
0000
0000
0001
0000
0000
1000
0000
,
0010
0100
0010
0100
0001
0010
0001
0000
,
1000
1000
0010
0100
0000
0110
0000
0000
,
0001
0001
0010
0100
0000
0110
0000
0000
,
1000
0100
1000
0100
0010
0000
0000
0001
,
1000
0000
0010
0000
0100
0000
0001
0000
1000
0000
0000
0100
0000
0000
0010
0000
,
0001
0100
0001
0100
0010
1000
0010
0000
,
1000
0100
1000
0100
0010
0001
0010
0000
,
0001
0100
1000
0000
1000
0100
0001
0000
,
0001
0100
0010
1000
0001
0010
0100
0000
,
1001
0000
0000
0000
1000
0100
0001
0000
,
0100
0000
1000
0000
0010
0100
0000
0000
,
1001
0000
0000
0001
0010
0000
0100
0000
,
1000
0000
0001
0000
1000
0010
0001
0000
,
0020
0000
0000
0130
0010
0000
1000
0100
,
1000
0000
0001
0000
0010
0100
0000
0000
,
0010
0000
0000
0001
0100
0000
0110
0000
,
0000
0000
0001
0000
1000
0010
0000
0110
,
0000
0000
0000
0000
,
0000
1000
0100
1000
0000
0001
0100
0001
,
0000
1000
0010
1000
0000
0010
0100
0000
,
0000
0001
0010
0001
0000
1000
0010
1000
,
0002
0000
0000
0000
0203
0000
0000
0000
0302
0000
0000
2003
0000
0000
3100
0000
,
1000
0010
1000
0010
1000
0100
0010
0000
,
0001
0010
0001
0010
0001
0100
0010
0000
,
1000
0100
0001
0000
0001
0100
1000
0000
,
0001
0100
0001
0100
0010
1000
0001
0000
,
1001
0000
0101
0000
0100
0010
1000
0100
,
0010
0000
0011
0000
1000
0010
1000
0000
,
1001
0000
1100
0000
0100
0010
0001
1000
,
0002
0000
0023
0000
0230
0000
1300
0001
,
0100
0000
0110
0000
0010
1000
0100
1000
,
0010
0000
0110
0000
0100
0001
0010
0001
,
0100
0000
0000
0001
0000
0000
1000
0000
0100
0000
0000
1000
0000
0000
0001
0000
,
1000
0100
0010
0001
1000
0100
0010
0000
,
2002
0000
0000
0000
,
0000
0000
0000
0000
,
3003
0000
0000
0000
,
0000
0000
0000
0000
;
#NOTES:
     dance-single:
     :
     Hard:
     14:
     :
0000
0000
0000
0000
,
0000
0000
0000
0000
,
0000
0000
0000
0000
,
0000
0000
0000
0000
,
0000
0000
0000
0000
,
0000
0000
0000
0000
,
0000
0000
0000
0000
,
1000
0000
0010
0000
0100
0010
0000
0010
1000
0000
0001
0000
0100
0000
0001
0000
,
0010
0000
0100
0000
0010
0001
0000
0001
1000
0000
0010
0000
0100
0000
0010
0000
,
1000
0000
0100
0000
0010
0100
0000
0100
1000
0000
0001
0000
0100
0000
0010
0000
,
0100
0001
1000
1000
0000
0000
0001
0001
,
1000
0000
0010
0000
1000
0001
0000
0001
0100
0000
0010
0000
1000
0000
0001
0000
,
0010
0000
0100
0000
1000
0010
0000
0010
0100
0000
0001
0000
0010
0000
0001
0000
,
1000
0000
0100
0000
0010
0100
0000
0100
1000
0000
0010
0000
0100
0000
0001
0000
,
0010
0000
0100
0000
0010
0001
0000
0001
1000
0010
1000
0010
0100
0010
0100
0000
,
0001
0000
0000
1000
0100
0000
0010
0001
,
1000
0010
1000
0010
0100
0001
1000
0100
,
2000
0000
0000
3020
0000
0000
0230
0000
0301
0000
0010
0000
1000
0000
0020
0000
,
0000
0000
0000
0000
0030
0110
0000
0000
,
1000
0000
0000
0001
0010
0000
0100
1000
,
0001
0100
0001
0100
0010
1000
0001
0010
,
0002
0000
0000
0203
0000
0000
2300
0000
3200
0000
0000
0302
0000
0000
0023
0000
,
0000
0000
0000
0000
0000
0000
0000
0000
0000
0000
0130
0000
0010
0100
0010
0000
,
0001
0000
0000
1000
0100
0000
1000
0000
0010
0000
0100
0000
0001
0000
0010
0000
,
0100
0000
0000
0010
0100
0000
0010
0000
0001
0000
0100
0000
0010
1000
0010
0000
,
1000
0000
0000
0001
0100
0000
0001
0000
1000
0000
0010
0000
0100
0000
0002
0000
,
0013
2000
3001
0200
1300
0020
0130
0001
,
0010
0000
0000
0001
0100
0000
0001
0000
1000
0000
0100
0000
0001
0000
0100
0000
,
0010
0000
0000
0001
0100
0000
0010
0000
1000
0000
0100
0000
0010
0100
0010
0000
,
0001
0000
0000
0100
1000
0000
0100
0000
0010
0000
0000
1000
0100
0000
0001
0000
,
0100
0000
0010
0001
0010
0000
0001
0000
0100
0010
0100
0010
0100
0000
0010
0000
,
1010
1010
0001
1000
0100
0010
0000
0000
,
0011
0011
1000
0001
0010
0100
0000
0000
,
1100
1100
1001
0101
0110
0000
0000
0010
,
1000
0000
0001
0010
0100
1000
0100
1000
0001
0000
0000
0100
0000
0000
0010
0000
,
1000
0000
0100
0000
1000
0000
0100
0000
0010
0000
0001
0100
0001
0000
1000
0000
,
0001
0000
0010
0000
0001
0000
0010
0000
0100
0000
1000
0010
1000
0000
0001
0000
,
1000
0000
0010
0100
0010
0000
0100
0001
0100
0000
0001
0010
0001
0000
0010
0000
,
0100
0000
0010
0001
1000
0000
0010
0000
1000
0010
1000
0010
0100
0001
0100
0001
,
0100
0000
0000
0000
0000
0000
0001
0000
1000
0100
0010
0001
1000
0000
0010
0000
,
0100
0000
0001
0000
1000
0000
0010
0000
0100
0000
0001
0000
0000
0000
0010
0100
,
1000
0000
0000
0010
1000
0100
0010
0001
,
1000
0100
0010
0001
0100
0010
1000
0100
,
0020
0000
0000
0031
1000
0000
1100
0101
,
1001
0000
0000
0000
0010
0000
0000
0000
1010
0000
0011
0000
0000
0000
1000
0100
,
0010
0000
0001
0100
0000
1000
0100
0000
0001
0000
0000
0000
0110
0000
0110
0000
,
0000
0000
0000
0000
0001
0010
0100
1000
0001
0000
1000
0010
0000
1000
0001
0100
,
0000
0000
0000
0000
,
0000
0001
0100
1000
0000
1000
0100
0001
,
0000
0001
0010
1000
0000
1000
0010
0000
,
0000
0100
1000
0010
0000
0100
0001
0010
,
0002
0000
0000
0000
2003
0000
0000
0000
3200
0000
0000
0320
0000
0000
0031
0000
,
1000
0000
0010
1000
0001
0000
0010
0001
0000
0010
0100
0000
1000
0000
0010
0000
,
0100
0000
0001
1000
0010
0000
0100
0001
0000
0100
0010
0000
1000
0000
0100
0000
,
2000
0000
0000
3100
0001
0000
0100
0000
0010
1000
0000
0010
0001
0000
1000
0010
,
1000
0000
1000
0000
0001
0000
0001
0000
1000
0100
1000
0100
0010
0001
0010
0001
,
1000
0000
0100
0000
0010
0000
0001
0100
0010
1000
0010
0000
0100
0000
0001
0000
,
1000
0000
0010
0000
0100
0000
0001
0010
0000
1000
0010
0000
0001
0000
0100
0010
,
1000
0000
0001
0000
0010
0000
0001
1000
0100
0010
0001
0000
0100
0000
0010
0000
,
1000
0000
0010
0000
0100
0010
0000
0010
1000
0001
1000
0001
0010
0000
0100
0000
,
0010
0000
0001
0000
1000
0001
0000
0100
0010
1000
0001
0000
0100
0000
0010
0000
,
1000
0000
0100
0000
0010
0001
0000
1000
0100
0010
0001
0000
0100
0000
0010
0000
,
1000
0000
0001
0100
0000
1000
0100
0000
0010
0100
0000
0001
0000
1000
0100
0010
,
0100
0000
0010
0001
0000
0010
0100
0000
1000
0100
1000
0100
0010
0000
0001
0000
,
2000
0000
0000
0000
,
0000
0000
0000
0000
,
3000
0000
0000
0000
,
0000
0000
0000
0000
;
#NOTES:
     dance-double:
     :
     Easy:
     7:
     :
00000000
00000000
00000000
00000000
,
00000000
00000000
00000000
00000000
,
00000000
00000000
00000000
00000000
,
00000000
00000000
00000000
00000000
,
00000000
00000000
00000000
00000000
,
00000000
00000000
00000000
00000000
,
00000000
00000000
00000000
00000000
,
00000001
00000000
00001000
00000100
,
00010000
00000000
00001000
01000000
,
00010000
00000000
10000000
00010000
,
01000000
01100000
00000000
00011000
,
00010000
00000000
00000100
00001000
,
00000001
00000000
00001000
00000010
,
00010000
00000000
00001000
00100000
,
00010000
00000000
10000000
00000000
00010000
10000000
00010000
00000000
,
01000000
00000000
00001000
00000000
,
00010000
00010000
00001000
00000100
,
00000002
00000003
00002000
00003000
,
00000200
00000000
00000000
00000300
,
00010000
00000000
00001000
00000000
,
00010000
00010000
01000000
10000000
,
00020000
00030000
02000000
03000000
,
00002000
00000000
00000000
00013000
,
00000010
00001000
00000000
00000001
,
00001000
00000100
00000000
00010000
,
00001000
00100000
00000000
00010000
,
10000000
01000000
00100000
00010000
,
00001000
00000100
00000000
00010000
,
00001000
01000000
00000000
00010000
,
10000000
00000000
00100000
00000000
,
00010000
00000000
00001000
00000000
00010000
00001000
00010000
00000000
,
00000010
00000000
00000100
00000000
00000000
00000110
00000000
00000000
,
00000001
00000000
00001000
00000000
00000000
00001100
00000000
00000000
,
00000100
00010000
00011000
00000000
,
00001000
01000000
00010000
10000000
,
00100000
00000000
00100000
00000000
01000000
00010000
01000000
00000000
,
00001000
00000000
00001000
00000000
00010000
00000010
00010000
00000000
,
00000010
00001000
00000001
00001000
,
00000100
00000000
00010000
00000000
00001000
00010000
00001000
00000000
,
00100000
00000000
01100000
00000000
,
10000000
01000000
00010000
00000000
,
00001000
00000000
00011000
00000000
,
00010000
00001000
00000100
00000001
,
00001000
00000000
00000001
00000010
,
00001000
00010000
01000000
00000000
,
10000000
00000000
00100000
01000000
,
00000000
00001000
00010000
00000000
,
00000000
00000000
00000000
00000000
,
00001001
00000000
00000000
00000000
00000000
00011000
00000000
00000000
,
01000000
01000000
00000000
00000000
00000000
00010000
00000000
00000000
,
10010000
00000000
00000000
00000000
00000000
00011000
00000000
00000000
,
00011000
00000000
00010000
00001000
,
00010000
00001000
00000100
00000001
,
00001000
00000010
00010000
00001000
,
00100000
00100000
00010000
00010000
,
10000000
00000000
00010000
00000000
01000000
00100000
01000000
00000000
,
00010000
00100000
00001000
00010000
,
00010100
00001100
00001000
00000001
,
00000010
00000100
00001000
00000010
,
00020000
00031000
00002000
01003000
,
00010000
10000000
00100000
01000000
,
01010000
00110000
00100000
00001000
,
00011000
00000000
00001001
00000000
,
00000002
00000103
00002000
00013000
,
00022000
00000000
00000000
00000000
,
00000000
00000000
00000000
00000000
,
00033000
00000000
00000000
00000000
,
00000000
00000000
00000000
00000000
;
#NOTES:
     dance-double:
     :
     Medium:
     11:
     :
00000000
00000000
00000000
00000000
,
00000000
00000000
00000000
00000000
,
00000000
00000000
00000000
00000000
,
00000000
00000000
00000000
00000000
,
00000000
00000000
00000000
00000000
,
00000000
00000000
00000000
00000000
,
00000000
00000000
00000000
00000000
,
10000000
00100000
10000000
00000000
00010000
01000000
00001000
00000000
,
00010000
00001000
00010000
00000000
00000010
00001000
00000001
00000000
,
00000100
00000010
00000100
00000000
00000010
00010000
00001000
00000000
,
01000000
01010000
00010000
10010000
,
10000000
01000000
10000000
00000000
00010000
00100000
00001000
00000000
,
00010000
00001000
00010000
00000000
00000100
00001000
00000001
00000000
,
00000010
00000100
00000010
00000000
00000100
00010000
00001000
00000000
,
00100000
00010000
00100000
00010000
10000000
01000000
10000000
00000000
,
01000000
00000000
10000000
00100000
,
00010000
00000000
00001000
00000000
00000100
00000010
00000100
00000000
,
00000002
00000103
00002000
00003100
,
00000002
00000000
00000000
00000000
00000000
00001003
00000000
00000000
,
00001000
00000000
00000001
00000100
,
00001000
00000000
00010000
00000000
00100000
01000000
00100000
00000000
,
20000000
30100000
00020000
00130000
,
02000000
00000000
00000000
00000000
00000000
03100000
01000000
00000000
,
00010000
00000000
00000000
01000000
00001000
00000000
00000000
00000000
00000000
00000000
00010000
00000000
00001000
00000000
00000000
00000000
,
00010000
00000000
00000000
00000100
00001000
00000000
00000000
00000000
00000000
00000000
00000001
00000000
00001000
00000000
00000000
00000000
,
00000100
00000000
00000000
00010000
00001000
00000000
00000000
00000000
00000000
00000000
01000000
00000000
00010000
00000000
20000000
00000000
,
00000000
30200000
00000000
00320000
00000000
00032000
00000000
00003100
,
00000001
00000000
00000000
00000010
00000001
00000000
00000000
00000000
00000000
00000000
00001000
00000000
00000010
00000000
00000000
00000000
,
00010000
00000000
00000000
00001000
00100000
00000000
00000000
00000000
00000000
00000000
00010000
00000000
10000000
00000000
00000000
00000000
,
00010000
00000000
00000000
00100000
00000000
00000000
00001000
00000000
00010000
00000000
00000000
00000010
00000000
00000000
00001000
00000000
,
00000001
00000100
00000001
00000100
00000010
00001000
00000010
00000000
,
00010000
00010000
00001000
01000000
00000000
01010000
00000000
00000000
,
10000000
10000000
00010000
00100000
00000000
00101000
00000000
00000000
,
00001000
00010000
00001000
00010000
00001000
00000000
00000000
00010000
,
00000100
00000000
00001000
00000000
00000001
00000000
00000010
00000000
00000100
00000000
00000000
00001000
00000000
00000000
00000100
00000000
,
00010000
00001000
00010000
00001000
01000000
00010000
10000000
00000000
,
00100000
10000000
00100000
10000000
00010000
01000000
00001000
00000000
,
00010000
00000100
00001000
00000000
00000001
00000100
00000010
00000000
,
00001000
00000100
00010000
00001000
00100000
00010000
10000000
00000000
,
10010000
00000000
00000000
00000000
10000000
01000000
00010000
00000000
,
00001000
00000000
00000100
00000000
00000001
00001000
00000000
00000000
,
00001001
00000000
00000000
00000001
00000010
00000000
00001000
00000000
,
00010000
00000000
01000000
00000000
10000000
01000000
00010000
00000000
,
00002000
00000000
00000000
00013000
00001000
00000000
00000100
00000010
,
00000100
00000000
00000001
00000000
00001000
00000100
00000000
00000000
,
00010000
00000000
00000000
00001000
01000000
00000000
01100000
00000000
,
00000000
00000000
00010000
00000000
00100000
00001000
00000000
00011000
,
00000000
00000000
00000000
00000000
,
00000000
00010000
00000100
00010000
00000000
00000100
00010000
00001000
,
00000000
01000000
00001000
01000000
00000000
00010000
10000000
00000000
,
00000000
01000000
00100000
00010000
00000000
00001000
00000100
00000010
,
00000002
00000000
00000000
00000000
00002003
00000000
00000000
00000000
00003200
00000000
00000000
00020300
00000000
00000000
00031000
00000000
,
01000000
00010000
01000000
00010000
10000000
01000000
00100000
00000000
,
00010000
00100000
00001000
00010000
00000010
00001000
00000001
00000000
,
00000100
00001000
00010000
00000000
00001000
00010000
01000000
00000000
,
10000000
01000000
10000000
01000000
00100000
00010000
00100000
00000000
,
00101000
00000000
00011000
00000000
00010000
00000100
00001000
00000000
,
00001001
00000000
00000101
00000000
00000100
00000010
00001000
00000000
,
00010010
00000000
00011000
00000000
00001000
00100000
00010000
00000000
,
20000000
32000000
03020000
00031000
,
00011000
00000000
00010100
00000000
00000100
00001000
00000010
00000000
,
00000110
00000000
00000101
00000000
00000001
00001000
00000100
00000000
,
00010000
00000000
00000000
00001000
00000000
00000000
01000000
00000000
00010000
00000000
00000000
10000000
00000000
00000000
00100000
00000000
,
10000000
01000000
00010000
00000000
00001000
00000010
00000001
00000000
,
00002002
00000000
00000000
00000000
,
00000000
00000000
00000000
00000000
,
00003003
00000000
00000000
00000000
,
00000000
00000000
00000000
00000000
;
#NOTES:
     dance-double:
     :
     Hard:
     14:
     :
00000000
00000000
00000000
00000000
,
00000000
00000000
00000000
00000000
,
00000000
00000000
00000000
00000000
,
00000000
00000000
00000000
00000000
,
00000000
00000000
00000000
00000000
,
00000000
00000000
00000000
00000000
,
00000000
00000000
00000000
00000000
,
00000001
00000000
00000100
00000000
00000010
00001000
00000000
00001000
00000001
00000000
00000100
00000000
00001000
00000000
00010000
00000000
,
00001000
00000000
01000000
00000000
00010000
10000000
00000000
10000000
01000000
00000000
00100000
00000000
01000000
00000000
10000000
00000000
,
01000000
00000000
00100000
00000000
00010000
00100000
00000000
00100000
00001000
00000000
00010000
00000000
00000100
00000000
00010000
00000000
,
00001000
00000000
01000000
01000000
00000000
00000000
00010000
00010000
,
10000000
00000000
00100000
00000000
01000000
00010000
00000000
00010000
10000000
00000000
00100000
00000000
00010000
00000000
00001000
00000000
,
00010000
00000000
00000010
00000000
00001000
00000001
00000000
00000001
00000010
00000000
00000100
00000000
00000010
00000000
00000001
00000000
,
00000010
00000000
00000100
00000000
00001000
00000100
00000000
00000100
00010000
00000000
00001000
00000000
00100000
00000000
00001000
00000000
,
00010000
00000000
01000000
00000000
10000000
00010000
00000000
00010000
01000000
00000000
00010000
00000000
01000000
00100000
01000000
00000000
,
00010000
00000000
00000000
10000000
01000000
00000000
00010000
00001000
,
00010000
00000100
00001000
00000100
00000010
00000001
00001000
00000010
,
00020000
00000000
00000000
00032000
00000000
00000000
00203000
00000000
00301000
00000000
00010000
00000000
00001000
00000000
00000200
00000000
,
00000000
00000000
00000000
00000000
00000300
00000110
00000000
00000000
,
00001000
00000000
00000000
00000001
00000010
00000000
00001000
00010000
,
00001000
00100000
00010000
00100000
01000000
10000000
00010000
10000000
,
02000000
00000000
00000000
03020000
00000000
00000000
00032000
00000000
00023000
00000000
00000000
00032000
00000000
00000000
00003200
00000000
,
00000000
00000000
00000000
00000000
00000000
00000000
00000000
00000000
00000000
00000000
00000301
00000000
00001000
00000010
00001000
00000000
,
00000001
00000000
00000000
00000100
00001000
00000000
00000100
00000000
00001000
00000000
00010000
00000000
00100000
00000000
10000000
00000000
,
00010000
00000000
00000000
01000000
00010000
00000000
10000000
00000000
00100000
00000000
01000000
00000000
00010000
00100000
00010000
00000000
,
10000000
00000000
00000000
01000000
00010000
00000000
01000000
00000000
00010000
00000000
00001000
00000000
00000010
00000000
00000002
00000000
,
00000013
00000200
00001300
00020000
00130000
02000000
13000000
00010000
,
10000000
00000000
00000000
00100000
00010000
00000000
00100000
00000000
00010000
00000000
00001000
00000000
00000100
00000000
00000001
00000000
,
00001000
00000000
00000000
00000010
00001000
00000000
00000001
00000000
00000100
00000000
00000010
00000000
00001000
00000100
00001000
00000000
,
00000001
00000000
00000000
00000010
00001000
00000000
00010000
00000000
00001000
00000000
00000000
00010000
00100000
00000000
10000000
00000000
,
00010000
00000000
01000000
00000000
00001000
00000000
00010000
00000000
00000100
00001000
00000100
00001000
00000100
00000000
00000010
00000000
,
00000011
00000011
00000001
00000100
00001000
00010000
00000000
00000000
,
00011000
00011000
00001000
00010000
01000000
10000000
00000000
00000000
,
10010000
10010000
01010000
01001000
00011000
00000000
00000000
00010000
,
00000100
00000000
00001000
00000100
00001000
00000000
00000100
00000010
00000100
00000000
00000000
00001000
00000000
00000000
00000001
00000000
,
00000100
00000000
00000010
00000000
00000100
00000000
00000010
00000000
00010000
00000000
00001000
00010000
00001000
00000000
00010000
00000000
,
01000000
00000000
00100000
00000000
01000000
00000000
00100000
00000000
00001000
00000000
00010000
00001000
00010000
00000000
00001000
00000000
,
00100000
00000000
00010000
00100000
00010000
00000000
10000000
00100000
10000000
00000000
00010000
01000000
00010000
00000000
01000000
00000000
,
00001000
00000000
00010000
00000000
00001000
00000000
00000100
00000000
00000001
00000100
00000001
00000100
00000010
00001000
00000010
00000000
,
00010000
00000000
00000000
00000000
00000000
00000000
00001000
00000000
00100000
00010000
00100000
01000000
10000000
00000000
00010000
00000000
,
01000000
00000000
00001000
00000000
00010000
00000000
00000100
00000000
00001000
00000000
00000001
00000000
00000000
00000000
00001000
00000010
,
00000100
00000000
00000000
00000001
00000010
00000100
00001000
00010000
,
00100000
01000000
00100000
00010000
00001000
00000100
00000010
00000001
,
00000200
00000000
00000000
00001300
00010000
00000000
01000000
10000000
,
10010000
00000000
00000000
00000000
00010000
00000000
00000000
00000000
00100000
00000000
00101000
00000000
00000000
00000000
00001000
00010000
,
00001000
00000000
00000100
00000010
00000000
00000100
00000001
00000000
00000010
00000000
00000000
00000000
00000110
00000000
00000110
00000000
,
00000000
00000000
00000000
00000000
00000001
00000010
00000100
00001000
00000100
00000000
00010000
00001000
00000000
00100000
00010000
10000000
,
00000000
00000000
00000000
00000000
,
00000000
10000000
01000000
00010000
00000000
00001000
00000100
00000001
,
00000000
00000001
00000010
00001000
00000000
00010000
00001000
00000000
,
00000000
00001000
00010000
00100000
00000000
00100000
00010000
00001000
,
00020000
00000000
00000000
00000000
00030200
00000000
00000000
00000000
00002300
00000000
00000000
00003020
00000000
00000000
00000130
00000000
,
00000001
00000000
00000010
00000100
00001000
00000000
00000100
00010000
00000000
00001000
00010000
00000000
00001000
00000000
00100000
00000000
,
00010000
00000000
10000000
01000000
00100000
00000000
00010000
00100000
00000000
00001000
00010000
00000000
00000010
00000000
00001000
00000000
,
00000002
00000000
00000000
00000013
00000100
00000000
00000010
00000000
00000001
00000100
00000000
00001000
00010000
00000000
00001000
00000000
,
01000000
00000000
01000000
00000000
00010000
00000000
00010000
00000000
10000000
00010000
10000000
00010000
10000000
00000000
00010000
00000000
,
10000000
00000000
01000000
00000000
00100000
00000000
00010000
00000000
00001000
00000100
00001000
00000000
00000001
00000000
00000100
00000000
,
00000001
00000000
00000010
00000000
00001000
00000000
00010000
00001000
00000000
00000100
00001000
00000000
00010000
00000000
00000100
00001000
,
00000001
00000000
00000010
00000000
00000100
00000000
00001000
00000000
00010000
00000000
00100000
01000000
00100000
00000000
00010000
00000000
,
10000000
00000000
00100000
00000000
01000000
00010000
00000000
00010000
00100000
00001000
00100000
00000000
00001000
00000000
00010000
00000000
,
00000010
00000000
00001000
00000000
00000100
00000010
00000000
00000001
00000100
00000000
00000001
00000000
00000100
00000000
00001000
00000000
,
00010000
00000000
00001000
00000000
00100000
00010000
00000000
01000000
00100000
00000000
10000000
00000000
00010000
00000000
10000000
00000000
,
01000000
00000000
00010000
00001000
00000000
00000010
00000001
00000000
00000010
00000100
00000000
00000010
00000000
00000001
00001000
00000100
,
00001000
00000000
00000001
00000100
00000000
00001000
00010000
00000000
00001000
00100000
00001000
00100000
00010000
00000000
10000000
00000000
,
00020000
00000000
00000000
00000000
,
00000000
00000000
00000000
00000000
,
00030000
00000000
00000000
00000000
,
00000000
00000000
00000000
00000000
;
