
//----- song ID: hane -----//
#TITLE:羽根亡き少女唄;
#ARTIST:純情ディスコード;
#TITLETRANSLIT:Hanenaki shoujo uta;
#ARTISTTRANSLIT:Junjou Discord;
#BANNER:Hanenaki shoujo uta.png;
#BACKGROUND:Hanenaki shoujo uta-bg.png;
#CDTITLE:./CDTitles/GITADORA.png;
#MUSIC:Hanenaki shoujo uta.ogg;
#SAMPLESTART:47.685;
#SAMPLELENGTH:15;
#DISPLAYBPM:174;
#BPMS:0=172.6,4=174;
#NOTES:
     dance-single:
     :
     Beginner:
     3:
     :
0000
0000
0000
0000
,
0000
0000
0000
0000
,
0000
0000
0000
0000
,
0000
0000
0000
0000
,
0000
0000
0000
0000
,
0000
0000
0000
0000
,
0000
0000
0000
0000
,
1000
0000
0000
0000
,
1000
0000
0000
0000
,
2000
0000
3000
0000
,
0002
0000
0003
0000
,
1000
0000
0000
0000
,
0001
0000
0000
0000
,
0010
0000
0000
0000
,
0100
0000
0000
0000
,
1000
0000
0000
0000
,
1000
0000
0000
0000
,
0001
0000
0000
0000
,
0001
0000
0000
0000
,
1000
0000
1000
0000
,
1000
0000
0000
0000
,
0001
0000
0001
0000
,
0001
0000
0000
0000
,
1000
0000
0000
0000
,
0001
0000
0000
0000
,
2000
0000
3000
0000
,
0000
0000
0000
0000
,
1000
0000
0000
0000
,
1000
0000
0000
0000
,
0001
0000
0001
0000
,
0001
0000
0000
0000
,
0010
0000
0000
0000
,
0010
0000
0000
0000
,
0100
0000
0000
0000
,
1001
0000
0000
0000
,
1000
0000
1000
0000
,
1000
0000
0000
0000
,
0001
0000
0001
0000
,
0001
0000
0000
0000
,
0010
0000
0000
0000
,
0010
0000
0000
0000
,
0010
0000
0010
0000
,
0010
0000
0000
0000
,
0001
0000
0000
0000
,
0001
0000
0000
0000
,
1000
0000
0000
0000
,
1000
0000
0000
0000
,
0010
0000
0000
0000
,
0010
0000
0000
0000
,
0100
0000
0000
0000
,
0002
0000
0000
0000
,
0000
0003
0000
0000
,
0000
0001
0000
0000
,
0000
1000
0000
0000
,
0000
1000
0000
0000
,
0000
0001
0000
0000
,
0000
1000
0000
0000
,
0000
0001
0000
0000
,
0000
1001
0000
0000
,
0000
1000
0000
0000
,
0000
0000
0000
0000
,
0000
0001
0000
0000
,
0000
0000
0000
0000
,
0000
1000
0000
1000
,
0000
0001
0000
0001
,
0000
1000
0000
1000
,
0000
1000
0000
0000
,
0000
1000
0000
0000
,
0000
1000
0000
0000
,
0000
0001
0000
0000
,
0000
0001
0000
0000
,
0000
1000
0000
1000
,
0000
0001
0000
0001
,
0000
1000
0000
0001
,
0000
1000
0000
0000
,
0000
1001
0000
0000
,
0000
1000
0000
0000
,
0000
1000
0000
0000
,
0000
0001
0000
0000
,
0000
0001
0000
0000
,
0000
0010
0000
0000
,
0000
0010
0000
0000
,
0000
0100
0000
0000
,
0000
0100
0000
0000
,
0000
0000
0000
0000
;
#NOTES:
     dance-single:
     :
     Easy:
     06:
     :
0000
0000
0000
0000
,
0000
0000
0000
0000
,
0000
0000
0000
0000
,
0000
0000
0000
0000
,
0000
0000
0000
0000
,
0000
0000
0000
0000
,
0000
0000
0000
0000
,
1000
0000
0100
0000
,
0010
0000
0001
0000
,
2000
0000
0000
0000
,
3002
0000
0000
0003
,
1000
0001
0000
0001
,
0100
0001
0000
0001
,
0010
0001
0000
0001
,
1000
0000
0001
0000
,
1000
0000
0010
0000
,
0100
0000
0001
0000
,
1000
0010
0100
0001
,
1000
0000
0001
0000
,
1000
0010
1000
0000
,
0001
0010
0001
0000
,
1000
0010
0100
0000
,
0001
0010
0100
0000
,
1000
1000
0100
0000
,
0010
0010
0001
0000
,
2002
0000
0000
3003
,
1000
1000
0001
0001
,
1000
0000
0010
0000
,
0100
0000
0001
0000
,
1000
0000
0001
0000
,
1000
0100
1000
0000
,
0010
0010
0100
0010
,
1000
1000
0001
1000
,
0002
0000
1003
0001
,
1001
0000
0000
0000
,
1000
0010
1000
0010
,
0100
0001
0100
0000
,
0001
0100
0001
0100
,
0010
1000
0010
0000
,
0100
0001
0100
0000
,
0010
1000
0010
0000
,
0010
0010
0100
0100
,
0110
0000
0000
0000
,
1000
0001
0100
0000
,
0001
1000
0100
0000
,
1000
1000
0100
0100
,
0020
0000
0030
0000
,
0001
0000
0001
0000
,
0010
0000
0010
0000
,
0100
0100
0100
0000
,
1000
0000
0001
0000
,
0000
1000
0000
0100
,
0000
1000
0000
0010
,
0000
1000
0000
0001
,
0000
0010
0100
0010
,
0000
0001
0010
0001
,
0000
1000
0100
1000
,
0000
0001
0000
1000
,
0000
1001
0000
0000
,
0000
2000
0000
3000
,
0000
0200
0000
0300
,
0000
0020
0000
0030
,
0000
0001
1000
0001
,
0000
1000
0000
1000
,
0000
0001
0000
0001
,
0000
0010
0100
1000
,
0001
2000
0000
3000
,
0000
1000
0100
1000
,
0000
0001
0100
0001
,
0000
1000
1000
0001
,
0001
0010
0100
0010
,
0000
0001
0000
1000
,
0000
0010
0100
0010
,
0100
0001
0001
1000
,
1000
0001
0000
1000
,
0001
1001
0000
0000
,
0000
1000
1000
0001
,
0000
0010
0010
0100
,
0000
1000
0000
0001
,
0000
1000
1000
0001
,
0000
0010
0000
0110
,
0000
1000
0000
1001
,
0000
1000
0100
0010
,
0001
1000
0000
0000
,
0000
0000
0000
0000
;
#NOTES:
     dance-single:
     :
     Medium:
     11:
     :
0000
0000
0000
0000
,
0000
0000
0000
0000
,
0000
0000
0000
0000
,
0000
0000
0000
0000
,
0000
0000
0000
0000
,
0000
0000
0000
0000
,
0000
0000
0000
0000
,
2000
0000
3002
0000
,
0013
0100
1000
0001
,
2000
0000
0000
0001
0000
0000
3001
0000
,
0200
0000
0010
0310
,
1000
0000
0001
0000
0001
0020
0000
0100
,
0000
0130
0000
0010
0001
1000
0000
1000
,
0001
0000
0010
0200
0000
0000
0000
0000
,
0000
0000
0300
0000
0000
0010
0001
1000
,
0000
0000
1000
0001
0100
0020
0000
0230
,
0000
0302
2003
3200
,
0310
0000
0100
0010
0002
0000
0003
0000
,
1000
0000
0001
0000
1000
1001
0000
0000
,
1001
0000
0002
0000
0103
0010
0000
0010
,
0200
0000
0302
0000
1003
0001
0000
0001
,
1000
0000
0000
0100
0000
0000
0010
0000
0000
0000
0200
0000
0000
0000
0000
0000
,
0300
1000
0100
1000
0000
0001
0010
0001
,
0000
0000
1000
1000
0010
0200
0000
0302
,
0000
0000
0000
0000
0023
0000
0000
0000
0130
0000
0000
1000
0000
0000
0100
0000
,
2000
0001
0000
0001
,
3001
0000
0001
0100
,
0002
0000
1003
2000
0000
0000
0000
3010
,
0200
0000
0000
0000
0000
0000
0000
0000
0301
0000
0000
0010
0000
0000
0100
0000
,
2000
0000
3002
0000
0000
0203
0000
0302
,
0000
0013
0001
2000
0000
0000
3001
0000
,
1000
0010
1000
0000
0001
0010
0001
0000
,
1000
0001
0100
0000
0001
1000
0100
0000
,
2000
0000
0000
0000
0000
0000
0000
0000
3001
0000
0000
0010
0000
0000
0001
0000
,
0200
0000
0310
1000
,
0002
0000
1003
0020
0000
1030
0100
0010
,
0001
0000
0000
1000
0000
0000
0001
0000
0000
0000
0000
0000
1000
0000
0100
0000
,
2000
0000
3001
0020
0000
0031
0100
0010
,
1000
0000
0000
0001
0000
0000
1000
0000
0000
0000
0000
0000
1000
0000
0100
0000
,
2000
0001
3002
1000
,
1003
0000
0000
0010
0000
0000
0100
0000
0001
0000
0000
0000
1000
0000
0001
0000
,
2000
3200
0320
0032
,
0203
0000
0000
0300
,
0001
0000
0100
0000
0001
0100
0001
0000
,
1000
0000
0100
0000
1000
0100
1000
0000
,
0001
0000
1000
0000
0001
0010
0001
2000
,
0000
0000
0001
3001
,
1000
0000
0001
0000
0010
0100
0010
0000
,
0001
0000
1000
0000
0010
0100
0010
0000
,
1000
0100
0010
0001
,
1000
0000
0000
1000
0000
0000
1000
0000
0001
0000
0000
0001
0000
0000
0001
0000
,
0000
0000
1001
0000
1000
0000
1000
0100
,
0000
0100
0010
0000
0001
0000
0001
0100
,
0000
0100
0010
0000
1000
0000
1000
0001
,
0000
0002
0000
1003
0001
0200
0000
0000
,
0310
1000
1000
0001
,
0001
0000
0010
0001
0010
0000
0100
1000
,
0100
0000
0020
0000
0000
0001
0000
0000
,
0130
1001
0000
2000
,
3002
0000
0203
0000
0310
2000
0000
0000
,
3001
0000
1000
0000
0200
0000
0000
0010
0000
0000
0310
0000
0000
0000
0000
0000
,
0001
1000
0020
0000
0130
0002
0000
0000
,
1003
0000
0001
0000
0020
0000
0000
0100
0000
0000
0130
0000
0000
0000
0000
0000
,
1000
0100
1000
0001
0000
0001
2000
0000
,
3000
0000
0001
1000
0000
1000
0002
0000
,
1003
0100
0020
0000
0032
0000
1003
0100
,
1000
0100
0020
0000
0000
0030
0001
0000
,
1000
0000
0200
0000
1300
0020
0000
1030
,
0100
0000
0010
0000
0001
0000
0000
1000
0000
0000
0001
0000
0000
0000
0000
0000
,
1000
0100
2000
0000
3001
0020
0000
0031
,
0100
0000
0010
0000
1000
0000
0000
0001
0000
0000
1000
0000
0000
0000
0000
0000
,
1000
0100
2000
0000
0001
0000
3002
0000
,
1000
0000
0000
0000
1003
0000
0000
0010
0000
0000
0100
0000
0001
0000
0000
0000
,
1000
0001
2000
0000
3200
0000
0320
0000
,
0032
0203
0000
0000
,
0300
0110
0000
0000
,
1001
0002
0000
0000
,
0003
1000
1000
0001
,
0001
0010
0100
1000
,
0010
0100
0001
2000
,
3002
0023
0000
0230
,
0000
1300
0100
0010
,
0001
2000
0010
3001
,
0001
2000
0000
0000
0000
0000
0000
0000
,
3000
0000
0000
0000
,
0000
0000
0000
0000
;
#NOTES:
     dance-single:
     :
     Hard:
     14:
     :
0000
0000
0000
0000
,
0000
0000
0000
0000
,
0000
0000
0000
0000
,
0000
0000
0000
0000
,
0000
0000
0000
0000
,
0000
0000
0000
0000
,
0000
0000
1000
0100
,
0020
0000
0000
0030
0002
0000
0000
1003
,
0001
0010
0100
1000
,
1020
0000
0000
0100
0000
0000
1030
0000
,
2000
0010
0000
0000
3001
0010
0100
1000
,
0001
0000
0100
0000
1000
0100
0000
0001
,
0101
0000
1000
0000
0100
0001
0000
0100
,
1100
0000
1000
0000
0000
1000
0100
0020
,
0000
0130
0010
0002
0000
0013
0001
1000
,
1001
0000
1000
0100
0001
0100
0010
0100
,
1100
0000
0001
0100
1000
0100
0010
0000
,
1000
0010
0100
0001
0010
0100
1000
0010
,
0110
0000
0100
0001
0100
0101
0000
0000
,
1000
0100
1000
0010
1000
0100
0000
1000
,
0001
0010
0001
0100
0001
1000
0000
0001
,
1000
0000
0000
0100
0000
0000
0010
0000
0000
0000
0001
0000
0000
0000
0100
0000
,
0010
0100
1000
0100
0000
0100
0001
0010
,
0001
0000
1000
0001
0100
0001
1000
1100
,
0000
0001
0100
1000
0100
0001
0010
0100
,
1000
0000
0001
0001
0000
1000
0010
1010
,
0000
0110
0000
0101
0000
0001
0010
0100
,
1000
0000
0100
0000
0100
0010
1000
0010
,
0001
0000
0100
0000
0100
1000
0100
0001
,
0010
0000
0001
0000
0001
0010
0100
0110
,
0000
1000
0001
1001
0000
1000
0100
0000
,
1000
0100
1000
0100
0010
0001
0010
0001
,
0100
0010
0100
0010
1000
0001
1001
0000
,
1001
0010
0100
1001
0010
0100
1001
0000
,
1000
0001
0010
0100
1001
0000
0000
0000
,
0001
0000
0010
0000
0001
0000
0100
0000
0010
0000
1000
0000
0001
0100
0001
0000
,
1000
0000
0010
0000
1000
0000
0100
0000
0010
0000
0001
0000
1000
0100
1000
0000
,
0001
0000
0010
0000
0001
0000
1000
0000
0100
0000
1000
0000
0001
0010
0001
0000
,
1000
0000
0000
0001
0000
0000
0010
0000
0000
0000
0100
0000
1000
0000
0100
0000
,
0010
0001
0011
0000
1000
0100
1100
0000
,
1000
0000
0000
0010
0000
0000
0100
0000
0001
0000
1000
0010
1000
0000
0001
0000
,
0010
0100
1000
0011
0000
1000
0101
0000
,
0002
0000
2000
3003
,
0001
0000
0010
0100
0000
0010
0100
0000
1000
0000
0000
0001
0000
0000
2000
0000
,
0000
3001
0100
1000
0100
0001
0010
0001
,
0200
0000
0320
0000
1030
0100
0010
0002
,
0000
0103
0010
2000
0000
3200
0000
0300
,
1000
0000
0100
0010
0001
1000
0100
0010
,
0001
0100
1000
0200
0000
0310
1000
0010
,
1000
0100
1000
0001
0000
0010
0001
0000
,
0100
0000
0000
0010
0000
0000
1000
0000
0001
0000
0000
0010
0000
0000
0100
0000
,
0000
0000
0110
0000
0010
0100
1000
0100
,
1000
1100
0000
0001
0100
0101
0000
0100
,
0010
0000
0100
0010
0100
0000
0001
0000
1000
0000
0001
0000
0000
0000
0001
0000
,
0010
0002
0000
1003
0001
2000
0000
0010
,
3010
0000
1000
0010
1000
0000
0001
0000
0010
0000
0001
0000
1000
0000
0100
0000
,
1000
0100
0010
0100
0010
0100
0001
0100
,
0001
0100
1001
1000
0000
0110
0010
0000
,
1001
0000
1000
0100
0010
0100
0020
0000
,
0032
0000
1003
0100
0010
0001
1000
0100
,
0010
0100
0010
0001
1000
0100
0010
0100
,
0010
0001
1000
0100
0001
1000
0010
0001
,
1000
0100
0010
0011
0000
1100
0000
2002
,
0000
0000
3003
0000
0001
0000
1000
0000
0000
0000
0010
0100
0010
0000
0100
0000
,
0001
0000
0010
0000
0001
0000
1000
0000
0000
0000
0010
0100
0010
0000
0100
0000
,
0001
0010
1000
0000
1000
0010
0001
0010
,
0100
1000
0001
0001
1000
1000
0002
0000
,
0203
0000
0301
0100
0001
0010
0100
1000
,
0001
0010
0001
0000
1000
0000
0100
0000
1000
0000
0010
0000
0100
0000
0001
0000
,
1000
0010
1000
0000
0001
0000
0100
0000
0001
0000
1000
0000
0010
0000
1000
0000
,
0001
0100
0001
0000
1000
0000
0100
0010
0100
0000
1000
0000
0001
0000
2000
0000
,
0000
0000
3001
0010
0001
0010
0100
1000
,
0100
0000
1000
0000
0010
0000
0000
1000
0000
0000
0001
0000
0100
0000
0000
0000
,
0010
0000
0100
0000
0001
0000
1000
0100
1000
0000
0010
0000
0100
0001
0100
0000
,
0010
0000
1000
0000
0001
0000
0010
0100
0010
0000
0100
0000
1000
0000
0000
0000
,
0010
0000
0000
0000
0220
0000
0000
0000
0000
0000
0330
0000
0000
0000
0010
0100
,
0010
0000
1000
0100
1000
0010
0100
0001
,
1000
0010
1000
0000
0001
0000
0100
0000
0001
0000
0010
0000
0100
0000
1000
0000
,
0001
0010
0001
0000
1000
0000
0100
0000
1000
0000
0001
0000
0010
0000
0001
0000
,
1000
0100
1000
0000
0001
0000
0010
0000
0011
0000
0000
0000
1000
0000
0100
0000
,
1000
0100
1000
0000
0001
0000
1000
0000
0000
0000
0010
0100
0010
0000
1000
0000
,
0000
0000
1000
0000
0001
0000
1000
0000
0000
0000
0100
0010
0100
0000
1000
0000
,
0000
1000
0100
0010
0100
0110
0000
0001
,
1000
0002
0000
0000
0000
0000
0000
0000
,
0013
0100
0010
0000
0000
0000
0000
0000
0000
0000
0000
0000
0000
0000
0000
0000
,
0000
0000
0000
0000
;
#NOTES:
     dance-double:
     :
     Easy:
     6:
     :
00000000
00000000
00000000
00000000
,
00000000
00000000
00000000
00000000
,
00000000
00000000
00000000
00000000
,
00000000
00000000
00000000
00000000
,
00000000
00000000
00000000
00000000
,
00000000
00000000
00000000
00000000
,
00000000
00000000
00000000
00000000
,
10000000
00000000
01000000
00000000
,
00100000
00000000
00010000
00000000
,
00200000
00000000
00000000
00000000
,
00302000
00000000
00000000
00003000
,
00010000
00001000
00000000
00001000
,
00000010
00000100
00000000
00000100
,
00001000
00000001
00000000
00000001
,
00000100
00000000
00000010
00000000
,
00001000
00000000
00000100
00000000
,
00010000
00000000
00001000
00000000
,
00100000
00010000
10000000
01000000
,
00010000
00000000
00001000
00000000
,
00010000
00000100
00001000
00000000
,
00000100
00001000
00000001
00000000
,
00001000
00000010
00000100
00000000
,
00001000
00000000
00010000
00000000
,
00001000
00100000
00010000
00000000
,
00100000
00010000
10000000
00000000
,
20020000
00000000
00000000
30030000
,
00000000
00000000
00010000
10000000
,
01000000
00000000
00100000
00000000
,
00001000
00000000
00010000
00000000
,
00000100
00000000
00001000
00000000
,
00000001
00001000
00000001
00000000
,
00001000
00001000
00000100
00010000
,
00001000
00001000
00100000
00010000
,
00020000
00000000
10030000
00010000
,
10010000
00000000
00000000
00000000
,
10000000
01000000
10000000
01000000
,
00100000
00001000
00010000
00000000
,
00001000
00010000
00001000
00010000
,
00000100
00000010
00000001
00000000
,
00000002
00000000
00001003
00000010
,
00001000
00000100
00001000
00000000
,
00000010
00000010
00010000
00001000
,
00011000
00000000
00000000
00000000
,
00001000
00000000
00100000
00000000
,
01000000
10000000
01000000
00000000
,
10000000
10000000
01000000
01000000
,
00020000
00000000
00030000
00000000
,
00001000
00000000
00000010
00000000
,
00000001
00000000
00000100
00000000
,
00000010
00000010
00000010
00000000
,
00001000
00000000
00000100
00000000
,
00000000
00010000
00000000
00001000
,
00000000
00100000
00000000
01000000
,
00000000
10000000
00000000
00100000
,
00000000
01000000
00010000
01000000
,
00000000
00001000
00010000
00001000
,
00000000
00000010
00000100
00000010
,
00000000
00000001
00000000
00001000
,
00000000
00001001
00000000
00000000
,
00000000
00000002
00000000
00000003
,
00000000
00000200
00000000
00000300
,
00000000
00002000
00000000
00003000
,
00000000
00020000
00000000
00031000
,
00000000
00100000
00000000
00100000
,
00000000
00010000
00000000
00010000
,
00000000
00100000
00001000
00010000
,
00000100
00002000
00000000
00003000
,
00000000
00000100
00010000
00001000
,
00000000
00100000
00010000
01000000
,
00000000
00100000
10000000
00100000
,
10000000
01000000
00100000
01000000
,
00000000
00100000
00000000
00010000
,
00000000
00001000
00000100
00001000
,
00000000
00000100
00000100
00000010
,
00000010
00000001
00000000
00000001
,
00001000
00001001
00000000
00000000
,
00000000
00000001
00001000
00000100
,
00000000
00000100
00010000
00001000
,
00000000
00100000
00000000
01000000
,
00000000
10000000
01000000
00010000
,
00000000
00001000
00000000
00011000
,
00000000
00000010
00000000
00000110
,
00000000
00000001
00000010
00000100
,
00001000
00000001
00000000
00000000
,
00000000
00000000
00000000
00000000
;
#NOTES:
     dance-double:
     :
     Medium:
     11:
     :
00000000
00000000
00000000
00000000
,
00000000
00000000
00000000
00000000
,
00000000
00000000
00000000
00000000
,
00000000
00000000
00000000
00000000
,
00000000
00000000
00000000
00000000
,
00000000
00000000
00000000
00000000
,
00000000
00000000
00000000
00000000
,
20000000
00000000
30020000
00000000
,
00130000
00010000
00001000
00000100
,
00000020
00000000
00000000
00000030
,
00000002
00000000
00001000
00001003
,
00000000
00000000
00000001
00000000
00000001
00000200
00000000
00000010
,
00000000
00000310
00000000
00010000
00001000
00010000
00000000
00001000
,
00100000
00000000
00010000
02000000
00000000
00000000
00000000
00000000
,
00000000
00000000
03000000
00000000
00000000
00100000
01000000
00100000
,
00000000
00000000
10000000
00010000
00100000
02000000
00000000
03200000
,
00000000
00302000
00023000
00032000
,
00003020
00000000
00000230
00000300
,
00000010
00000000
00000001
00000000
00001000
00001001
00000000
00000000
,
00001010
00000000
00000000
00000000
00000020
00000000
00000000
00000000
00010030
00000000
00000000
00000100
00000000
00000000
00001000
00000000
,
00000100
00000000
00000000
00010000
00000000
00000000
00002000
00000000
00000000
00000000
00000000
00000000
00023000
00000000
00000000
00000000
,
00130000
00000000
00000000
10000000
00000000
00000000
01000000
00000000
00000000
00000000
20000000
00000000
00000000
00000000
00000000
00000000
,
00000000
00000000
00000000
30000000
00000000
00100000
01000000
00100000
,
00000000
00000000
10000000
10000000
00100000
02000000
00000000
03002000
,
00000000
00000000
00000000
00000000
00023000
00000000
00000000
00000000
00030010
00000000
00000000
00001000
00000000
00000000
00000100
00000000
,
00002000
00000001
00000000
00000001
,
00003001
00000000
00001000
00000100
,
00002000
00000000
00003010
00000020
00000000
00000000
00000000
00010030
,
00020000
00000000
00000000
00000000
00000000
00000000
00000000
00000000
00031000
00000000
00000000
00100000
00000000
00000000
00010000
00000000
,
02000000
00000000
03200000
00000000
00000000
02300000
00000000
03020000
,
00000000
00130000
00010000
20000000
00000000
00000000
30010000
00000000
,
00100000
00000000
00001000
00002000
00000000
00000000
00013000
00000100
,
00001000
00000000
00000000
00000100
00000000
00000000
00000010
00000000
00000001
00000000
00000000
00000000
00001000
00000000
00000000
00000000
,
00000002
00000000
00000000
00000000
00000000
00000000
00000000
00000000
00001003
00000000
00000000
00000100
00000000
00000000
00010000
00000000
,
00002000
00000000
00013000
00100000
,
20000000
00000000
30010000
00200000
00000000
01300000
00100000
00010000
,
00001000
00000000
00000000
00000100
00000000
00000000
00001000
00000000
00000000
00000000
00000000
00000000
00000100
00000000
00001000
00000000
,
00000002
00000000
00001003
00000020
00000000
00000130
00000010
00001000
,
00010000
00000000
00000000
01000000
00000000
00000000
00010000
00000000
00000000
00000000
00000000
00000000
10000000
00000000
00100000
00000000
,
20000000
01000000
32000000
00100000
,
03100000
00000000
00000000
00001000
00000000
00000000
00010000
00000000
00001000
00000000
00000000
00000000
00100000
00000000
00001000
00000000
,
00020000
00032000
00003020
00000230
,
00002300
00000000
00000000
00003000
,
00000001
00000000
00000000
00000010
00000000
00000000
00000001
00000000
00001000
00000000
00000000
00000100
00000000
00000000
00002000
00000000
,
00000000
00000000
00000010
00003100
,
00000100
00000000
00010000
00000000
00001000
00010000
00100000
02000000
,
00000000
00000000
00010000
03100000
,
10000000
00000000
00010000
00000000
00100000
01000000
00100000
00000000
,
00001000
00000000
00010000
00000000
00000100
00000010
00000100
00000000
,
00001000
00000100
00010000
00001000
,
00010000
00000000
00000000
00010000
00000000
00000000
00010000
00000000
00001000
00000000
00000000
00001000
00000000
00000000
00001000
00000000
,
00000000
00000000
00001000
00000000
00010000
00000000
00010000
00000100
,
00000000
00000100
00000010
00000000
00000001
00000000
00000001
00000100
,
00000000
00000100
00000010
00000000
00010000
00000000
00001000
01000000
,
00000000
01000000
00200000
00000000
00000000
00000000
00000000
00000000
,
00300000
00000000
00000000
00000000
20000000
00000000
00000000
00000000
00000000
00000000
30000000
00000000
01000000
00000000
00000000
10000000
,
00000000
00000000
01000000
00000000
00100000
00000000
00000000
00010000
00000000
00000000
00100000
00000000
00001000
00000000
00000000
00000000
,
00001000
00000000
00020000
00000000
00000000
00001000
00000000
00000000
,
00030100
00010100
00000000
00000200
,
00002300
00000000
00003002
00000000
00001003
00000002
00000000
00000000
,
00000103
00000000
00001000
00000000
00020000
00000000
00000000
00001000
00000000
00000000
00031000
00000000
00000000
00000000
00000000
00000000
,
00100000
00010000
20000000
00000000
30010000
20000000
00000000
00000000
,
31000000
00000000
00100000
00000000
00002000
00000000
00000000
00010000
00000000
00000000
00013000
00000000
00000000
00000000
00000000
00000000
,
00000000
00000000
00010000
00000100
00000000
00000100
00000020
00000000
,
00000030
00000000
00000001
00001000
00000000
00001000
00000002
00000000
,
00001003
00000010
00000200
00000000
00002300
00000000
00023000
00000000
,
00230000
02300000
00000000
03010000
,
00010000
00000000
20000000
00000000
30010000
00200000
00000000
01300000
,
00100000
00000000
00010000
00000000
00001000
00000000
00000000
00000100
00000000
00000000
00001000
00000000
00000000
00000000
00000000
00000000
,
00000100
00001000
00000002
00000000
00001003
00000020
00000000
00000130
,
00000010
00000000
00001000
00000000
00010000
00000000
00000000
01000000
00000000
00000000
00010000
00000000
00000000
00000000
00000000
00000000
,
10000000
00100000
20000000
00000000
01000000
00000000
32000000
00000000
,
00100000
00000000
00000000
00000000
03100000
00000000
00000000
00001000
00000000
00000000
00010000
00000000
00001000
00000000
00000000
00000000
,
00100000
00001000
00020000
00000000
00032000
00000000
00003020
00000000
,
00000230
00002300
00000000
00000000
,
00003000
00001100
00000000
00000000
,
00001001
00000002
00000000
00000000
,
00000003
00000001
00000100
00001000
,
00010000
00001000
00010000
00100000
,
10000000
01000000
10000000
20000000
,
30020000
20030000
00000000
30020000
,
00000000
00130000
00010000
00001000
,
00000100
00000020
00000000
00000000
,
00000030
00000002
00000000
00000000
,
00000003
00000000
00000000
00000000
,
00000000
00000000
00000000
00000000
;
#NOTES:
     dance-double:
     :
     Hard:
     14:
     :
00000000
00000000
00000000
00000000
,
00000000
00000000
00000000
00000000
,
00000000
00000000
00000000
00000000
,
00000000
00000000
00000000
00000000
,
00000000
00000000
00000000
00000000
,
00000000
00000000
00000000
00000000
,
00000000
00000000
00001000
00010000
,
00002000
00000000
00000000
00003000
00200000
00000000
00000000
00310000
,
10000000
01000000
00010000
00001000
,
00020000
00000000
00000000
00001000
00000000
00000000
00030100
00000000
,
00000200
00000010
00000000
00000000
00000310
00000001
00000010
00000100
,
00001000
00000000
00000100
00000000
00000010
00001000
00000000
00010000
,
00011000
00000000
00001000
00000000
01000000
00100000
00000000
00010000
,
00011000
00000000
00010000
00000000
00000000
00010000
00001000
00000020
,
00000000
00000130
00000010
00000002
00000000
00000013
00001000
00010000
,
01000000
00000000
10000000
01000000
00010000
01000000
00100000
00010000
,
00001000
00000000
00001000
00000100
00000001
00000100
00000010
00000000
,
00000001
00000100
00000010
00000100
00001000
00010000
00100000
10000000
,
10100000
00000000
00100000
01000000
00010000
01010000
00000000
00000000
,
00010000
00100000
00001000
00010000
00000100
00001000
00000000
00001000
,
00000100
00001000
00000010
00000100
00000001
00001000
00000000
00001000
,
00000001
00000000
00000000
00000100
00000000
00000000
00001000
00000000
00000000
00000000
00010000
00000000
00000000
00000000
01000000
00000000
,
00100000
00010000
00100000
10000000
00000000
10000000
00100000
00010000
,
10000000
00000000
10000000
00100000
01000000
00001000
00010000
00002000
,
00000000
00000000
00013000
00000000
00000100
00000000
00000010
00000000
00000002
00000000
00000000
00000023
00000000
00000000
00000130
00000000
,
00001000
00000000
00000001
00000001
00000000
00001000
00000100
00001100
,
00000000
00011000
00000000
01010000
00000000
00010000
01000000
10000000
,
01000000
00000000
00100000
00000000
01000000
00100000
00010000
00001000
,
00010000
00000000
00001000
00000000
00000100
00000010
00001000
00000100
,
00000001
00000000
00000100
00000000
00001000
00000100
00010000
00010100
,
00000000
00010000
00001000
00101000
00000000
00000000
00100000
00000000
,
00010000
00100000
00010000
00100000
00001000
00010000
00001000
00010000
,
00000100
00000010
00000100
00000010
00000001
00001000
00001001
00000000
,
00001100
00000000
00000000
00011000
00000000
00000000
00110000
00000000
,
10000000
00010000
00100000
01000000
10010000
00000000
00000000
00000000
,
10000000
00000000
01000000
00000000
00010000
00000000
00001000
00000000
00010000
00000000
00001000
00000000
00000010
00000001
00000010
00000000
,
00000001
00000000
00000100
00000000
00001000
00000000
00010000
00000000
00001000
00000000
00010000
00000000
00100000
10000000
00100000
00000000
,
01000000
00000000
00001000
00000000
00010000
00000000
00000100
00000000
00000010
00000000
00001000
00000000
00010000
00001000
00010000
00000000
,
00000100
00000000
00000000
00000010
00000000
00000000
00000001
00000000
00000000
00000000
00000100
00000000
00000010
00000000
00000100
00000000
,
00000010
00010000
00010010
00000000
00010000
00000100
00010100
00000000
,
00010000
00000000
00000000
00001000
00000000
00000000
00100000
00000000
00010000
00000000
10000000
00000000
01000000
00000000
00010000
00000000
,
00001000
00000010
00000001
00001001
00000000
00001000
00001100
00000000
,
00002000
00000000
00000200
00003300
,
00000100
00000000
00010000
00001000
00000000
00010000
00001000
00000000
00100000
00000000
00000000
00010000
00000000
00000000
02000000
00000000
,
00000000
00000000
00000000
00000000
03100000
10000000
01000000
00010000
,
00002000
00000000
00203000
00000000
00310000
00001000
00000100
00000020
,
00000000
00000130
00000010
00000002
00000000
00000203
00000000
00000300
,
00000010
00000000
00000100
00001000
00010000
00001000
00010000
00100000
,
01000000
10000000
01000000
00020000
00000000
10030000
01000000
10000000
,
00100000
10000000
00010000
00100000
00000000
00100000
00001000
00000000
,
00010000
00000000
00000000
00001000
00000000
00000000
00000010
00000000
00001000
00000000
00000000
00010000
00000000
00000000
00100000
00000000
,
00000000
00000000
00011000
00000000
00010000
00100000
10000000
01000000
,
10000000
11000000
00000000
01000000
00100000
01100000
00000000
00100000
,
00001000
00000000
00010000
00001000
00010000
00000000
00000100
00000000
00000010
00000000
00000001
00000000
00000000
00000000
00000001
00000000
,
00000100
00002000
00000000
00013000
00100000
20000000
00000000
00010000
,
30010000
00000000
00100000
00010000
10000000
00000000
00010000
00000000
00100000
00000000
00010000
00000000
10000000
00000000
01000000
00000000
,
10000000
01000000
00010000
01000000
00010000
01000000
00010000
00001000
,
00010000
00001000
00011000
00000000
00000000
00001100
00000000
00000000
,
00000110
00000000
00000001
00001000
00000001
00001000
00000002
00000000
,
00000023
00000000
00000031
00000010
00000100
00001000
00000100
00001000
,
00010000
00001000
00010000
00100000
00010000
00100000
01000000
00100000
,
01000000
10000000
01000000
00100000
00010000
00100000
00010000
00001000
,
00010000
00001000
00000100
00001100
00000000
00000110
00000000
00002002
,
00000000
00000000
00003003
00000000
00000001
00000000
00001000
00000000
00000000
00000000
00000010
00000100
00000010
00000000
00001000
00000000
,
00010000
00000000
01000000
00000000
00010000
00000000
10000000
00000000
00000000
00000000
00100000
01000000
00100000
00000000
10000000
00000000
,
01000000
00010000
00001000
00000000
00001000
00010000
00001000
00000010
,
00000001
00001000
00000010
00000010
00000100
00000100
00000002
00000000
,
00002003
00000000
00003001
00000100
00001000
00010000
00001000
00010000
,
00100000
10000000
00100000
00000000
10000000
00000000
01000000
00000000
00010000
00000000
00001000
00000000
00010000
00000000
00001000
00000000
,
00000010
00000001
00000010
00000000
00000100
00000000
00010000
00000000
00001000
00000000
01000000
00000000
00100000
00000000
00010000
00000000
,
00001000
00010000
00001000
00000000
01000000
00000000
00000000
00100000
00000000
00000000
10000000
00000000
00000000
00000000
01000000
00000000
,
00100000
01000000
00100000
00001000
00101000
00000000
00001000
01000000
,
01001000
00000000
00000000
00000000
00001000
00000000
00000000
00010000
00000000
00000000
00000010
00000000
00001000
00000000
00000001
00000000
,
00000100
00001000
00010000
00100000
01000000
01100000
00000000
01000000
,
01001000
00000000
00002000
00000000
00003000
00200000
00000000
00000000
,
00301000
00000000
00000000
00000000
00022000
00000000
00000000
00000000
00000000
00000000
00033000
00000000
00000000
00000000
00001000
00010000
,
00001000
00000000
00010000
00001000
00000010
00000001
00000010
00000100
,
00001000
00000100
00010000
00000000
00001000
00000000
00010000
00000000
00100000
00000000
10000000
00000000
00100000
00000000
01000000
00000000
,
00010000
00100000
00001000
00000000
00010000
00000000
00000100
00000000
00001000
00000000
00000010
00000000
00010000
00000000
00001000
00000000
,
00100000
00010000
01000000
00000000
00010000
00000000
01000000
00000000
01010000
00000000
00000000
00000000
20000000
00000000
00000000
00000000
,
32000000
00000000
00000000
00000000
03100000
00000000
00001000
00000000
00000000
00000000
00010000
00001000
00010000
00000000
00000100
00000000
,
00000000
00000000
00000100
00000000
00001000
00000000
00000010
00000000
00000000
00000000
00000100
00000010
00000100
00000000
00000001
00000000
,
00000000
00000001
00000100
00001000
00010000
00100000
00000000
00100000
,
10000000
00020000
00000000
00000000
00000000
00000000
00000000
00000000
,
00130000
01000000
00100000
00000000
00000000
00000000
00000000
00000000
00000000
00000000
00000000
00000000
00000000
00000000
00000000
00000000
,
00000000
00000000
00000000
00000000
;
