
//----- song ID: hage -----//
#TITLE:白日と幻月;
#ARTIST:めと(Metomate);
#TITLETRANSLIT:Hakujitsu to gengetsu;
#ARTISTTRANSLIT:Meto (Metomate);
#BANNER:Hakujitsu to gengetsu.png;
#BACKGROUND:Hakujitsu to gengetsu-bg.png;
#CDTITLE:./CDTitles/DDR WORLD.png;
#MUSIC:Hakujitsu to gengetsu.ogg;
#SAMPLESTART:50.32;
#SAMPLELENGTH:15;
#BPMS:0=118;
#BGSTAGE:3;
#NOTES:
     dance-single:
     :
     Beginner:
     1:
     :
0000
0000
0000
0000
,
0000
0000
0000
0000
,
0000
0000
0000
0000
,
0000
0000
0000
0000
,
0000
0000
0000
0000
,
0001
0000
0000
0000
,
0000
0000
0000
0000
,
0001
0000
0000
0000
,
0000
0000
0000
0000
,
0010
0000
0000
0000
,
0000
0000
0000
0000
,
0100
0000
0000
0000
,
0000
0000
0000
0000
,
0010
0000
0000
0000
,
0000
0000
0000
0000
,
0010
0000
0000
0000
,
0000
0000
0000
0000
,
1000
0000
0000
0000
,
0000
0000
0000
0000
,
1000
0000
0000
0000
,
0000
0000
0000
0000
,
0010
0000
0000
0000
,
0000
0000
0000
0000
,
0010
0000
0000
0000
,
0000
0000
0000
0000
,
0001
0000
0000
0000
,
0001
0000
0000
0000
,
0001
0000
0000
0000
,
0000
0000
0000
0000
,
0010
0000
0000
0000
,
0000
0000
0000
0000
,
0100
0000
0000
0000
,
0000
0000
0000
0000
,
0000
0000
0000
0000
,
0010
0000
0000
0000
,
0010
0000
0000
0000
,
0000
0000
0000
0000
,
1000
0000
0000
0000
,
0000
0000
0000
0000
,
1000
0000
0000
0000
,
0000
0000
0000
0000
,
0000
0000
0000
0000
,
0000
0000
0000
0000
,
1000
0000
0000
0000
,
0000
0000
0000
0000
,
0010
0000
0000
0000
,
0000
0000
0000
0000
,
0010
0000
0000
0000
,
0000
0000
0000
0000
,
0001
0000
0000
0000
,
0000
0000
0000
0000
,
0001
0000
0000
0000
,
0000
0000
0000
0000
,
0010
0000
0000
0000
,
0000
0000
0000
0000
,
0010
0000
0000
0000
,
0000
0000
0000
0000
,
1000
0000
0000
0000
,
1000
0000
0000
0000
,
0000
0000
0000
0000
;
#NOTES:
     dance-single:
     :
     Easy:
     4:
     :
0000
0000
0000
0000
,
0000
0000
0000
0000
,
0000
0000
0000
0000
,
0000
0000
0000
0000
,
0000
0000
0000
0000
,
1000
0001
1000
0000
,
1000
1000
0001
0000
,
0001
1000
0001
0000
,
0001
0001
1000
0000
,
0001
0010
0100
1000
,
0001
0000
0000
0000
,
0002
0000
0000
0003
,
2000
0000
0000
3000
,
1001
0000
0000
0000
,
0110
0000
0000
0000
,
1000
0010
0100
0001
,
2000
0000
0000
3000
,
1000
0000
0100
0000
,
0010
0010
0010
0000
,
0001
0000
1000
0000
,
1001
0000
0000
0000
,
0002
0000
0000
0003
,
2000
0000
0000
3000
,
0010
0000
0100
0000
,
0010
0000
0000
0000
,
1000
1000
0001
0000
,
1000
0100
0010
0000
,
0001
0001
1000
0000
,
0001
0100
0010
0000
,
0110
0000
0000
0000
,
1001
0000
0000
0000
,
2000
0000
0000
3000
,
0002
0000
0000
0003
,
0000
0001
0001
0000
,
0100
0010
0100
0000
,
0110
0000
0000
0000
,
1001
0000
0000
0000
,
0001
0010
0100
0000
,
0010
0100
1000
0000
,
2000
0000
0000
0000
,
3000
0000
0000
0000
,
1000
0000
1000
0000
,
0001
1000
0001
0000
,
0001
0100
0010
1000
,
0001
0000
0000
0000
,
1001
0000
0000
0000
,
0110
0000
0000
0000
,
1000
0100
0010
0001
,
1000
0000
0000
0000
,
1000
0000
0001
0000
,
0010
0100
0010
0000
,
0001
0000
1000
0000
,
0010
0100
0010
0000
,
1000
1000
1000
0000
,
0001
0001
0001
0000
,
0200
0000
0000
0300
,
0020
0000
0000
0030
,
1000
0000
0001
0000
,
1001
0000
0000
0000
,
0000
0000
0000
0000
;
#NOTES:
     dance-single:
     :
     Medium:
     7:
     :
0000
0000
0000
0000
,
0000
0000
0000
0000
,
0000
0000
0000
0000
,
0000
0000
0000
0000
,
0000
0000
0000
0000
,
1000
0000
0001
0000
0010
0100
0010
0000
,
0002
1000
1003
0000
,
0001
0000
1000
0000
0100
0010
0100
0000
,
2000
0001
3001
0000
,
0001
0100
0010
0010
,
1000
0010
1000
0000
0001
0000
0000
0000
,
2000
0000
3000
0000
,
0002
0000
0003
0000
,
1001
0000
0110
0000
,
1000
0100
0010
0000
,
0002
0000
0000
0003
,
2000
0000
0000
3000
,
0001
0100
0001
0000
,
0100
0010
0100
0000
,
0010
1000
0010
0000
,
1000
0001
1000
0000
,
0002
0000
0003
0001
,
2000
0000
3000
1000
,
0020
0030
0200
0300
,
0110
0000
0000
0000
,
1000
0000
0010
0000
0100
0001
1000
0000
,
0200
0000
0000
0300
,
1000
0000
0100
0000
0010
0001
1000
0000
,
0020
0000
0200
0330
,
0001
0100
1000
0000
,
1000
0100
0001
0000
,
0001
0010
0001
0000
0100
0000
0010
0000
,
2000
0001
0001
3001
,
0000
0000
1001
0000
1000
0100
0010
0000
,
0002
0000
0000
0003
,
0001
0100
0010
1000
,
0001
0000
0010
0000
0100
1000
0100
0000
,
1000
0001
1000
0000
0010
0100
0010
0000
,
1000
0010
1000
0000
0001
0100
0001
0000
,
2000
0000
0000
0000
,
3000
0000
0000
0000
,
1000
0000
0100
0000
1000
0010
0100
0000
,
0002
0003
2000
3000
,
0001
0100
0010
0000
1000
0100
0010
0000
,
0200
0300
0020
0030
,
0001
1000
1001
0000
,
0100
0010
0110
0000
,
0001
0000
1000
0000
0010
0100
0001
0000
,
2000
0000
0000
3000
,
1000
0100
0001
0100
,
1000
0100
1000
0000
0001
0010
0001
0000
,
1000
0010
0001
0010
,
1000
0010
1000
0000
0001
0000
0100
0000
,
0001
0000
1001
0000
1000
0100
0010
0000
,
0001
0000
1001
0000
1000
0010
0100
0000
,
0002
0000
0000
0003
,
2000
0000
0000
3000
,
0000
0000
1000
0000
0001
0000
0000
0001
0000
0000
0100
0000
0010
0000
0100
0000
,
0000
0000
0000
0000
;
#NOTES:
     dance-single:
     :
     Hard:
     10:
     :
0000
0000
0000
0000
,
0000
0000
0000
0000
,
0000
0000
0000
0000
,
0000
0000
0000
0000
,
0000
0000
0000
0000
,
0001
0000
1000
0000
0100
0010
0001
0000
,
1000
0010
1000
0000
0001
0100
0001
0000
,
2000
3100
0200
0310
,
0002
0103
0200
0310
,
1000
0000
1010
0000
0010
1000
0100
0000
,
0010
0000
0011
0000
0001
1000
0001
0000
,
2000
3100
0002
0103
,
1000
0010
0100
0001
0100
0010
1000
0000
,
0001
0000
0000
0000
1001
0000
0000
1000
0000
0001
0000
1000
0000
0001
0000
0000
,
1000
0000
0100
0000
0001
0100
1000
0000
,
0002
0003
2000
3000
,
0001
0000
0100
0000
0010
0000
0000
0010
0000
1000
0000
1000
0000
0000
0000
0000
,
2000
0000
3000
0000
,
1000
0000
0000
0010
0000
0000
0000
0010
0000
0000
0000
0000
0000
0000
0000
0000
,
1000
0000
0000
1000
0000
0000
1000
0000
0001
0000
0000
0001
0000
0000
0001
0000
,
0100
0000
0000
0100
0000
0000
0100
0000
0010
0000
0000
0000
0110
0000
0000
0000
,
2000
0000
0000
0000
3000
0000
0000
0000
1000
0100
0000
0010
0000
0000
0000
0000
,
0002
0000
0003
0001
0200
0000
0320
0000
,
0130
0000
0000
0100
0000
0000
0010
0000
0000
0010
0000
0000
0110
0000
0000
0000
,
1001
0000
0000
0000
,
1000
0010
0100
0001
0010
0100
1000
0000
,
0002
0023
0230
2300
,
3001
0100
0001
0010
0100
1000
0010
1000
,
0100
0110
2002
3003
,
2000
3000
0020
0030
,
0200
0000
0000
0000
0300
0000
0000
0000
0001
0000
0000
1000
0000
0000
0001
0000
,
0100
0110
1000
1001
,
0001
0010
0100
1000
0001
1000
0100
0010
,
0000
0000
1001
0000
1000
0100
0010
0100
,
1000
0000
0001
0000
0000
0100
0000
0100
0000
0000
0000
0000
0001
0000
1000
0000
,
0020
0100
2030
0100
,
3001
0000
0000
0100
0000
0000
0001
0000
1000
0000
0010
0000
1000
0000
0000
0000
,
0001
0010
0001
0010
0100
0010
0100
0000
,
1000
0001
1000
0001
0100
0010
0100
0000
,
0002
0000
0000
0000
,
0000
0000
0000
0003
,
0000
0000
0001
0000
0000
0001
0000
0010
0000
0001
0000
0000
0000
0000
0000
0000
,
1000
0000
0000
0000
0000
1000
0000
1000
0000
0010
0000
0000
0110
0000
0000
0000
,
1000
0010
1000
0010
0100
0001
0100
0001
,
2000
3200
0320
0030
,
0000
0000
0001
0000
0000
1000
0000
1000
0000
0000
0001
0000
0000
0000
0000
0000
,
0000
0000
0100
0000
0000
0010
0000
0010
0000
0000
0100
0000
0000
0000
0000
0000
,
0110
0000
1001
0000
1000
0010
0001
0010
,
2000
0000
0000
3000
,
1000
0100
1000
0001
1000
0100
1000
0000
,
0001
0010
0001
1000
0001
0100
0001
0000
,
1000
0100
0010
0000
0001
0100
0010
0000
,
1000
0010
0100
0000
0001
0010
0100
0000
,
1000
0000
1001
0000
0001
0100
1000
0100
,
0001
0000
0010
0000
0100
1000
0010
0000
,
2000
3000
0002
0003
,
1000
0010
0100
0001
0010
0100
1000
0010
,
0000
0000
1000
0000
1000
0000
0000
0001
0000
0000
0010
0000
0100
0000
0010
0000
,
0000
0000
0000
0000
;
#NOTES:
     dance-double:
     :
     Easy:
     4:
     :
00000000
00000000
00000000
00000000
,
00000000
00000000
00000000
00000000
,
00000000
00000000
00000000
00000000
,
00000000
00000000
00000000
00000000
,
00000000
00000000
00000000
00000000
,
00001000
00010000
00001000
00000000
,
00001000
00001000
01000000
00000000
,
01000000
00010000
10000000
00000000
,
00010000
00000000
10010000
00000000
,
10000000
00000000
01000000
00000000
,
00100000
00001000
00010000
00000000
,
00002000
00000000
00000000
00003000
,
00020000
00000000
00000000
00030000
,
00011000
00000000
00000000
00000000
,
00001000
00010000
00000100
00000000
,
00001000
00000010
00001000
00000000
,
00000001
00001000
00000001
00000000
,
00000001
00000000
00000100
00000000
,
00000010
00010000
00000010
00000000
,
00010000
00000000
00001000
00000000
,
00011000
00000000
00000000
00000000
,
00002000
00000000
00000000
00003000
,
00020000
00000000
00000000
00030000
,
00001000
00010000
00001000
01000000
,
00010000
00000000
00000000
00000000
,
10000000
00000000
01000000
00000000
,
00100000
00010000
01000000
00000000
,
00010000
00000000
01000000
00000000
,
00001000
00010000
00001000
00000000
,
00011000
00000000
00000000
00000000
,
00010000
00000000
00001000
00000000
,
00000020
00000000
00000000
00000030
,
00000002
00000000
00000000
00000003
,
00000000
00001001
00000000
00000000
,
00000001
00001000
00000100
00000000
,
00000100
00010000
00001000
00000000
,
00011000
00000000
00000000
00000000
,
00001000
00000000
00010000
00000000
,
00100000
10000000
00100000
00000000
,
20000000
00000000
00000000
00000000
,
30000000
00000000
00000000
00000000
,
10000000
00000000
01000000
00000000
,
00100000
00010000
00100000
00000000
,
00001000
00000000
00010000
00000000
,
00011000
00000000
00000000
00000000
,
00010000
00001000
00000010
00000000
,
00000110
00000000
00000000
00000000
,
00000001
00001000
00000100
00001000
,
00000010
00000000
00010000
00000000
,
00001000
00001000
00100000
00000000
,
00010000
00010000
01000000
00000000
,
01100000
00000000
10010000
00000000
,
10000000
01000000
00100000
00000000
,
00002000
00000000
00000000
00003000
,
00020000
00000000
00000000
00030000
,
00001000
00010000
00000010
00000000
,
00001000
00000100
00000010
00000000
,
00000001
00000000
00001000
00000000
,
00001001
00000000
00000000
00000000
,
00000000
00000000
00000000
00000000
;
#NOTES:
     dance-double:
     :
     Medium:
     7:
     :
00000000
00000000
00000000
00000000
,
00000000
00000000
00000000
00000000
,
00000000
00000000
00000000
00000000
,
00000000
00000000
00000000
00000000
,
00000000
00000000
00000000
00000000
,
00001000
00010000
00100000
10000000
,
00010000
01000000
00010000
00000000
10000000
00000000
00000000
00000000
,
10000000
01000000
00100000
00001000
,
00010000
00001000
00010000
00000000
00001000
00000000
00000000
00000000
,
00010000
00000010
00000010
00001000
,
00001000
00000000
00000001
00000000
00000100
00000010
00000100
00000000
,
00000002
00000000
00000003
00000000
,
00002000
00000000
00003000
00000000
,
00001001
00000000
00000110
00000000
,
00000001
00000100
00001000
00000000
,
00020000
00000000
00000000
00030000
,
00002000
00000000
00000000
00003000
,
00001000
00010000
00001000
00000000
,
00010000
00001000
00100000
00000000
,
00010000
10000000
00010000
00000000
,
10000000
01000000
10000000
00000000
,
01000000
10000000
01000000
00100000
,
00002000
00000000
00000000
00003000
,
00010000
00000010
00001000
00000000
,
00001001
00000000
00000000
00000000
,
00001000
00000000
00000001
00000000
00000010
00000100
00000010
00000000
,
00000001
00000100
00001000
00010000
,
00200000
10300000
20000000
30010000
,
01000000
00100000
10010000
00000000
,
10000000
00000000
00100000
00000000
,
00010000
00001000
00010000
00000000
,
00001000
00000000
00000100
00000000
,
00000001
00001000
00000001
00000000
,
00000000
00000000
00001001
00000000
00001000
00000010
00000100
00000000
,
00000001
00000000
00000010
00000000
00000100
00001000
00000100
00000000
,
00010000
00000000
00001000
00000000
01000000
00010000
01000000
00000000
,
00010000
00100000
01100000
00000000
,
20000000
00000000
30020000
00000000
,
00230000
00000000
00301000
00000000
,
00011000
00000000
00000000
00000000
,
00000000
00000000
00000000
00000000
,
00010000
00000000
00001000
00000000
00010000
00000100
00000010
00000000
,
00000001
00001000
00000001
00000000
,
00000001
00000100
00000010
00000000
00000100
00000010
00001000
00000000
,
00000010
00010000
00011000
00000000
,
00010000
00000000
00001000
00000000
00100000
00010000
00100000
00000000
,
00010000
00000000
01000000
00000000
00100000
10000000
00100000
00000000
,
10000000
00000000
00010000
00000000
01000000
00010000
00100000
00000000
,
00002000
00000000
00000000
00003000
,
00001000
00010000
00000100
00001000
,
00000010
00000100
00000010
00000000
00001000
00000001
00001000
00000000
,
00000001
00000010
00000100
00010000
,
00001000
00000000
00011000
00000000
00010000
00001000
00010000
00000000
,
00001000
01000000
00010000
01000000
,
10000000
00000000
01000000
00000000
00100000
10000000
01000000
00000000
,
00200000
00000000
00000000
00300000
,
00002000
00000000
00000000
00003000
,
00000000
00000000
00010000
00000000
00010000
00000000
00000000
00011000
00000000
00000000
00001000
00000000
00010000
00000000
00001000
00000000
,
00000000
00000000
00000000
00000000
;
#NOTES:
     dance-double:
     :
     Hard:
     10:
     :
00000000
00000000
00000000
00000000
,
00000000
00000000
00000000
00000000
,
00000000
00000000
00000000
00000000
,
00000000
00000000
00000000
00000000
,
00000000
00000000
00000000
00000000
,
00001000
00010000
00001000
00000000
01000000
00010000
00100000
00000000
,
01000000
00000000
10000000
00000000
00100000
01000000
00010000
00000000
,
20000000
32000000
03020000
00032000
,
00003010
00000001
00001000
00000001
00000010
00000000
00000110
00000000
,
00000001
00000000
00000011
00000000
00000010
00000001
00000100
00000000
,
00000010
00000000
00001010
00000000
00001000
00000010
00010000
00001000
,
00020000
00000000
00032000
00000000
,
00013000
00001000
00100000
00010000
01000000
00010000
00100000
00000000
,
01000000
00000000
00000000
00000000
01100000
00000000
00000000
10000000
00000000
00010000
00000000
10000000
00000000
00010000
00000000
00000000
,
10000000
00000000
01000000
00000000
00010000
00001000
00010000
00000000
,
00002000
00003020
00000032
00002003
,
00003001
00000000
00000100
00000000
00000001
00000000
00000000
00001000
00000000
00000010
00000000
00001000
00000000
00000000
00000000
00000000
,
00000200
00000000
00000300
00000000
,
00010000
00000000
00000000
00001000
00000000
00000000
00000000
00001000
00000000
00000000
00000000
00000000
00000000
00000000
00000000
00000000
,
00001000
00000000
00000000
00100000
00000000
00000000
00001000
00000000
00100000
00000000
00000000
00010000
00000000
00000000
00100000
00000000
,
00010000
00000000
00000000
01000000
00000000
00000000
00010000
00000000
01000000
00000000
00000000
00000000
01100000
00000000
00000000
00000000
,
20000000
00000000
00000000
00000000
30000000
00000000
00000000
00000000
10000000
01000000
00000000
00100000
00000000
00000000
00010000
00000000
,
00200000
00000000
00301000
00010000
00001000
00000000
00011000
00000000
,
00010000
00000000
00000000
00010000
00000000
00000000
00000100
00000000
00000000
00000100
00000000
00000000
00001000
00000000
00000010
00000000
,
00001000
00000000
00000000
00000000
,
00000002
00000000
00002003
00000000
00003010
00000100
00001000
00010000
,
00200000
00000000
02300000
00000000
03010000
10000000
00010000
00000000
,
20000000
00000000
30020000
00000000
00130000
01000000
00010000
00001000
,
00000020
00000000
00000230
00000000
00001300
00000001
00001000
00000000
,
00000002
00000003
00002000
00003000
,
00000200
00000300
00020000
00030000
,
00001000
00000000
00011000
00000000
00010000
00001000
01000000
00000000
,
00010000
00100000
01000000
10000000
00010000
10000000
00010000
00000000
,
00000000
00000000
10010000
00000000
10000000
01000000
00100000
00000000
,
00010000
00000000
00100000
00000000
00000000
00001000
00000000
00010000
00000000
00000000
00000000
00000000
00011000
00000000
00000000
00000000
,
00010000
00001000
00000010
00000000
00000001
00001000
00000100
00000000
,
00000010
00000001
00000100
00000001
00000010
00000100
00001000
00000000
,
00000001
00000100
00000010
00000000
00000100
00001000
00010000
00000000
,
00100000
01000000
00100000
00000000
10000000
00010000
01000000
00000000
,
00200000
00000000
00000000
00000000
,
00000000
00000000
00000000
00300000
,
00000000
00000000
10000000
00000000
00000000
00010000
00000000
01000000
00000000
00010000
00000000
00000000
00000000
00000000
00000000
00000000
,
10000000
00000000
00000000
00000000
00000000
01000000
00000000
00010000
00000000
00001000
00000000
00000000
00011000
00000000
00000000
00000000
,
00010000
00001000
00010000
00001000
00000010
00000001
00000010
00000000
,
00000002
00002003
00003200
00020300
,
00030000
00000000
00001000
00000000
00000000
00010000
00000000
00010000
00000000
00000000
00001000
00000000
00000000
00000000
00000000
00000000
,
00000000
00000000
01000000
00000000
00000000
00100000
00000000
00100000
00000000
00000000
01000000
00000000
00000000
00000000
00000000
00000000
,
01100000
00000000
10010000
00000000
10000000
00100000
01000000
00000000
,
00100000
00010000
00001000
00000100
,
00000001
00000010
00000100
00001000
00000010
00000100
00000001
00000000
,
00001000
00000100
00000010
00000100
00010000
00001000
00010000
00000000
,
00001000
01000000
00010000
00100000
00010000
01000000
00100000
00000000
,
10000000
01000000
00100000
00001000
00010000
00100000
01000000
00000000
,
10000000
00000000
01000000
00010000
00100000
00000000
00001000
00010000
,
00001000
00000000
00011000
00000000
00010000
00001000
00000010
00000000
,
00000002
00000003
00002000
00003000
,
00000001
00000100
00000010
00001000
00000100
00010000
00001000
00010000
,
00000000
00000000
00010000
00000000
00001000
00000000
00000000
00100000
00000000
00000000
00010000
00000000
00100000
00000000
01000000
00000000
,
00000000
00000000
00000000
00000000
;
