
//----- song ID: hkhk -----//
#VERSION:0.83;
#TITLE:魄;
#ARTIST:あさき;
#TITLETRANSLIT:Haku;
#ARTISTTRANSLIT:Asaki;
#BANNER:Haku.png;
#BACKGROUND:Haku-bg.png;
#CDTITLE:./CDTitles/DDR WORLD.png;
#MUSIC:Haku.ogg;
#SAMPLESTART:46.902;
#SAMPLELENGTH:15;
#BPMS:0=213;
#NOTEDATA:;
#STEPSTYPE:dance-single;
#DIFFICULTY:Beginner;
#METER:3;
#NOTES:
0000
0000
0000
0000
,
0000
0000
0000
0000
,
0000
0000
0000
0000
,
0000
0000
0000
0000
,
0000
0000
0000
0000
,
0000
0000
0000
0000
,
0001
0000
0000
0000
,
0001
0000
0000
0000
,
0010
0000
0000
0000
,
0000
0000
0000
0000
,
1000
0000
0000
1000
,
0000
0000
1000
0000
,
0010
0000
0000
0010
,
0000
0000
0010
0000
,
0100
0000
0000
0100
,
0000
0000
0100
0000
,
0001
0000
0000
0001
,
0000
0000
0001
0000
,
0001
0000
0000
0000
,
0010
0000
0000
0000
,
0001
0000
0010
0000
,
0001
0000
0000
0000
,
0020
0000
0000
0000
,
0030
0000
0000
0000
,
1001
0000
0000
0000
,
0000
0000
0000
0000
,
1000
0000
0000
0000
,
0010
0000
0000
0000
,
1000
0000
0010
0000
,
1000
0000
0000
0000
,
0020
0000
0000
0000
,
0030
0000
0000
0000
,
1001
0000
0000
0000
,
0000
0000
0000
0000
,
1001
0000
0000
0000
,
0000
0000
0000
0000
,
0000
0000
0000
0000
,
0000
0000
0000
0000
,
1000
0000
0000
0000
,
1000
0000
0000
0000
,
0010
0000
0000
0000
,
0000
0000
0000
0000
,
0001
0000
0001
0000
,
0010
0000
0000
0000
,
0010
0000
0000
0000
,
0000
0000
0000
0000
,
1001
0000
0000
0000
,
0000
0000
0000
0000
,
1001
0000
0000
0000
,
0000
0000
0000
0000
,
1000
0000
1000
0000
,
0010
0000
0000
0000
,
0010
0000
0000
0000
,
0000
0000
0000
0000
,
1001
0000
0000
0000
,
0000
0000
0000
0000
,
1001
0000
0000
0000
,
0000
0000
0000
0000
,
0002
0000
0000
0000
,
0003
0000
0000
0000
,
0001
0000
0000
0000
,
0000
0000
0000
0000
,
0010
0000
0000
0000
,
0010
0000
0000
0000
,
0010
0000
0000
0000
,
0000
0000
0000
0000
,
1000
0000
0000
0000
,
1000
0000
0000
0000
,
1000
0000
0000
0000
,
0000
0000
0000
0000
,
1000
0000
0010
0000
,
1000
0000
0000
0000
,
0010
0000
0000
0000
,
0000
0000
0000
0000
,
0001
0000
0010
0000
,
0001
0000
0000
0000
,
0010
0000
0000
0000
,
0000
0000
0000
0000
,
1001
0000
0000
0000
,
0000
0000
0000
0000
,
0000
0000
0000
0000
,
0000
0000
0000
0000
,
0001
0000
0001
0000
,
0100
0000
0000
0000
,
0010
0000
0000
0000
,
0000
0000
0000
0000
,
0010
0000
1000
0000
,
0010
0000
0000
0000
,
1000
0000
0000
0000
,
0000
0000
0000
0000
,
1000
0000
1000
0000
,
0100
0000
0000
0000
,
0010
0000
0000
0000
,
0000
0000
0000
0000
,
0010
0000
0001
0000
,
0010
0000
0000
0000
,
0001
0000
0000
0000
,
0000
0000
0000
0000
,
0001
0000
0000
0001
,
0000
0000
0001
0000
,
0010
0000
0000
0010
,
0000
0000
0010
0000
,
0100
0000
0000
0100
,
0000
0000
0100
0000
,
1000
0000
0000
1000
,
0000
0000
1000
0000
;
#NOTEDATA:;
#STEPSTYPE:dance-single;
#DIFFICULTY:Easy;
#METER:7;
#NOTES:
0000
0000
0000
0000
,
0000
0000
0000
0000
,
0000
0000
0000
0000
,
0000
0000
0000
0000
,
0000
0000
0000
0000
,
0000
0000
0000
0000
,
0001
0000
0001
0000
,
1000
0000
1000
0000
,
0001
0000
0000
0000
,
1001
0000
0000
0000
,
1000
0000
0000
0001
0000
0000
1000
0000
,
0000
0001
0000
0000
1000
0000
0000
0000
,
0100
0000
0000
0010
0000
0000
0100
0000
,
0000
0010
0000
0000
0100
0000
0000
0000
,
0010
0000
0000
0100
0000
0000
0010
0000
,
0000
0100
0000
0000
0010
0000
0000
0000
,
0001
0000
0000
1000
0000
0000
0001
0000
,
0000
1000
0000
0000
0001
0000
0000
0000
,
0001
0000
1000
0000
,
0001
0100
0001
0000
,
0001
0000
1000
0000
,
0001
0010
0001
0000
,
1000
0000
0001
0000
,
1000
0010
1000
0000
,
1000
0000
0001
0000
,
1000
0100
1000
0000
,
0001
0000
0010
0000
,
0001
0000
0010
0000
,
0001
0000
0100
0000
,
0001
1000
0001
0000
,
1000
0000
0010
0000
,
1000
0000
0010
0000
,
1000
0000
0100
0000
,
1000
0001
1000
0000
,
1001
0000
0000
0000
,
0000
0000
0000
0000
,
0000
0000
0000
0000
,
0000
0000
0000
0000
,
0002
0000
0000
0000
,
0003
0000
0000
0000
,
2000
0000
0000
0000
,
3000
0000
0000
0000
,
0001
0010
0100
1000
,
0001
1000
0001
0000
,
0200
0000
0000
0000
,
0300
0000
0000
0000
,
0001
1000
0010
0000
,
0100
0001
1000
0000
,
0001
0000
1000
0000
,
1001
0000
0000
0000
,
1000
0100
0010
0001
,
1000
0001
1000
0000
,
0020
0000
0000
0000
,
0030
0000
0000
0000
,
1000
0001
0100
0000
,
0010
1000
0001
0000
,
1000
0000
0001
0000
,
1001
0000
0000
0000
,
1000
0001
1000
0000
,
0001
1000
0001
0000
,
1001
0000
0000
0000
,
0000
0000
0000
0000
,
2000
0000
0000
0000
,
3000
0000
0000
0000
,
0002
0000
0000
0000
,
0003
0000
0000
0000
,
0020
0000
0000
0000
,
0030
0000
0000
0000
,
0200
0000
0000
0000
,
0300
0000
0000
0000
,
1000
0100
0010
0000
,
0100
0010
0001
0000
,
2000
0000
0000
3000
,
0002
0000
0000
0003
,
1000
0010
0100
0000
,
0010
0100
0001
0000
,
2000
0000
0000
3000
,
0002
0000
0000
0003
,
1001
0000
0000
0000
,
0000
0000
0000
0000
,
0000
0000
0000
0000
,
1000
0000
0000
0001
0000
0000
0000
0000
,
1000
0100
1000
0000
,
0100
0010
0100
0000
,
0010
0001
0100
0010
,
1000
0001
1000
0000
,
0001
0100
0001
0000
,
0100
0010
0100
0000
,
0010
1000
0100
0010
,
0001
1000
0001
0000
,
1000
0010
1000
0010
,
1000
0000
0010
0000
,
0100
0001
0100
0001
,
0100
0000
0001
0000
,
0001
0010
0001
0010
,
0001
0000
0010
0000
,
0100
1000
0100
1000
,
0100
0000
0000
0000
,
1000
0000
0000
0001
0000
0000
1000
0000
,
0000
0001
0000
0000
1001
0000
0000
0000
,
0001
0000
0000
1000
0000
0000
0001
0000
,
0000
1000
0000
0000
1001
0000
0000
0000
,
0100
0000
0000
0010
0000
0000
0100
0000
,
0000
0010
0000
0000
0110
0000
0000
0000
,
1000
0000
0000
0001
0000
0000
1000
0000
,
0000
0001
0000
0000
0100
0000
0000
0000
;
#NOTEDATA:;
#STEPSTYPE:dance-single;
#DIFFICULTY:Medium;
#METER:12;
#BPMS:0=106.5,16=213,117=106.5,133=213,273=106.5,280=213,374=106.5;
#STOPS:16=0.845,208=1.127,279.75=0.563;
#TIMESIGNATURES:0=4=4,16=5=4,21=4=4,369=3=4,374=4=4;
#NOTES:
0000
0000
0000
0000
,
0000
0000
0000
0000
,
0000
0000
0000
0000
,
0001
0100
0010
0000
1000
0100
0010
0000
,
2002
3003
0000
0000
0001
1000
0001
1000
,
0001
0000
1000
0100
0000
1000
0100
0000
,
1000
0100
0000
1000
0100
0000
0010
0000
,
0001
0000
0001
0100
0000
0001
0100
0000
,
0001
0100
0000
0001
0100
0000
0010
0000
,
1000
0000
0001
1000
0000
0001
1000
0000
,
0001
1000
0000
0001
1000
0000
0100
0000
,
0010
0000
0010
0100
0000
0010
0100
0000
,
0010
0100
0010
0000
0001
0000
1000
0001
,
1000
0000
0001
0000
0100
0000
0001
0010
,
0100
1000
0000
0001
1000
0000
0001
0000
,
0000
0000
1000
0000
0100
0000
1000
0010
,
0100
0001
0000
1000
0001
0000
1000
0000
,
0000
1001
0000
0001
0100
0000
1000
0000
,
0100
0000
0001
0000
0100
0000
1000
0100
,
0000
0001
0000
1000
0100
0000
0001
0000
,
0100
0000
1000
0000
0100
0000
0001
0100
,
1000
0000
0001
0000
1000
0000
0010
1000
,
0010
1000
0000
0001
0100
0000
0010
1000
,
0000
0001
0000
1000
0100
0000
0010
0001
,
0010
0001
0000
1000
0001
1000
0000
0010
,
0000
0110
0000
0100
0002
0000
2003
0000
,
3200
0000
0320
0000
0031
1000
0100
1000
,
0000
0001
0000
1000
0002
0000
0203
0000
,
0320
2030
0000
3002
,
0000
0203
0000
0000
,
0000
0000
0000
0300
,
0000
0000
0001
1000
0001
1000
0100
0010
,
0100
0000
0000
0000
1000
0000
0000
0010
0000
0000
0100
0000
0001
0000
1000
0001
,
0000
0000
1000
0000
0001
0100
0000
0010
,
0000
1010
0000
0000
1000
0000
0001
0000
,
0000
1001
0000
0000
0001
0000
0100
0010
,
0100
0010
0000
0000
2000
0000
3020
0000
,
0130
0001
0000
0000
1001
0000
1000
0100
,
1000
0100
0000
0000
0010
0000
0001
0000
,
0100
0001
0000
1000
0001
0000
0100
0010
,
0100
0010
0000
1000
0010
0000
1000
0000
,
0000
1001
0000
0001
0100
0000
0010
0000
,
0100
0010
2000
3002
,
0013
0100
0000
1000
0100
0000
0010
0001
,
0000
1000
0000
0000
1010
0000
0110
0000
,
0100
0001
0000
0010
0001
0000
0010
0100
,
0000
0010
0000
0100
1000
0000
0001
0000
,
1000
0001
0000
0000
0000
0000
1000
0100
,
0010
0001
0000
0000
1000
0000
0020
0000
,
0000
0000
0130
0001
0000
1000
0010
0000
,
0100
0001
0000
1000
0010
0000
0100
0000
,
0001
1001
0000
0000
,
0000
2002
0000
0000
,
0000
0000
0000
0000
,
0000
3003
0000
0000
,
0000
0000
0000
0000
,
0000
1000
0010
0100
,
0001
0010
0100
1000
,
0000
0000
0001
1000
0000
0001
1000
0000
,
0010
0100
0000
0010
0100
0000
0001
1000
,
0000
0001
0100
1000
,
0100
0001
0010
1000
,
0010
0000
0001
0010
0001
0000
1000
0000
,
0010
0000
1000
0000
0000
1001
0000
0000
,
0001
2000
3100
0200
,
0310
0002
0103
0200
,
0310
0000
1000
0000
0000
1010
0000
0000
,
0001
0000
0000
0101
0000
0000
0110
0000
,
0000
2002
0000
0000
,
0000
0000
0000
0000
3003
0000
0000
0000
0000
0000
0000
0000
1000
0001
1000
0002
,
1003
0000
0010
0100
0000
0001
0000
1001
,
0000
0000
1000
0000
0100
0010
0000
0011
,
0000
0000
1001
0000
0001
1000
0001
1000
,
0000
0010
0000
0100
0000
0010
0000
0110
,
0000
0000
1001
0000
1000
0000
0001
0100
,
0000
0000
1001
0000
0001
0000
1000
0100
,
0000
0000
1000
0000
0001
0010
0000
1000
,
0000
0010
0002
2003
,
3002
0000
2003
0000
3010
0100
0000
0100
,
0000
0000
0001
0000
1000
0001
0000
0001
,
0000
0000
0010
0000
0100
1000
0000
1000
,
0000
0000
0001
0000
1000
0001
0000
1000
,
0000
0010
0200
0000
0000
0000
0000
0000
,
0000
0300
0002
0000
,
2000
0000
0000
3003
,
1000
0100
1000
0000
0001
0100
0001
0000
,
1000
0010
0000
1000
0010
0000
1000
0010
,
0000
1000
0010
0000
0100
0000
0001
0000
,
0001
0010
0000
0001
0010
0000
0001
0010
,
0000
0001
0010
0000
0100
0000
1000
0000
,
0001
1000
0000
0001
1000
0000
0001
1000
,
0000
0001
1000
0000
0010
0000
0100
0000
,
0001
0100
0000
0010
1000
0000
0001
0100
,
0020
0000
2030
0000
,
0000
0000
0000
0000
,
0000
0000
0000
3000
;
#NOTEDATA:;
#STEPSTYPE:dance-single;
#DIFFICULTY:Hard;
#METER:14;
#BPMS:0=106.5,16=213,117=106.5,133=213,273=106.5,280=213,374=106.5;
#STOPS:16=0.845,208=1.127,279.75=0.563;
#TIMESIGNATURES:0=4=4,16=5=4,21=4=4,369=3=4,374=4=4;
#NOTES:
0000
0000
0000
0000
,
0000
0000
0000
0000
,
0000
0000
0000
0000
,
0001
0000
1000
0010
0100
0000
0001
0010
0100
1000
0000
0001
0000
0000
0000
0000
,
2001
3001
0000
0001
0100
0010
0100
0010
,
1000
0000
0001
0100
0100
0010
1000
1000
,
0001
0100
0100
0010
1000
1000
0001
0000
,
1001
0000
1000
0100
0100
0010
0001
0001
,
1000
0100
0100
0010
0001
0001
1000
0000
,
1001
0000
0001
0100
0100
1000
0100
0100
,
0001
0100
0100
1000
0100
0100
0001
0000
,
1001
0000
1000
0010
0010
0001
0010
0010
,
1000
0001
1000
0010
0100
0001
1000
0100
,
0010
0000
0001
0010
0001
0010
0001
0100
,
0001
0100
0010
1000
0100
1000
0010
1000
,
0010
0000
1000
0100
1000
0100
1000
0010
,
1000
0010
0100
0001
0010
0001
0100
0010
,
1000
0001
0000
0001
0010
1000
0010
0001
,
1000
0001
0000
1000
0010
0001
0010
1000
,
0001
1000
0000
0001
0100
1000
0100
0001
,
1000
0001
0000
1000
0100
0001
0100
1000
,
0001
0000
1000
0100
0010
0001
1000
0100
,
0010
0001
0000
0010
0011
0000
0001
0101
,
0000
0001
0000
0100
0010
1000
0001
0100
,
0010
1000
0000
0010
1010
0000
1000
1100
,
0000
1001
0000
0001
0100
1000
0100
0001
,
0100
1000
0100
0001
0100
1000
0100
0001
,
1000
0001
0000
1000
0100
0001
0100
1000
,
0100
0000
0000
0001
0000
0000
0100
0000
0000
1000
0000
0000
0001
0000
0000
0000
0000
0000
0100
0000
0010
0000
0100
0000
,
0010
0100
0010
2000
0000
0000
0000
0000
0000
0000
0000
0000
,
0000
0000
0000
3000
,
0000
0000
0000
0000
1000
0000
0001
0000
0100
0010
1000
0000
0001
0000
1000
0000
,
0100
0010
0001
0000
0011
0000
0000
0101
0000
0000
1001
0000
0001
1000
0001
1000
,
0000
0000
0001
0100
0010
1000
0000
1000
,
0001
0100
0000
0100
0001
0010
0100
0010
,
0001
1000
0200
0000
0001
0000
0310
0001
,
0100
0010
1000
0000
1010
0000
0110
0000
,
0100
0001
0000
0001
1000
0000
0100
0001
,
0100
1000
0000
0010
0001
0010
1000
0000
,
0010
0100
0000
0010
0100
0000
0001
1000
,
0100
0010
0000
0010
0100
0000
0110
0000
,
0001
1001
0000
0001
0100
0010
0100
0010
,
1000
0100
0000
0100
1000
0100
0010
0100
,
1000
0001
0020
0000
1000
0000
0130
1000
,
0010
0100
0001
0000
0101
0000
0110
0000
,
0010
1000
0000
1000
0001
0000
0010
1000
,
0010
0001
0000
0100
1000
0100
0001
0000
,
0100
0010
0000
0100
0010
0000
1000
0001
,
0010
0000
0000
0100
0000
0000
0000
0000
0000
0100
0000
0000
0010
0000
0000
0000
0000
0000
0001
0000
1000
0000
0001
0000
,
1000
0000
0001
0000
1000
0000
0001
0000
0000
0100
0000
0000
0000
0000
0000
0001
0000
0000
0100
0000
0000
0000
0000
0000
,
1000
0100
0000
1000
0100
0000
0001
0000
,
1000
0100
0010
0001
0000
0000
0000
0000
0000
0000
0000
0000
,
0000
2002
0000
0000
,
0000
0000
0000
0000
,
0000
0000
0000
0000
,
0000
0000
0000
3003
,
0000
0000
1000
0100
1000
0100
0000
0010
,
0000
0110
0000
0010
0001
0000
2002
0000
,
3003
0000
0001
0010
0000
1000
0010
0000
,
0001
0100
0000
1000
0100
0000
0001
1000
,
0000
0000
0000
0000
0001
0000
1000
0001
1000
0000
0001
1000
0001
0000
1000
0001
,
1000
0000
0001
1000
0001
0000
0010
0000
0100
0000
1000
0000
0001
0000
0010
0000
,
0100
1000
0001
0010
0001
0001
1000
0010
,
1000
1000
0001
0000
0000
1001
0000
0000
,
1000
0100
0010
1000
0010
0001
1000
0100
,
0001
0100
1000
0001
0100
1000
0100
0010
,
0001
0010
1000
0100
0010
0001
1000
0100
,
0010
0001
1000
0010
0100
0001
1000
0010
,
0100
0001
2000
0000
0000
0000
0000
0000
,
0000
0000
0000
0000
3000
0000
0000
0000
0000
0000
0000
0000
1000
0001
1000
0002
,
1003
0000
0100
0010
0000
0001
1000
0001
,
0000
0001
0100
0000
0001
0010
0100
1000
,
0002
0000
0010
0000
0103
0010
1000
0010
,
0000
0100
0000
0000
1001
0000
0001
1000
,
0000
0001
0100
1000
0100
0010
0100
0001
,
0000
1000
0100
0001
0100
0010
0100
1000
,
0000
0001
0010
0001
1000
0010
1000
0001
,
0000
1001
2000
3200
,
0302
0000
0203
0000
0310
0001
1000
0001
,
0000
0001
0100
0010
1000
0010
0100
0010
,
0000
0010
1000
0000
0100
0010
0100
0010
,
0000
0000
0011
0000
0001
0100
0010
1000
,
0000
1000
0010
0100
0001
1000
0010
0100
,
0001
0010
0001
0100
0001
0010
0100
1000
,
0001
0011
1100
0011
,
0010
0001
1000
0100
0010
0001
1000
0000
,
0001
1000
1000
0010
1000
1000
0100
1000
,
1000
0001
1000
1000
0010
0000
1001
0000
,
1000
0001
0001
0010
0001
0001
0100
0001
,
0001
1000
0001
0001
0010
0000
1001
0000
,
0001
0100
0100
1000
0100
0100
0001
0010
,
0010
1000
0010
0010
0001
0000
1001
0000
,
1000
0100
1000
0100
0001
0100
0001
0100
,
1000
0000
0010
0000
0001
0000
0010
0000
2000
3200
0320
0032
0000
0000
0000
0000
,
0000
0000
0000
0000
,
0000
0000
0000
0003
;
#NOTEDATA:;
#STEPSTYPE:dance-single;
#DIFFICULTY:Challenge;
#METER:18;
#BPMS:0=106.5,16=213,117=106.5,133=213,273=106.5,280=213,374=106.5;
#STOPS:16=0.845,208=1.127,279.75=0.563;
#TIMESIGNATURES:0=4=4,16=5=4,21=4=4,369=3=4,374=4=4;
#NOTES:
0000
0000
0000
0000
,
0000
0000
0000
0000
,
0000
0000
0000
0000
,
0000
0000
0000
0000
,
0000
0000
1001
0000
0000
0000
0001
0000
0010
0000
0100
0000
1000
0010
1000
0010
,
0100
0001
0100
0001
1000
0000
0100
0010
0100
0000
0001
0000
0100
0010
0100
0000
,
1000
0000
0100
0010
0100
0000
0001
0000
0100
0010
0100
0000
1000
0000
0001
0000
,
1001
0000
0000
0000
0001
0000
0100
0010
0100
0000
1000
0000
0100
0010
0100
0000
,
0001
0000
0100
0010
0100
0000
1000
0000
0100
0010
0100
0000
0001
0000
1000
0000
,
1001
0000
0000
0000
1000
0001
1000
0001
0100
0000
0001
1000
0001
1000
0100
0000
,
1000
0010
0100
0010
1000
0000
0001
0010
0100
0010
0001
0000
0010
0000
0100
0000
,
0110
0000
0000
0000
0010
0000
0001
1000
0001
0000
0100
0000
0001
1000
0001
0000
,
0010
0100
0010
0000
0100
1000
0001
0000
1000
0001
0100
0000
0001
0000
0010
0000
,
0100
1000
0001
0100
0010
0000
1000
0000
1010
0000
1000
0000
0001
0000
0010
0000
,
0011
0010
0001
0100
0101
0100
0010
1000
,
1001
0000
1000
0001
0011
0001
1000
0010
,
1010
0010
1000
0100
1100
0100
0010
0001
,
0000
0000
1001
0000
0000
0000
0001
1000
0010
0000
1000
0001
0100
0000
0001
1000
,
0100
0000
1000
0000
0000
0000
0100
1000
0001
0000
1000
0100
0010
0000
0001
0100
,
0010
0000
1000
0000
0000
0000
1000
0001
0100
0000
0001
1000
0010
0000
1000
0001
,
0010
0001
1000
0100
0010
0001
0100
0010
,
1000
0001
1000
0001
0100
0000
0010
1000
0100
0000
0010
0001
0010
0000
0001
0100
,
0010
0000
1000
0000
0000
0000
1000
0000
0001
0000
0000
0000
0001
0010
0001
0010
,
0100
1000
0100
0000
0000
0000
0010
0001
0100
0000
0010
1000
0010
0000
1000
0100
,
0010
0000
0001
0000
0000
0000
0001
0000
1000
0000
0100
0000
1000
0010
1000
0010
,
0100
0001
0100
0000
0000
0000
0001
0000
0100
0000
1000
0000
0001
0000
0010
0000
,
1000
0000
0001
0000
1000
0000
0100
0000
0001
0000
1000
0000
0010
0001
0010
0001
,
0100
0010
1000
0000
0000
0000
0001
0000
0010
0000
1000
0000
0001
0000
0000
0100
,
1000
0000
0000
0001
0000
0000
1000
0000
0000
0100
0000
0000
0010
0000
0000
0001
0000
0000
0010
0000
0000
0000
0000
0000
0100
0000
0000
1000
0000
0000
0100
0000
0000
0000
0000
0000
1000
0000
0000
0000
0010
0000
0000
0000
0100
0000
0000
0000
,
0001
0010
0100
2000
0000
0000
0000
0000
0000
0000
0000
0000
,
0000
0000
0000
3000
,
0000
0000
0000
0000
0001
0100
0001
0100
0010
1000
0010
1000
0100
1000
0100
1000
,
0001
0010
0001
0010
0100
1000
0100
1000
0100
0000
0000
0000
0000
0000
1100
0000
0000
0000
0000
0000
1001
0000
0000
0000
0001
0000
1000
0000
0001
0000
1000
0000
,
0000
0000
0000
0000
0001
0000
0100
0010
0100
0010
1000
0000
0001
0000
1000
0100
,
1000
0100
0010
0000
0001
0000
0010
0000
0100
0000
1000
0000
0010
0000
0100
0010
,
1000
0010
0100
0010
1000
0000
0100
0010
0100
0000
0010
0001
0010
0000
0001
1000
,
0001
0000
0100
0000
0010
0000
1000
0010
0100
0000
0010
0100
0001
0000
0100
0000
,
0001
0000
1000
0000
0000
0000
0001
0010
0100
0000
0001
0000
1000
0000
0010
0100
,
1000
0000
0001
0000
0000
0000
1000
0010
0100
0000
1000
0000
0001
0000
0010
0100
,
0001
0000
1000
0000
0000
0000
1000
0100
1000
0000
0001
0100
0001
0000
1000
0010
,
1000
0000
0001
0000
0000
0000
1000
0000
0001
0010
0100
1000
0001
0100
0001
1000
,
0010
0100
0010
0000
0000
0000
1000
0010
0100
0000
0001
0100
0010
0000
1000
0000
,
0100
0000
0010
0000
0000
0000
0001
0010
0100
0000
1000
0100
0010
0000
0001
0000
,
0100
0000
0010
0000
0000
0000
0100
0001
0010
0000
0100
1000
0010
0000
0100
0001
,
0010
0000
0100
0000
1000
0001
0100
0010
1000
0001
0100
0000
0010
0000
1000
0000
,
0100
0000
0010
0000
0000
0000
0001
0010
0001
0000
0010
0100
0010
0000
0100
1000
,
0100
0000
1000
0000
0000
0000
0001
0100
0001
0000
0100
0010
0100
0000
0010
1000
,
0010
0100
0000
0001
0100
1000
0001
0010
,
1000
0000
0000
0000
0000
0000
0001
0000
0000
0000
0000
0000
0100
0000
0000
0010
0000
0000
1000
0000
0000
0010
0000
0000
0100
0000
0000
0001
0000
0000
1000
0000
0000
0100
0000
0000
0010
0000
0000
0000
0001
0000
0000
0000
0010
0000
0000
0000
,
0001
0000
0000
0000
0010
0000
0000
0000
0001
0000
0000
0000
0010
0000
0000
0000
0000
0000
0001
0000
0000
1000
0000
0000
0001
0000
0000
0000
0000
0000
0100
0000
0000
0010
0000
0000
0100
0000
0000
0000
0000
0000
0010
0000
0000
1000
0000
0000
,
0010
0000
0000
0000
0000
0000
0100
0000
0000
0000
0000
0000
0001
0000
0000
0000
0000
0000
1000
0000
0000
0010
0000
0000
1000
0000
0000
0100
0000
0000
1000
0000
0000
0100
0000
0000
1000
0000
0000
0000
0001
0000
0000
0000
0100
0000
0000
0000
,
0010
1000
0100
0010
0000
0000
0000
0000
0000
0000
0000
0000
,
0000
2002
0000
0000
,
0000
0000
0000
0000
,
0000
0000
0000
0000
,
0000
0000
0000
3003
,
0000
0000
1000
0010
0100
0101
0000
1010
,
0000
0000
0000
0101
0000
0000
0000
0000
0000
0001
0000
0000
0010
0000
0000
0001
0000
0000
0100
0000
0010
0000
0100
0000
,
0001
0000
1000
0000
0001
0000
1000
0000
0000
1100
0000
0000
0000
0000
0000
0001
0000
0000
0011
0000
0000
0000
0000
0000
,
0010
0000
0000
1001
0000
0000
0000
0000
0000
1000
0000
0000
0001
0000
0100
0000
0001
0000
0100
0000
0000
0010
0000
0000
,
0000
0000
0000
0000
1000
0010
1000
0010
1000
0010
1000
0010
1000
0010
1000
0010
,
1000
0010
1000
0010
1000
0000
0100
0010
0001
0000
1000
0000
0001
0000
0010
0100
,
1000
0001
0100
0010
1010
1000
1001
0001
,
0101
0100
0110
0000
0000
1001
0000
0001
,
1000
0100
1000
0000
0001
0000
0100
0000
0010
0000
0001
0000
1000
0000
0100
0010
,
1000
0100
0001
1000
0010
0001
0010
1000
,
0010
0000
0000
0000
0001
0010
0001
0010
0001
0010
0100
1000
0001
1000
0001
1000
,
0001
1000
0010
0100
0001
0100
0001
0100
0010
1000
0010
1000
0001
0010
0100
1000
,
0100
0010
0001
1000
0002
0000
0000
0000
0000
0000
0000
0000
0000
0000
0000
0000
,
0000
0000
0000
0000
0003
0000
0000
0000
0000
0000
0000
0000
1000
0001
1000
0001
,
1000
0000
0100
0000
0001
0000
0100
0000
1000
0000
0010
0100
0010
0000
1000
0000
,
0001
0000
0100
0000
1000
0000
0100
0000
0001
0000
0010
0100
0010
0000
0001
0000
,
1000
0000
0100
0010
0001
0000
1000
0000
0001
0000
0100
0010
1000
0000
0001
0000
,
0000
0000
0001
0000
0010
0000
1000
0000
0001
0100
0010
0000
0001
0100
0010
0000
,
0000
0000
0001
0010
0100
0000
0010
1000
0010
0000
1000
0001
1000
0000
0001
0000
,
0000
0000
1000
0100
0010
0000
1000
0010
0100
0000
1000
0001
0010
0000
0100
0000
,
0000
0000
1000
0001
0100
0000
0001
1000
0100
0000
0010
0100
0010
0000
0001
0000
,
0000
0000
0001
0000
1000
0000
0010
0000
0100
0010
0100
0001
1000
0100
0010
0001
,
0000
0000
0000
0000
1001
0000
0000
0000
0001
0100
0001
0100
0010
0000
1010
0000
,
0000
0000
0000
0000
1001
0000
0000
0000
1000
0100
1000
0100
0010
0000
0011
0000
,
0000
0000
0000
0000
1001
0000
0000
0000
0001
1000
0010
0000
0100
0010
1000
0000
,
0000
0000
0001
0010
0100
0000
0010
0100
1000
0000
0001
1000
0001
0000
1000
0000
,
0000
1001
0001
0100
0110
0010
1000
0100
,
0110
0000
0010
0000
0001
0000
1000
0000
0001
0100
0010
1000
0010
0100
0001
0000
,
1000
0010
0001
0010
1000
0100
0001
0100
,
1000
0100
1000
0100
0010
0100
0010
0100
0010
0001
0010
0001
1000
0001
1000
0000
,
0001
0000
0100
1000
0100
0000
0001
0000
0010
1000
0010
0000
0001
0000
0100
1000
,
0100
0000
0001
0000
0010
1000
0010
0000
0001
0000
0010
0100
0010
0000
0001
0000
,
1000
0000
0100
0001
0100
0000
1000
0000
0010
0001
0010
0000
1000
0000
0100
0001
,
0100
0000
1000
0000
0010
0001
0010
0000
1000
0000
0010
0100
0010
0000
1000
0000
,
0001
1000
0100
1000
0001
0000
1000
0001
0010
0001
1000
0000
0001
0100
0010
0100
,
0001
0000
1000
0010
0100
0010
1000
0000
0010
1000
0100
0000
0010
0001
1000
0000
,
0100
0010
0100
0010
0001
0010
0001
1000
0001
1000
0010
1000
0001
0100
0010
1000
,
0100
0000
1000
0000
0001
0000
0011
0000
2000
3200
0320
0032
0000
0000
0000
0000
,
0000
0000
0000
0000
,
0000
0000
0000
0003
;
#NOTEDATA:;
#STEPSTYPE:dance-double;
#DIFFICULTY:Easy;
#METER:7;
#NOTES:
00000000
00000000
00000000
00000000
,
00000000
00000000
00000000
00000000
,
00000000
00000000
00000000
00000000
,
00000000
00000000
00000000
00000000
,
00000000
00000000
00000000
00000000
,
00000000
00000000
00000000
00000000
,
00001000
00000000
00010000
00000000
,
00000010
00000000
00001000
00000000
,
00000001
00000000
00000000
00000000
,
00001001
00000000
00000000
00000000
,
00000001
00000000
00000000
00001000
00000000
00000000
00000001
00000000
,
00000000
00001000
00000000
00000000
00000001
00000000
00000000
00000000
,
00001000
00000000
00000000
00000010
00000000
00000000
00001000
00000000
,
00000000
00000010
00000000
00000000
00001000
00000000
00000000
00000000
,
00000010
00000000
00000000
00010000
00000000
00000000
00000010
00000000
,
00000000
00010000
00000000
00000000
00000010
00000000
00000000
00000000
,
00010000
00000000
00000000
00001000
00000000
00000000
00010000
00000000
,
00000000
00001000
00000000
00000000
00010000
00000000
00000000
00000000
,
00001000
00000000
00100000
00000000
,
00010000
00100000
00010000
00000000
,
10000000
00000000
00100000
00000000
,
01000000
00100000
01000000
00000000
,
00100000
00000000
10000000
00000000
,
00010000
01000000
00010000
00000000
,
01000000
00000000
00001000
00000000
,
00010000
00001000
00010000
00000000
,
00001000
00000000
00001000
00000000
,
00010000
00000000
00010000
00000000
,
00001000
00010000
00000100
00000000
,
00001000
00000100
00000010
00000000
,
00000001
00000000
00000001
00000000
,
00001000
00000000
00001000
00000000
,
00000001
00001000
00000100
00000000
,
00010000
00000000
00001000
00000000
,
00011000
00000000
00000000
00000000
,
00000000
00000000
00000000
00000000
,
00000000
00000000
00000000
00000000
,
00000000
00000000
00000000
00000000
,
00001000
00000000
00010000
00000000
,
00100000
00000000
00000000
00000000
,
10000000
00000000
00010000
00000000
,
10000000
00000000
00000000
00000000
,
10000000
01000000
00100000
00000000
,
00010000
00000000
00100000
00000000
,
00002000
00000000
00000000
00000000
,
00003000
00000000
00000000
00000000
,
00001000
00010000
00000010
00000000
,
00001000
00000000
00000001
00000000
,
00002000
00000000
00000000
00000000
,
00003000
00000000
00000000
00000000
,
00000001
00000100
00000010
00000000
,
00001000
00000000
00000010
00000000
,
00020000
00000000
00000000
00000000
,
00030000
00000000
00000000
00000000
,
00010000
00001000
00100000
00000000
,
00010000
00000000
10000000
00000000
,
00020000
00000000
00000000
00000000
,
00030000
00000000
00000000
00000000
,
10000000
01000000
00100000
00000000
,
00010000
00100000
00001000
00000000
,
00011000
00000000
00000000
00000000
,
00000000
00000000
00000000
00000000
,
00020000
00000000
00000000
00000000
,
00030000
00000000
00000000
00000000
,
00002000
00000000
00000000
00000000
,
00003000
00000000
00000000
00000000
,
00010000
00000000
00000100
00000000
,
00001000
00000000
00000010
00000000
,
00000100
00000000
00000001
00000000
,
00001000
00000000
00000000
00000000
,
00000001
00000010
00000100
00000000
,
00001000
00000000
00000100
00000000
,
00010000
00001000
00100000
00000000
,
00010000
00000000
00000000
00000000
,
10000000
01000000
00100000
00000000
,
00001000
00000000
00010000
00000000
,
00000100
00001000
00000001
00000000
,
00000010
00000000
00000000
00000000
,
00001001
00000000
00000000
00000000
,
00000000
00000000
00000000
00000000
,
00000000
00000000
00000000
00000000
,
00000001
00000000
00000000
00001000
00000000
00000000
00000000
00000000
,
00000001
00001000
00000001
00000000
,
00001000
00000000
00000100
00000000
,
00010000
00001000
00010000
00000000
,
00001000
00000000
00100000
00000000
,
00010000
01000000
00010000
00000000
,
01000000
00100000
01000000
00000000
,
00100000
10000000
00010000
10000000
,
00010000
00000000
10010000
00000000
,
10000000
00010000
10000000
00000000
,
00010000
00000000
01000000
00000000
,
00001000
00010000
00001000
00000000
,
00010000
00000000
00000010
00000000
,
00001000
00000100
00001000
00000000
,
00000100
00000010
00000100
00000000
,
00000010
00000001
00001000
00000001
,
00001000
00000000
00001001
00000000
,
00000001
00000000
00000000
00001000
00000000
00000000
00000010
00000000
,
00000000
00001000
00000000
00000000
00000010
00000000
00000000
00000000
,
00001000
00000000
00000000
00000010
00000000
00000000
00010000
00000000
,
00000000
00001000
00000000
00000000
00010000
00000000
00000000
00000000
,
00001000
00000000
00000000
01000000
00000000
00000000
00010000
00000000
,
00000000
01000000
00000000
00000000
00100000
00000000
00000000
00000000
,
10000000
00000000
00000000
01000000
00000000
00000000
00100000
00000000
,
00000000
00001000
00000000
00000000
00010000
00000000
00000000
00000000
;
#NOTEDATA:;
#STEPSTYPE:dance-double;
#DIFFICULTY:Medium;
#METER:12;
#BPMS:0=106.5,16=213,117=106.5,133=213,273=106.5,280=213,374=106.5;
#STOPS:16=0.845,208=1.127,279.75=0.563;
#TIMESIGNATURES:0=4=4,16=5=4,21=4=4,369=3=4,374=4=4;
#NOTES:
00000000
00000000
00000000
00000000
,
00000000
00000000
00000000
00000000
,
00000000
00000000
00000000
00000000
,
10000000
00100000
01000000
00000000
00010000
01000000
00001000
00000000
,
00022000
00033000
00000000
00000000
00001000
00010000
00001000
00010000
,
00001000
00000000
00010000
00000010
00000000
00010000
00000010
00000000
,
00010000
00000010
00000000
00010000
00000010
00000000
00001000
00000000
,
00000001
00000000
00000010
00000100
00000000
00000010
00000100
00000000
,
00000010
00000100
00000000
00000010
00000100
00000000
00001000
00000000
,
00000100
00000000
00010000
00001000
00000000
00010000
00001000
00000000
,
00010000
00001000
00000000
00010000
00001000
00000000
00100000
00000000
,
00010000
00000000
01000000
00010000
00000000
01000000
00010000
00000000
,
01000000
00100000
01000000
00000000
00100000
00000000
10000000
00000000
,
00000000
00000000
10000000
00000000
01000000
00000000
00100000
00010000
,
00100000
00001000
00000000
00100000
00001000
00000000
00010000
00000000
,
00000000
00000000
00001000
00000000
00010000
00000000
00000010
00001000
,
00000010
00000100
00000000
00000001
00001000
00000000
00000001
00000000
,
00000000
00001001
00000000
00000001
00000100
00000000
00000010
00000000
,
00010000
00000000
00001000
00000000
01000000
00000000
00010000
01000000
,
00000000
00100000
00000000
10000000
01000000
00000000
00100000
00000000
,
00001000
00000000
00010000
00000000
00000100
00000000
00001000
00000100
,
00000010
00000000
00000001
00000000
00001000
00000000
00000010
00000100
,
00000010
00000100
00000000
00001000
00010000
00000000
00001000
00010000
,
00000000
00001000
00000000
00010000
00100000
00000000
01000000
00100000
,
01000000
00100000
00000000
10000000
00010000
10000000
00000000
01000000
,
00000000
01100000
00000000
00100000
00002000
00000000
00023000
00000000
,
00030200
00000000
00002300
00000000
00003001
00000010
00000001
00001000
,
00000000
00000010
00000000
00000100
00002000
00000000
00023000
00000000
,
00230000
20300000
00000000
30020000
,
00000000
02030000
00000000
00000000
,
00000000
00000000
00000000
03000000
,
00000000
00000000
00100000
10000000
01000000
00100000
00010000
00100000
,
00001000
00000000
00000000
00000000
00010000
00000000
00000000
00001000
00000000
00000000
00010000
00000000
00001000
00000000
00000000
00000010
,
00000000
00000000
00000001
00000000
00000100
00000010
00000000
00001000
,
00000000
00001010
00000000
00000000
00000010
00000000
00010000
00000000
,
00000000
00011000
00000000
00000000
00001000
00000000
01000000
00010000
,
01000000
00010000
00000000
00000000
02000000
00000000
03200000
00000000
,
10300000
00010000
00000000
00000000
10010000
00000000
10000000
01000000
,
10000000
01000000
00000000
00000000
00100000
00000000
00010000
00000000
,
00100000
00001000
00000000
00010000
00001000
00000000
00010000
00000010
,
00001000
00000010
00000000
00000100
00000010
00000000
00001000
00000000
,
00000000
00001001
00000000
00000001
00000100
00000000
00000010
00000000
,
00001000
00010000
02000000
03200000
,
10300000
01000000
00000000
00010000
01000000
00000000
10000000
01000000
,
00000000
00100000
00000000
00000000
00101000
00000000
00011000
00000000
,
00010000
00001000
00000000
00000010
00000001
00000000
00000010
00000100
,
00000000
00001000
00000000
00000001
00000100
00000000
00001000
00000000
,
00010000
00001000
00000000
00000000
00000000
00000000
00010000
00001000
,
00010000
00001000
00000000
00000000
00010000
00000000
01000000
00000000
,
10000000
00000000
01000000
00100000
00000000
01000000
00100000
00000000
,
00001000
00010000
00000000
00001000
00010000
00000000
00000100
00000000
,
00000010
00000110
00000000
00000000
,
00000000
00002002
00000000
00000000
,
00000000
00000000
00000000
00000000
,
00000000
00003003
00000000
00000000
,
00000000
00000000
00000000
00000000
,
00000000
00000001
00000100
00001000
,
00000000
00010000
00100000
10000000
,
00000000
00000000
00010000
10000000
00000000
00010000
10000000
00000000
,
01000000
00100000
00000000
01000000
00100000
00000000
00001000
00010000
,
00000000
00001000
00000010
00001000
,
00010000
00100000
00010000
00001000
,
00000010
00001000
00010000
00001000
,
00000100
00000000
00001000
00000000
00000000
00011000
00000000
00000000
,
00010000
02000000
03020000
00032000
,
00003020
00000032
00001003
00002000
,
00003100
00000000
00010000
00000000
00000000
00011000
00000000
00000000
,
00001000
00000000
00000000
01001000
00000000
00000000
01000000
00000000
,
00100000
20000000
00000000
00000000
,
00000000
00000000
00000000
00000000
30000000
00000000
00000000
00000000
00000000
00000000
00000000
00000000
00010000
10000000
00010000
20000000
,
30010000
00000000
01000000
00100000
00000000
10000000
00000000
10010000
,
00000000
00000000
00010000
00000000
10000000
01000000
00000000
01100000
,
00000000
00000000
00110000
00000000
00010000
00100000
00001000
00010000
,
00000000
00001000
00000000
00001000
00000000
00010000
00000000
00011000
,
00000000
00000000
00011000
00000000
00010000
00000000
00001000
00000100
,
00000000
00000000
00000001
00000000
00000010
00000000
00000100
00001000
,
00000000
00000000
00000001
00000000
00000100
00001000
00000000
00010000
,
00000000
00100000
20000000
30020000
,
20030000
00000000
30020000
00000000
00130000
01000000
00000000
10000000
,
00000000
00000000
01000000
00000000
00010000
00001000
00000000
00001000
,
00000000
00000000
00000010
00000000
00000001
00001000
00000000
00001000
,
00000000
00000000
00000001
00000000
00000100
00001000
00000000
00010000
,
00000000
00001000
00020000
00000000
00000000
00000000
00000000
00000000
,
00000000
00030000
00200000
00000000
,
20000000
00000000
00000000
30300000
,
10000000
00100000
10000000
00000000
00010000
00100000
00010000
00000000
,
10000000
01000000
00000000
10000000
01000000
00000000
10000000
01000000
,
00000000
10000000
01000000
00000000
00100000
00000000
00010000
00000000
,
00100000
00001000
00000000
00100000
00001000
00000000
00010000
00000100
,
00000000
00010000
00000100
00000000
00001000
00000000
00000001
00000000
,
00000100
00000001
00000000
00000100
00000001
00000000
00000100
00000001
,
00000000
00000100
00000001
00000000
00001000
00000000
00000010
00000000
,
00010000
00000010
00000000
00010000
00001000
00000000
00010000
00000000
,
00200000
00000000
20300000
00000000
,
00000000
00000000
00000000
00000000
,
00000000
00000000
00000000
30000000
;
#NOTEDATA:;
#STEPSTYPE:dance-double;
#DIFFICULTY:Hard;
#METER:14;
#BPMS:0=106.5,16=213,117=106.5,133=213,273=106.5,280=213,374=106.5;
#STOPS:16=0.845,208=1.127,279.75=0.563;
#TIMESIGNATURES:0=4=4,16=5=4,21=4=4,369=3=4,374=4=4;
#NOTES:
00000000
00000000
00000000
00000000
,
00000000
00000000
00000000
00000000
,
00000000
00000000
00000000
00000000
,
10000000
00000000
01000000
00000000
00100000
00010000
00100000
00000000
00001000
00100000
00000000
00001000
00000000
00000000
00000000
00000000
,
00021000
00031000
00000000
00001000
00010000
00000100
00001000
00000100
,
00000010
00000000
00000001
00000100
00000100
00000010
00001000
00001000
,
00000001
00000100
00000100
00000010
00001000
00001000
00000001
00000000
,
00001001
00000000
00001000
00000100
00000100
00010000
00001000
00001000
,
00100000
00010000
00010000
01000000
00010000
00100000
01000000
00000000
,
10010000
00000000
10000000
01000000
01000000
00100000
00010000
00010000
,
10000000
01000000
01000000
00100000
00010000
00010000
10000000
00000000
,
10010000
00000000
00010000
01000000
01000000
00001000
00010000
00010000
,
00000010
00001000
00001000
00000100
00001000
00000010
00000100
00000001
,
00001000
00000000
00000001
00000100
00000001
00000100
00000001
00000010
,
00000001
00000010
00000100
00001000
00000010
00001000
00000100
00010000
,
00001000
00000000
00010000
00001000
00010000
00001000
01000000
00001000
,
01000000
00001000
00100000
00010000
01000000
00010000
00100000
01000000
,
10000000
00010000
00000000
00010000
01000000
10000000
01000000
00010000
,
10000000
00010000
00000000
10000000
01000000
00100000
00010000
00100000
,
00001000
00010000
00000000
00001000
00000010
00000001
00000010
00001000
,
00000010
00000001
00000000
00000100
00000001
00000010
00000100
00001000
,
00000001
00000000
00000010
00000001
00000010
00000001
00001000
00000010
,
00001000
00000010
00010000
00001000
01000000
00000000
00100000
10100000
,
00000000
10010000
00000000
10000000
01000000
00100000
01000000
00100000
,
00001000
00010000
00000000
00000100
00001000
00000000
00000001
00000011
,
00000000
00001001
00000000
00000001
00000100
00001000
00000000
00010000
,
00100000
10000000
00000000
10000000
01000000
00010000
00000000
00001000
,
00000010
00000001
00000000
00001000
00000010
00000100
00001000
00010000
,
00100000
00000000
00000000
01000000
00000000
00000000
00100000
00000000
00000000
10000000
00000000
00000000
00010000
00000000
00000000
00000000
00000000
00000000
10000000
00000000
01000000
00000000
10000000
00000000
,
00010000
01000000
00010000
20000000
00000000
00000000
00000000
00000000
00000000
00000000
00000000
00000000
,
00000000
00000000
00000000
30000000
,
00000000
00000000
00000000
00000000
10000000
00000000
00100000
00000000
01000000
00010000
01000000
00000000
00001000
00000000
00010000
00000000
,
00000010
00001000
00000010
00000000
00001010
00000000
00000000
00000101
00000000
00000000
00001001
00000000
00000001
00001000
00000001
00001000
,
00000000
00000000
00000001
00000010
00000100
00001000
00000000
00001000
,
00000100
00010000
00000000
00010000
00001000
00100000
00010000
01000000
,
00001000
00100000
00020000
00000000
00100000
00000000
01030000
00100000
,
10000000
01000000
00100000
00000000
00110000
00000000
00101000
00000000
,
00001000
00010000
00000000
00010000
00000010
00000000
00000100
00001000
,
00000100
00000001
00000000
00000010
00000100
00000010
00001000
00000000
,
00010000
00001000
00000000
00001000
00010000
00000000
00001000
01000000
,
00010000
01000000
00000000
01000000
00100000
00000000
01100000
00000000
,
10000000
00010000
00000000
10000000
01000000
00100000
00010000
10000000
,
01000000
00100000
00000000
00100000
00001000
00010000
00000100
00001000
,
00000001
00000010
00000200
00000000
00000001
00000000
00001300
00000100
,
00010000
00001000
00010000
00000000
00011000
00000000
01001000
00000000
,
01000000
00010000
00000000
00010000
10000000
00000000
00100000
01000000
,
00100000
10000000
00000000
00010000
00100000
01000000
00010000
00000000
,
00001000
00010000
00000000
00001000
00010000
00000000
00001000
00010000
,
00000010
00000000
00000000
00001000
00000000
00000000
00000000
00000000
00000000
00001000
00000000
00000000
00000100
00000000
00000000
00000000
00000000
00000000
00000010
00000000
00000100
00000000
00000010
00000000
,
00000100
00000000
00000010
00000000
00000100
00000000
00000010
00000000
00000000
00000001
00000000
00000000
00000000
00000000
00000000
00001000
00000000
00000000
00000010
00000000
00000000
00000000
00000000
00000000
,
00010000
00001000
00000000
00100000
00010000
00000000
10000000
00000000
,
00010000
01000000
00100000
10000000
00000000
00000000
00000000
00000000
00000000
00000000
00000000
00000000
,
00000000
20020000
00000000
00000000
,
00000000
00000000
00000000
00000000
,
00000000
00000000
00000000
00000000
,
00000000
00000000
00000000
30030000
,
00000000
00000000
10000000
00100000
01000000
00010000
00000000
10000000
,
00000000
10010000
00000000
00010000
01000000
00001000
00000000
00010000
,
00001000
00000000
00010000
00100000
00000000
00010000
00001000
00000000
,
00000010
00001000
00000000
00010000
00001000
00000000
00000200
00000000
,
00000000
00000000
00000000
00000000
00000301
00000000
00001000
00000001
00001000
00000000
00000001
00001000
00000001
00000000
00001000
00000001
,
00001000
00000000
00000001
00001000
00000001
00000000
00000100
00000000
00000010
00000000
00001000
00000000
00010000
00000000
01000000
00000000
,
00100000
10000000
00010000
00100000
01000000
01000000
10000000
00100000
,
01000000
01000000
00010000
00000000
00000000
10010000
00000000
00000000
,
10000000
01000000
00010000
00001000
00100000
01000000
00010000
00001000
,
00000010
00000100
00010000
00001000
00000010
00000100
00001000
00000001
,
00000100
00000000
00000001
00000100
00001000
00000100
00001000
00010000
,
00001000
00010000
00100000
00010000
00100000
10000000
00010000
01000000
,
00100000
10000000
00020000
00000000
00000000
00000000
00000000
00000000
,
00000000
00000000
00000000
00000000
00030000
00000000
00000000
00000000
00000000
00000000
00000000
00000000
10000000
00010000
10000000
00020000
,
10030000
00000000
00100000
01000000
00000000
00010000
00100000
00010000
,
00000000
00010000
01000000
00000000
00001000
00010000
00001000
00010000
,
00002000
00000000
00023000
00000000
00030010
00001000
00000010
00010000
,
00000000
00001000
00000000
00000000
00011000
00000000
00010000
00001000
,
00000000
00010000
00000100
00010000
00001000
00000000
00010000
01000000
,
00000000
10000000
00100000
01000000
00100000
00000000
00010000
00001000
,
00000000
00000100
00000010
00000100
00000001
00000000
00001000
00000001
,
00000000
00001001
00000002
00000203
,
00002300
00000000
00023000
00000000
00130000
10000000
00100000
10000000
,
00000000
00010000
10000000
00000000
01000000
00010000
01000000
00010000
,
00000000
00001000
00010000
00000000
00001000
00000010
00001000
00000010
,
00000000
00000000
00000011
00000000
00000001
00001000
00000001
00001000
,
00000000
00000001
00000100
00000001
00000100
00000010
00001000
00000010
,
00001000
00010000
01000000
00010000
01000000
00100000
10000000
00100000
,
10000000
10100000
01100000
01010000
,
00010000
01000000
00010000
00100000
00001000
00010000
00001000
00000000
,
00010000
00001000
00001000
00000010
00001000
00001000
00010000
00001000
,
00001000
00000010
00001000
00001000
00010000
00000000
00011000
00000000
,
00001000
00010000
00010000
01000000
00010000
00010000
00001000
00010000
,
00010000
01000000
00010000
00010000
00001000
00000000
00011000
00000000
,
00001000
00010000
00000100
00001000
00000010
00000100
00000001
00000010
,
00000100
00001000
00000100
00010000
00001000
00000000
00011000
00000000
,
00010000
00001000
00100000
00010000
01000000
00100000
10000000
01000000
,
00100000
00000000
00010000
00000000
10000000
00000000
01000000
00000000
00020000
02030000
03020000
00032000
00000000
00000000
00000000
00000000
,
00000000
00000000
00000000
00000000
,
00000000
00000000
00000000
00003000
;
#NOTEDATA:;
#STEPSTYPE:dance-double;
#DIFFICULTY:Challenge;
#METER:18;
#BPMS:0=106.5,16=213,117=106.5,133=213,273=106.5,280=213,374=106.5;
#STOPS:16=0.845,208=1.127,279.75=0.563;
#TIMESIGNATURES:0=4=4,16=5=4,21=4=4,369=3=4,374=4=4;
#NOTES:
00000000
00000000
00000000
00000000
,
00000000
00000000
00000000
00000000
,
00000000
00000000
00000000
00000000
,
00000000
00000000
00000000
00000000
,
00000000
00000000
00011000
00000000
00000000
00000000
00001000
00000000
00010000
00000000
01000000
00000000
10000000
00000000
00100000
01000000
,
00010000
10000000
00010000
00000000
10000000
00000000
01000000
00100000
01000000
00000000
00010000
00000000
01000000
00100000
01000000
00000000
,
10000000
00000000
01000000
00100000
01000000
00000000
00010000
00000000
01000000
00100000
01000000
00000000
10000000
00000000
01000000
00000000
,
00010000
00000000
00000000
00000000
00001000
00000000
00000010
00000100
00000010
00000000
00000001
00000000
00000010
00000100
00000010
00000000
,
00001000
00000000
00000010
00000100
00000010
00000000
00000001
00000000
00000010
00000100
00000010
00000000
00001000
00000000
00000010
00000000
,
00000001
00000000
00000000
00000000
00000100
00000001
00000100
00000001
00001000
00000000
00000100
00001000
00000100
00010000
00001000
00000000
,
00010000
00001000
00010000
00001000
00100000
00000000
00010000
00100000
00010000
00100000
01000000
00000000
10000000
00000000
00010000
00000000
,
10010000
00000000
10000000
01000000
00100000
00010000
00001000
00000100
,
00000010
00000000
00000001
00000000
00001000
00000100
00001000
00000000
00000001
00000100
00000001
00000000
00000010
00000000
00001000
00000000
,
00010000
00001000
00010000
00001000
00010000
00000000
00001000
00000000
00101000
00000000
00100000
00000000
00010000
00000000
10000000
00000000
,
10100000
00100000
01000000
00010000
01010000
01000000
00001000
00010000
,
00011000
00000000
00001000
00010000
00010010
00000010
00001000
00000001
,
00000011
00000010
00000100
00001000
00001100
00000100
00010000
00001000
,
00000000
00000000
00011000
00000000
00000000
00000000
00001000
01000000
00001000
00000000
00100000
00010000
00100000
00000000
00010000
01000000
,
00100000
00000000
10000000
00000000
00000000
00000000
01000000
10000000
01000000
00000000
00100000
00010000
00100000
00000000
00010000
00100000
,
00001000
00000000
00010000
00000000
00000000
00000000
00001000
00010000
00001000
00000000
00010000
00000010
00010000
00000000
00000010
00001000
,
00000001
00000100
00000001
00000010
00000100
00001000
00000010
00000100
,
00000001
00001000
00000001
00001000
00000001
00000000
00000100
00000000
00001000
00000000
00010000
00000000
00100000
00000000
01000000
00100000
,
10000000
00010000
10000000
00000000
00000000
00000000
10000000
00000000
00010000
00000000
00000000
00000000
10000000
01000000
10000000
01000000
,
00100000
00010000
00100000
00000000
00000000
00000000
01000000
00000000
00010000
00000000
00001000
00000000
00000010
00000000
00000100
00000010
,
00000001
00001000
00000001
00000000
00000000
00000000
00000100
00000000
00000010
00000000
00000000
00000000
00001000
00000010
00010000
00000010
,
00010000
00001000
00010000
00000000
00000000
00000000
00001000
00000000
00010000
00000000
00100000
00000000
10000000
00000000
01000000
00000000
,
00010000
00000000
00001000
00000000
00000010
00000000
00000001
00000000
00000100
00000000
00001000
00000000
00010000
00000000
00100000
01000000
,
00010000
10000000
01000000
00000000
00000000
00000000
10000000
00000000
00100000
00000000
00010000
00000000
00001000
00000000
00000000
00000100
,
00000001
00000000
00000000
00000100
00000000
00000000
00000001
00000000
00000000
00001000
00000000
00000000
00000010
00000000
00000000
00001000
00000000
00000000
00000010
00000000
00000000
00010000
00000000
00000000
00001000
00000000
00000000
00010000
00000000
00000000
00001000
00000000
00000000
00000000
00000000
00000000
00010000
00000000
00000000
00000000
00100000
00000000
00000000
00000000
01000000
00000000
00000000
00000000
,
00010000
00100000
01000000
20000000
00000000
00000000
00000000
00000000
00000000
00000000
00000000
00000000
,
00000000
00000000
00000000
30000000
,
00000000
00000000
00000000
00000000
10000000
00100000
01000000
00100000
00010000
00001000
00000100
00000010
00000100
00000001
00001000
00000000
,
00000001
00000010
00000001
00000010
00000100
00001000
00000100
00001000
00000100
00000000
00000000
00000000
00000000
00000000
00001100
00000000
00000000
00000000
00000000
00000000
00010100
00000000
00000000
00000000
00010000
00000000
00001000
00000000
00010000
00000000
00001000
00000000
,
00000000
00000000
00000000
00000000
00010000
00000000
00001000
01000000
00001000
01000000
00010000
00000000
01000000
00000000
00100000
10000000
,
00100000
10000000
00010000
00000000
10000000
00000000
01000000
00100000
01000000
00000000
00010000
00001000
00010000
00000000
00000100
00000010
,
00000100
00000000
00001000
00000000
00000001
00000000
00000010
00000000
00001000
00000000
00010000
00000000
01000000
00100000
00010000
01000000
,
00100000
10000000
00010000
00000000
00000000
00000000
00110000
00000000
00100000
00001000
00010000
00000000
00001000
00010000
00000100
00000000
,
00001000
00000000
00000001
00000000
00000000
00000000
00000010
00000001
00000100
00000000
00000010
00001000
00000100
00000000
00000010
00000000
,
00000001
00000100
00000000
00001000
00010000
00100000
10000000
00010000
,
01000000
00000000
00100000
00000000
00000000
00000000
10000000
00000000
00100000
00000000
01000000
00000000
00010000
00100000
00010000
00100000
,
00001000
00010000
00001000
00000000
00000000
00000000
00010000
00000000
00001000
00010000
00001000
00010000
00000010
00001000
00000010
00001000
,
00000010
00000100
00000001
00000000
00000000
00000000
00000100
00000010
00001000
00000000
00000010
00010000
00001000
00000000
00010000
00000000
,
00100000
00000000
10000000
00000000
00000000
00000000
00010000
00100000
01000000
00000000
10000000
01000000
00100000
00000000
00010000
00000000
,
00100000
00000000
00001000
00000000
00000000
00000000
00010000
00000100
00001000
00000000
00000010
00000100
00000001
00000000
00000010
00000100
,
00001000
00000000
00000010
00000000
00010000
00000010
00010000
00000010
00010000
00001000
00010000
00000000
00001000
00000000
01000000
00000000
,
00010000
01000000
00000000
10000000
01000000
00010000
00100000
10000000
,
00010000
00000000
01000000
00000000
00000000
00000000
10000000
01000000
00100000
00000000
01000000
00100000
00010000
00000000
00100000
00001000
,
00010000
00001000
00000000
00010000
00001000
00000010
00000001
00000100
,
00001000
00000000
00000000
00000000
00000000
00000000
00000001
00000000
00000000
00000000
00000000
00000000
00000010
00000000
00000000
00000000
00000000
00000000
00001000
00000000
00000000
00000010
00000000
00000000
00010000
00000000
00000000
00001000
00000000
00000000
00010000
00000000
00000000
00001000
00000000
00000000
01000000
00000000
00000000
00000000
00010000
00000000
00000000
00000000
01000000
00000000
00000000
00000000
,
00010000
00000000
00000000
00000000
10000000
00000000
00000000
00000000
00100000
00000000
00000000
00000000
10000000
00000000
00000000
00000000
00000000
00000000
01000000
00000000
00000000
00100000
00000000
00000000
01000000
00000000
00000000
00000000
00000000
00000000
00010000
00000000
00000000
01000000
00000000
00000000
00010000
00000000
00000000
00000000
00000000
00000000
00001000
00000000
00000000
00010000
00000000
00000000
,
00001000
00000000
00000000
00000000
00000000
00000000
00000010
00000000
00000000
00001000
00000000
00000000
00000010
00000000
00000000
00000000
00000000
00000000
00000001
00000000
00000000
00000010
00000000
00000000
00000001
00000000
00000000
00000000
00000000
00000000
00001000
00000000
00000000
00000001
00000000
00000000
00001000
00000000
00000000
00000000
00000001
00000000
00000000
00000000
00000100
00000000
00000000
00000000
,
00001000
00010000
00100000
10000000
00000000
00000000
00000000
00000000
00000000
00000000
00000000
00000000
,
00000000
20020000
00000000
00000000
,
00000000
00000000
00000000
00000000
,
00000000
00000000
00000000
00000000
,
00000000
00000000
00000000
30030000
,
00000000
00000000
10000000
01000000
00100000
00010000
00000000
00110000
,
00000000
00101000
00000000
00011000
00000000
00010100
00000000
00000100
,
00001000
00000000
00000001
00000101
00000000
00000100
00001100
00000000
,
00001000
00011000
00000000
00010000
00100000
01000000
00001000
00010000
,
00000000
00000000
00000000
00000000
00001000
00010000
00001000
00010000
00001000
00010000
00001000
00010000
00001000
00010000
00001000
00010000
,
00001000
00010000
00001000
00010000
00001000
00000000
01000000
00010000
01000000
00000000
00100000
00000000
10000000
00000000
00010000
00100000
,
00010000
10000000
01000000
00010000
00001000
00000010
00001000
00010000
,
00001000
00000100
00000001
00000000
00000000
00001001
00000000
00000001
,
00000010
00000100
00001000
00000000
00000010
00000000
00000100
00000000
00001000
00000000
00010000
00000000
00100000
00000000
00010000
00001000
,
00010000
01000000
00100000
00001000
00010000
00000100
00001000
00000010
,
00010000
00000000
00000000
00000000
00001000
00010000
00001000
00010000
00001000
01000000
00001000
01000000
00010000
01000000
00010000
01000000
,
00100000
10000000
00100000
00000000
10000000
01000000
00100000
01000000
00100000
00010000
00100000
00000000
00001000
00100000
00001000
00010000
,
00000100
00010000
00000100
00001000
00000200
00000000
00000000
00000000
00000000
00000000
00000000
00000000
00000000
00000000
00000000
00000000
,
00000000
00000000
00000000
00000000
00000300
00000000
00000000
00000000
00000000
00000000
00000000
00000000
00001000
00000001
00001000
00000001
,
00001000
00000000
00000010
00000000
00000001
00000000
00001000
00000000
00000100
00000000
00000010
00001000
00000010
00000000
00010000
00000000
,
00001000
00000000
01000000
00000000
00010000
00000000
01000000
00000000
10000000
00000000
01000000
00100000
01000000
00000000
00010000
00000000
,
10000000
00000000
01000000
00100000
00010000
00000000
01000000
00000000
00001000
00000000
00010000
00000010
00001000
00000000
00000001
00000000
,
00000000
00000000
00000001
00000000
00000100
00000000
00001000
00000000
00010000
00100000
01000000
00000000
00010000
10000000
01000000
00000000
,
00000000
00000000
10000000
01000000
00100000
00000000
01000000
00010000
00001000
00000000
00000010
00000001
00001000
00000000
00000001
00000000
,
00000000
00000000
00000001
00000100
00000010
00000000
00000100
00001000
00010000
00000000
00100000
10000000
00010000
00000000
10000000
00000000
,
00000000
00000000
10000000
00100000
01000000
00000000
00100000
00010000
00001000
00000000
00010000
00001000
00000100
00000000
00000001
00000000
,
00000000
00000000
00001000
00000000
00000001
00000000
00000100
00000000
00000010
00001000
00000010
00010000
00001000
00010000
00001000
00010000
,
00000000
00000000
00000000
00000000
00011000
00000000
00000000
00000000
00001000
00100000
00001000
00100000
00010000
00000000
00110000
00000000
,
00000000
00000000
00000000
00000000
10010000
00000000
00000000
00000000
10000000
01000000
10000000
01000000
00100000
00000000
00110000
00000000
,
00000000
00000000
00000000
00000000
00101000
00000000
00000000
00000000
00001000
00010000
00000010
00001000
00000010
00000000
00000110
00000000
,
00000000
00000000
00000100
00000001
00001000
00000000
00000001
00000010
00000100
00000000
00001000
00000100
00001000
00000000
00000001
00000000
,
00000000
00000001
00000100
00001000
00010000
00100000
10000000
01000000
,
00010000
00000000
00001000
00000000
00000010
00000000
00000001
00000000
00000100
00000010
00000100
00001000
00010000
00001000
00010000
00000000
,
00100000
00010000
00001000
00010000
01000000
10000000
00010000
00100000
,
01000000
00100000
01000000
00100000
00010000
00100000
00010000
00100000
00001000
00100000
00001000
00100000
00001000
00010000
00001000
00000000
,
00010000
00000000
00000100
00000010
00000100
00000000
00010000
00000000
00000010
00000100
00000010
00000000
00010000
00000000
00000100
00000010
,
00000100
00000000
00010000
00000000
00000010
00000100
00000010
00000000
00010000
00001000
00010000
00001000
00010000
00000000
00000000
00000000
,
00001000
00000000
01000000
00100000
01000000
00000000
00001000
00000000
00100000
01000000
00100000
00000000
00001000
00000000
01000000
00100000
,
01000000
00000000
00001000
00000000
00100000
01000000
00100000
00000000
00001000
00010000
00001000
00010000
00001000
00000000
00000000
00000000
,
00010000
00000000
00000100
00000010
00000100
00000000
00001000
00000001
00000100
00000010
00000100
00000000
00000001
00000000
00000100
00000010
,
00000100
00000000
00001000
00010000
00001000
01000000
00001000
00000000
00010000
00000000
00100000
01000000
00100000
00000000
10000000
00000000
,
01000000
10000000
01000000
10000000
00010000
01000000
00010000
01000000
00001000
00010000
00001000
00010000
00000010
00001000
00000010
00000100
,
00000001
00000000
00000010
00000000
00000100
00000000
00001100
00000000
00002000
00003200
00020300
00032000
00000000
00000000
00000000
00000000
,
00000000
00000000
00000000
00000000
,
00000000
00000000
00000000
00003000
;
