
//----- song ID: haji -----//
#TITLE:ハジマリノアイズ ft. りんたる;
#ARTIST:SPACELECTRO;
#TITLETRANSLIT:Hajimari no eyes ft. Rintaru;
#BANNER:Hajimari no eyes ft. Rintaru.png;
#BACKGROUND:Hajimari no eyes ft. Rintaru-bg.png;
#CDTITLE:./CDTitles/DDR WORLD.png;
#MUSIC:Hajimari no eyes ft. Rintaru.ogg;
#SAMPLESTART:52.451;
#SAMPLELENGTH:15;
#BPMS:0=128;
#BGSTAGE:16;
#NOTES:
     dance-single:
     :
     Beginner:
     1:
     :
0000
0000
0000
0000
,
0000
0000
0000
0000
,
0000
0000
0000
0000
,
0000
0000
0000
0000
,
0000
0000
0000
0000
,
0010
0000
0000
0000
,
0000
0000
0000
0000
,
0010
0000
0000
0000
,
0000
0000
0000
0000
,
1000
0000
0000
0000
,
0000
0000
0000
0000
,
1000
0000
0000
0000
,
0000
0000
0000
0000
,
1000
0000
0000
0000
,
0000
0000
0000
0000
,
0010
0000
0000
0000
,
0000
0000
0000
0000
,
0010
0000
0000
0000
,
0000
0000
0000
0000
,
0001
0000
0000
0000
,
0000
0000
0000
0000
,
0001
0000
0000
0000
,
0000
0000
0000
0000
,
0001
0000
0000
0000
,
0000
0000
0000
0000
,
0010
0000
0000
0000
,
0000
0000
0000
0000
,
0000
0000
0000
0000
,
0000
0000
0000
0000
,
0010
0000
0000
0000
,
0000
0000
0000
0000
,
0010
0000
0000
0000
,
0000
0000
0000
0000
,
1000
0000
0000
0000
,
0000
0000
0000
0000
,
1000
0000
0000
0000
,
0000
0000
0000
0000
,
1000
0000
0000
0000
,
0000
0000
0000
0000
,
0100
0000
0000
0000
,
0000
0000
0000
0000
,
0100
0000
0000
0000
,
0000
0000
0000
0000
,
0000
0000
0000
0000
,
0000
0000
0000
0000
,
0010
0000
0000
0000
,
0000
0000
0000
0000
,
0010
0000
0000
0000
,
0000
0000
0000
0000
,
1000
0000
0000
0000
,
0000
0000
0000
0000
,
1000
0000
0000
0000
,
0000
0000
0000
0000
,
0010
0000
0000
0000
,
0000
0000
0000
0000
,
0010
0000
0000
0000
,
0000
0000
0000
0000
,
0001
0000
0000
0000
,
0000
0000
0000
0000
,
0001
0000
0000
0000
,
0000
0000
0000
0000
,
0001
0000
0000
0000
,
0000
0000
0000
0000
;
#NOTES:
     dance-single:
     :
     Easy:
     5:
     :
0000
0000
0000
0000
,
0000
0000
0000
0000
,
0000
0000
0000
0000
,
0000
0000
0000
0000
,
0000
0000
0000
0000
,
0001
0000
0000
0000
,
0001
0000
0000
0000
,
1000
0000
0000
0000
,
1000
0000
0000
0000
,
0010
0000
0000
0000
,
0010
0000
0000
0000
,
0100
0000
0000
0000
,
0100
0000
0000
0000
,
0001
0100
0001
0000
,
1000
0010
1000
0000
,
1000
0100
1000
0000
,
0001
0010
0001
0000
,
1000
0001
1000
0001
,
0100
0000
0110
0000
,
0001
1000
0001
1000
,
1001
0000
0000
0000
,
0001
0001
0001
0000
,
1000
1000
1000
0000
,
0100
0100
0100
0000
,
0010
0010
0010
0000
,
0001
0100
0010
1000
,
0001
0100
0010
0000
,
1000
0100
0010
0001
,
1001
0000
0000
0000
,
1000
0100
1000
0100
,
0010
0001
0010
0000
,
0001
0100
0001
0100
,
0010
1000
0010
0000
,
1000
0001
1000
0001
,
1000
0010
1000
0000
,
0001
1000
0001
1000
,
0001
0010
0001
0000
,
1000
1000
0100
0000
,
1000
1000
0010
0000
,
0001
0001
0010
0000
,
0001
0001
0100
0000
,
0001
1000
0001
1000
,
0001
1000
0001
0000
,
0100
0010
0100
0010
,
0110
0000
0000
0000
,
2002
0000
0000
3003
,
1000
0001
1000
1000
,
0010
0100
0010
0010
,
1000
0100
0110
0000
,
0001
0010
0001
0001
,
0100
0010
1000
1000
,
0001
0100
0010
0010
,
1001
0000
0000
0000
,
1000
0010
0100
0001
,
0010
0010
0110
0000
,
0001
0100
0010
1000
,
0100
0100
0110
0000
,
1000
1000
0001
0001
,
0100
0010
1000
1000
,
0001
0001
1000
1000
,
0010
0100
0001
0000
,
1001
0000
0000
0000
,
0000
0000
0000
0000
;
#NOTES:
     dance-single:
     :
     Medium:
     9:
     :
0000
0000
0000
0000
,
0000
0000
0000
0000
,
0000
0000
0000
0000
,
0000
0000
0000
0000
,
0000
0000
0000
0000
,
0002
0000
0000
0003
,
2000
0000
0000
3000
,
0002
0000
0000
0003
,
2000
0000
0000
3000
,
0020
0000
0000
0030
,
0200
0000
0000
0300
,
0020
0000
0000
0030
,
1001
0000
0000
0000
,
1000
1000
0100
0100
,
0010
0001
0010
0000
0001
0000
0000
0000
,
0001
0001
0100
0100
,
0010
1000
0010
0000
1000
0000
0000
0000
,
1000
0000
0001
0000
0010
0100
0010
0000
,
0001
0000
1000
0000
0010
0100
0010
0000
,
1000
0010
1000
0000
0001
0100
0001
0000
,
1001
0000
0000
0000
,
2000
0010
3010
0000
,
0002
0010
0013
0000
,
2000
0100
3100
0000
,
0002
0100
0103
0000
,
1000
0100
1000
0000
0100
0000
0010
0000
,
0001
1000
0001
0000
0100
0000
0010
0000
,
1000
0100
0010
0000
0001
0100
0010
0000
,
1001
0000
0000
0000
,
1000
0000
0100
0000
0001
0100
1000
0000
,
0001
0000
0100
0000
1000
0100
0001
0000
,
1000
0000
0010
0000
0001
0010
1000
0000
,
0001
0000
0010
0000
1000
0010
0001
0000
,
1000
0000
0001
0000
0100
0010
1000
0000
,
0001
0000
1000
0000
0100
0010
0001
0000
,
1000
0001
0010
0000
0001
1000
0010
0000
,
1001
0000
0000
0000
,
1001
0000
1001
0000
1000
0100
0010
0001
,
0200
0010
0310
0000
,
1001
0000
1001
0000
0001
0100
0010
1000
,
0200
0010
0310
0000
,
0001
0010
0100
0000
0010
0100
1000
0000
,
1000
0010
0100
0000
0010
0100
0001
0000
,
1000
0100
1000
0100
0010
0001
0010
0000
,
1001
0000
0000
0000
,
0220
0000
0000
0330
,
1000
0010
0100
0000
0001
0010
0001
0000
,
1000
0100
0010
0000
0001
1000
0001
0000
,
0100
0010
1000
0010
0100
0000
0000
0000
,
0001
1000
0010
0000
1000
0100
0010
0000
,
0001
1000
0100
0000
0010
0001
0100
0000
,
0001
1000
0100
0000
0010
0100
1000
0000
,
0001
1000
0001
1000
0001
0000
0000
0000
,
1000
0100
1000
0100
0010
0001
1000
0000
,
0001
0100
0001
0100
0010
1000
0001
0000
,
1000
0010
0100
0000
0010
1000
0100
0000
,
0010
0001
0100
0001
0010
0000
1001
0000
,
0001
0100
0001
0100
0010
1000
0001
0000
,
1000
0100
1000
0100
0010
0001
1000
0000
,
0001
0010
0100
0000
0010
0001
0100
0000
,
0010
1000
0100
1000
0010
0000
0110
0000
,
1001
0000
0000
0000
,
0000
0000
0000
0000
;
#NOTES:
     dance-single:
     :
     Hard:
     11:
     :
0000
0000
0000
0000
,
0000
0000
0000
0000
,
0000
0000
0000
0000
,
0000
0000
0000
0000
,
0000
0000
0000
0000
,
0000
0001
0000
0001
,
0000
1000
0000
1000
,
0000
0001
0000
0001
,
0000
1000
0000
1000
,
0000
0010
0000
0010
,
0000
0100
0000
0100
,
0000
0010
0000
0010
,
1001
0000
0000
0000
,
1000
0100
1000
0000
0001
0100
0010
1000
,
0010
0000
1010
0000
1000
0001
1000
0000
,
0001
0100
0010
0000
1000
0100
0010
0000
,
0001
1000
0001
1000
0001
0000
1001
0000
,
0001
0010
0001
0000
1000
0010
0100
0001
,
0100
0000
0101
0000
0001
1000
0001
0000
,
1000
0010
0100
0000
0001
0010
0100
0000
,
1001
0000
0000
0000
,
0001
0100
0001
0000
0001
0100
0001
0000
,
0001
0010
0001
0000
0001
0010
0001
0000
,
1000
0100
1000
0000
1000
0100
1000
0000
,
1000
0010
1000
0000
1000
0010
1000
0000
,
0001
0100
1000
0100
0010
0100
0001
0000
,
1000
0100
0001
0100
0010
0100
1000
0000
,
0001
0100
0010
1000
0001
0100
0010
1000
,
1001
0000
0000
0000
,
0001
0010
1000
0000
0010
0100
1000
0000
,
0001
0100
1000
0100
0001
1000
0001
0000
,
1000
0010
0001
0000
0010
0100
0001
0000
,
1000
0100
0001
0100
1000
0001
1000
0000
,
0001
0100
1000
0000
0100
0010
1000
0000
,
0001
0010
1000
0010
0001
1000
0001
0000
,
1000
0100
0001
0000
0100
0010
0001
0000
,
1000
0010
0001
0010
1000
0001
1000
0000
,
0002
1000
2003
0001
,
3001
0100
0010
0100
0001
0100
0010
0000
,
2000
0001
3002
1000
,
1003
0100
0010
0100
1000
0100
0010
0000
,
0001
0010
0100
1000
0001
0010
0100
0010
,
0001
0100
0010
1000
0001
0100
0010
0000
,
1000
0100
0001
0100
1000
0010
0001
0010
,
1001
0000
0000
0000
,
2000
0000
0001
0000
0001
0001
3001
0000
,
1000
0100
0010
0100
0001
0100
1000
0000
,
0001
0100
0010
0100
1000
0100
0001
0000
,
1000
0010
0100
1000
0100
0010
1000
0000
,
0001
0010
0100
0001
1000
0010
0100
1000
,
0001
0010
1000
0010
0001
1000
0100
0000
,
1000
0010
0100
1000
0001
0010
0100
0001
,
1000
0010
0001
0010
1000
0001
0100
0000
,
0110
0000
1001
0000
0001
0010
0100
1000
,
1010
0000
0101
0000
1000
0100
0001
0100
,
1100
0000
0011
0000
0010
0001
0100
0010
,
0110
0000
1001
0000
1000
0010
0100
0000
,
0110
0000
1001
0000
1000
0100
0010
0001
,
0101
0000
1010
0000
0001
0010
1000
0010
,
0011
0000
1100
0000
0100
1000
0010
0100
,
0110
0000
1001
0000
0001
0100
0010
0000
,
1001
0000
0000
0000
,
0000
0000
0000
0000
;
#NOTES:
     dance-double:
     :
     Easy:
     3:
     :
00000000
00000000
00000000
00000000
,
00000000
00000000
00000000
00000000
,
00000000
00000000
00000000
00000000
,
00000000
00000000
00000000
00000000
,
00000000
00000000
00000000
00000000
,
00001000
00000000
00000000
00000000
,
00001000
00000000
00000000
00000000
,
00010000
00000000
00000000
00000000
,
00010000
00000000
00000000
00000000
,
00001000
00000000
00100000
00000000
,
00010000
00000000
00000000
00000000
,
10000000
00000000
00010000
00000000
,
10000000
00000000
00000000
00000000
,
10000000
00000000
01000000
00000000
,
00100000
00010000
00100000
00000000
,
00010000
00000000
01000000
00000000
,
00001000
00010000
00001000
00000000
,
00010000
00000000
00000100
00000000
,
00001000
00000010
00001000
00000000
,
00000100
00000000
00000010
00000000
,
00001001
00000000
00000000
00000000
,
00000001
00000000
00000001
00000000
,
00000100
00000000
00000000
00000000
,
00000100
00000000
00000100
00000000
,
00000010
00000000
00000000
00000000
,
00000010
00000000
00001000
00000000
,
00000010
00000000
00010000
00000000
,
00001000
00010000
00001000
00000000
,
00011000
00000000
00000000
00000000
,
00010000
00000000
00001000
00000000
,
00100000
00010000
01000000
00000000
,
00010000
00000000
10000000
00000000
,
01000000
00100000
01000000
00000000
,
10000000
00000000
00010000
00000000
,
00100000
00001000
00100000
00000000
,
00001000
00000000
00010000
00000000
,
00011000
00000000
00000000
00000000
,
00010000
00000000
00001000
00000000
,
00010000
00000010
00010000
00000000
,
00000010
00000000
00001000
00000000
,
00000001
00000000
00000000
00000000
,
00000001
00000000
00000100
00000000
,
00000001
00001000
00000100
00000000
,
00010000
00000000
00001000
00000000
,
00011000
00000000
00000000
00000000
,
00001000
00000000
00010000
00000000
,
00100000
10000000
00100000
00000000
,
10000000
00000000
00010000
00000000
,
10000000
00000000
00000000
00000000
,
10000000
00000000
01000000
00000000
,
00010000
00001000
00010000
00000000
,
00001000
00000000
00010000
00000000
,
00011000
00000000
00000000
00000000
,
00010000
00000000
00001000
00000000
,
00000010
00000000
00000001
00001000
,
00000001
00000000
00000100
00000000
,
00000010
00000000
00010000
00000000
,
00001000
00000000
00010000
00000000
,
00100000
00000000
10000000
00010000
,
10000000
00000000
01000000
00000000
,
00010000
00000000
00000000
00000000
,
00011000
00000000
00000000
00000000
,
00000000
00000000
00000000
00000000
;
#NOTES:
     dance-double:
     :
     Medium:
     9:
     :
00000000
00000000
00000000
00000000
,
00000000
00000000
00000000
00000000
,
00000000
00000000
00000000
00000000
,
00000000
00000000
00000000
00000000
,
00000000
00000000
00000000
00000000
,
00001000
00000000
00010000
00000000
00001000
00100000
00010000
00000000
,
01000000
00000000
00010000
00000000
00100000
01000000
10000000
00000000
,
01000000
00010000
00001000
00000010
,
00000001
00001000
00000001
00000000
00000100
00000010
00000100
00000000
,
00000001
00000001
00000100
00000100
,
00001000
00010000
00001000
00000000
00010000
00001000
00010000
00000000
,
00001000
00010000
00100000
10000000
,
10010000
00000000
00000000
00000000
,
20000000
00000000
00000000
30000000
,
10000000
01000000
00100000
00000000
00010000
00000000
01000000
00000000
,
00002000
00000000
00000000
00003000
,
00001000
00010000
00000100
00000000
00001000
00000000
00000000
00000000
,
00000001
00000100
00000010
00001000
,
00000010
00000000
00010000
00000000
00001000
00010000
00001000
00000000
,
00010000
00000000
00001000
00000000
00100000
00010000
01000000
00000000
,
01100000
00000000
00000000
00000000
,
20000000
00000000
32000000
00000000
,
03100000
00010000
00100000
00000000
,
00200000
00000000
00302000
00000000
,
00013000
00001000
00010000
00000000
,
00010000
00000010
00010000
00000000
00000010
00000000
00001000
00000000
,
00000001
00000100
00000001
00000000
00000010
00000000
00000001
00000000
,
00000100
00000000
00001000
00000000
00010000
00001000
00010000
00000000
,
00011000
00000000
00000000
00000000
,
00001000
00010000
00100000
10000000
,
00010000
01000000
00100000
00000000
10000000
00000000
00010000
00000000
,
10000000
01000000
00010000
00001000
,
00010000
00000100
00010000
00001000
00010000
00000000
00000000
00000000
,
00010000
00001000
00000010
00000001
,
00001000
00000100
00000010
00000000
00000001
00000000
00001000
00000000
,
00000001
00000100
00001000
00010000
,
00011000
00000000
00000000
00000000
,
00010000
00000000
00001000
00000000
01000000
00010000
00100000
01000000
,
20000000
00010000
30010000
00000000
,
00010000
00000000
10000000
00000000
00010000
00100000
00001000
00010000
,
00002000
00010000
00013000
00000000
,
00010000
00000100
00010000
00000000
00000100
00001000
00000100
00000000
,
00000010
00000001
00000010
00000000
00000001
00000000
00001001
00000000
,
00000001
00000000
00000100
00000000
00001000
00010000
00001000
00000000
,
00011000
00000000
00000000
00000000
,
00002000
00023000
00230000
20300000
,
30010000
01000000
00100000
00000000
10000000
01000000
00100000
00000000
,
00010000
00100000
00001000
00010000
,
00000100
00001000
00000100
00000010
00000001
00000000
00000000
00000000
,
00000001
00000000
00000100
00000000
00000001
00000010
00000100
00000000
,
00001000
00000010
00001000
00000010
00010000
00000000
00001000
00000000
,
01000000
00000000
00010000
00000000
00100000
01000000
10000000
00000000
,
10010000
00000000
00000000
00000000
,
10000000
00100000
10000000
01000000
00100000
00010000
01000000
00000000
,
00010000
01000000
00001000
00010000
00001000
00010000
00000010
00000000
,
00001000
00000010
00001000
00000100
00000010
00000001
00001000
00000000
,
00000001
00000100
00000001
00000100
00000010
00001000
00000010
00000000
,
00001000
00000001
00001000
00000010
00010000
00001000
00010000
00000000
,
00001000
00100000
00001000
01000000
00010000
00100000
01000000
00000000
,
00100000
00010000
10000000
01000000
,
00010000
00001000
00010000
00000000
00001000
00000000
00000000
00000000
,
00011000
00000000
00000000
00000000
,
00000000
00000000
00000000
00000000
;
#NOTES:
     dance-double:
     :
     Hard:
     12:
     :
00000000
00000000
00000000
00000000
,
00000000
00000000
00000000
00000000
,
00000000
00000000
00000000
00000000
,
00000000
00000000
00000000
00000000
,
00000000
00000000
00000000
00000000
,
00000000
00001000
00000000
00001000
,
00000000
00010000
00000000
00010000
,
00000000
00001000
00000000
00001000
,
00000000
00010000
00000000
00010000
,
00001000
00010000
00001000
00100000
00000000
00010000
01000000
00000000
,
00100000
10000000
00100000
01000000
00000000
00010000
01000000
00000000
,
00010000
10000000
01000000
00100000
01000000
00010000
00001000
00000000
,
00011000
00000000
00000000
00000000
,
00001000
00000000
00011000
00000000
00010000
00000100
00000010
00000001
,
00001000
00000001
00000100
00000010
00001000
00000000
00001001
00000000
,
00001000
00000010
00000001
00000000
00000001
00000010
00000100
00000010
,
00010000
00010000
00001000
00001000
00010000
00001000
00011000
00000000
,
00001000
00000000
00010000
00000000
01000000
10000000
00010000
00100000
,
00010000
01000000
00100000
10000000
01000000
00100000
01000000
00000000
,
10000000
01000000
00010000
00000000
00001000
00000010
00000001
00000000
,
00001001
00000000
00000000
00000000
,
00000002
00000000
00000010
00000000
00000103
00000010
00000100
00001000
,
00020000
00000000
00000010
00000000
00031000
00100000
00010000
01000000
,
00200000
00000000
00010000
00000000
10300000
01000000
00100000
00010000
,
02000000
00000000
10000000
00000000
03010000
00100000
00001000
00000000
,
00010000
00001000
00000100
00000010
00000100
00001000
00010000
00100000
,
01000000
00100000
00010000
00001000
00010000
01000000
00100000
01000000
,
00010000
00001000
00000010
00000100
00000010
00001000
00010000
00000000
,
00011000
00000000
00000000
00000000
,
00001000
00010000
00100000
01000000
00001000
00010000
01000000
00000000
,
10000000
01000000
00010000
00001000
00000010
00001000
00010000
00000000
,
00001000
00100000
01000000
00010000
00001000
00100000
00001000
00000000
,
00010000
00000100
00000010
00000100
00001000
00000010
00000100
00000000
,
00000001
00000100
00001000
00010000
00001000
00000010
00000001
00000000
,
00001000
00000100
00010000
00000010
00010000
00000100
00001000
00000000
,
00000001
00000100
00000010
00000100
00001000
00010000
00001000
00000000
,
00010000
00100000
10000000
00000000
00010000
01000000
00100000
00000000
,
20000000
00000000
32000000
00000000
03100000
00010000
01000000
00010000
,
00100000
00000000
00101000
00000000
00001000
00010000
00001000
00000000
,
00010000
00001000
00010000
00000000
00010000
00001000
00010000
00000000
,
00001000
00010000
00000010
00001000
00000001
00000010
00000001
00000000
,
00001000
00000100
00000010
00000001
00000100
00000010
00000100
00001000
,
00010000
00100000
01000000
00100000
10000000
00010000
01000000
00000000
,
00010000
00100000
00001000
00010000
00000100
00001000
00000010
00000000
,
00001001
00000000
00000000
00000000
,
00000220
00000000
00000000
00000330
,
00000001
00000010
00000100
00001000
00000010
00000100
00001000
00010000
,
00100000
01000000
00001000
00010000
01000000
00100000
00001000
00010000
,
00100000
10000000
00100000
01000000
10000000
01000000
00010000
00000000
,
10000000
01000000
00100000
00001000
00010000
01000000
00100000
00001000
,
00010000
00001000
00000100
00000010
00001000
00000001
00001000
00000000
,
00000001
00000010
00000100
00010000
00000010
00000100
00001000
00010000
,
00100000
01000000
00001000
00010000
00001000
00000010
00000100
00000000
,
00000110
00000000
00001001
00000000
00001000
00000001
00000100
00000010
,
00001000
00000100
00000010
00001000
00010000
00001000
00000100
00000000
,
00000001
00000100
00001000
00010000
00100000
10000000
00010000
01000000
,
00100000
00010000
00001000
00010000
00100000
01000000
00010000
00000000
,
10000000
01000000
00100000
00001000
00010000
00100000
01000000
00001000
,
00010000
01000000
00010000
00001000
00000010
00000100
00001000
00000000
,
00000001
00000010
00000100
00000010
00001000
00010000
01000000
00100000
,
00010000
10000000
00010000
00100000
00001000
00010000
00001000
00000000
,
00011000
00000000
00000000
00000000
,
00000000
00000000
00000000
00000000
;
