
//----- song ID: hodf -----//
#TITLE:HYPER OVERR DANCEFLOORRR;
#ARTIST:Tanchiky;
#BANNER:HYPER OVERR DANCEFLOORRR.png;
#BACKGROUND:HYPER OVERR DANCEFLOORRR-bg.png;
#CDTITLE:./CDTitles/DDR WORLD.png;
#MUSIC:HYPER OVERR DANCEFLOORRR.ogg;
#SAMPLESTART:74.834;
#SAMPLELENGTH:15;
#BPMS:0=160;
#NOTES:
     dance-single:
     :
     Beginner:
     3:
     :
0000
0000
0000
0000
,
0000
0000
0000
0000
,
1000
0000
0000
0000
,
0001
0000
0000
0000
,
1000
0000
0000
0000
,
1001
0000
0000
0000
,
1000
0000
0000
0000
,
0010
0000
0000
0000
,
0020
0000
0000
0000
,
0030
0000
0000
0000
,
1000
0000
0000
0000
,
0001
0000
0000
0000
,
1000
0000
0000
0000
,
1001
0000
0000
0000
,
0001
0000
0000
0000
,
1000
0000
0000
0000
,
0001
0000
1000
0000
,
0001
0000
0000
0000
,
2000
0000
0000
3000
,
0002
0000
0000
0003
,
1000
0000
0001
0000
,
1000
0000
0010
0000
,
2000
0000
0000
3000
,
0020
0000
0000
0030
,
1000
0000
0001
0000
,
0010
0000
0000
0000
,
0001
0000
1000
0000
,
0001
0000
0000
0000
,
1000
0000
0001
0000
,
1000
0000
0000
0000
,
2000
0000
0000
3000
,
0020
0000
0000
0030
,
2000
0000
0000
3000
,
0002
0000
0000
0003
,
1000
0000
0000
0000
,
0000
0000
0000
0000
,
0000
0000
0000
0000
,
0000
0000
0000
0000
,
0001
0000
1000
0000
,
0010
0000
0000
0000
,
1000
0000
0001
0000
,
0010
0000
0000
0000
,
1001
0000
0000
0000
,
0000
0000
0000
0000
,
1001
0000
0000
0000
,
0000
0000
0000
0000
,
0001
0000
1000
0000
,
0001
0000
0001
0000
,
1000
0000
1000
0000
,
0010
0000
0000
0000
,
1000
0000
0001
0000
,
1000
0000
0010
0000
,
1000
0000
0001
0000
,
0010
0000
0000
0000
,
0001
0000
1000
0000
,
0001
0000
1000
0000
,
0100
0000
0000
0000
,
0100
0000
0000
0000
,
1000
0000
0001
0000
,
1000
0000
0001
0000
,
1000
0000
1000
0000
,
0010
0000
1000
0000
,
0001
0000
1000
0000
,
0001
0000
1000
0000
,
0100
0000
0000
0000
,
1001
0000
0000
0000
,
2000
0000
0000
3000
,
0002
0000
0000
0003
,
2000
0000
0000
3000
,
0200
0000
0000
0300
,
2000
0000
0000
3000
,
0002
0000
0000
0003
,
0020
0000
0000
0030
,
0001
0000
1000
0000
,
0001
0000
0000
0000
,
1001
0000
0000
0000
,
0000
0000
0000
0000
;
#NOTES:
     dance-single:
     :
     Easy:
     8:
     :
0000
0000
0000
0000
,
0000
0000
0000
0000
,
1000
0100
0010
0001
,
1000
0100
0010
0001
,
0001
0100
0010
1000
,
0001
1000
0001
1000
0002
0000
0003
0000
,
1000
1000
0100
0100
,
0010
0010
0001
0000
,
1000
0001
1000
0000
0001
1000
0001
0000
,
1000
0010
0100
0110
,
1001
0001
0100
0001
,
1001
1000
0100
1000
,
1001
0001
0100
0010
,
1001
1001
0110
0110
,
2000
0000
0010
0010
,
3002
0000
0010
0010
,
2003
0100
3002
0103
,
1001
0110
1001
0110
,
0002
0103
0020
1030
,
0002
0000
0013
0000
0100
1000
0001
0000
,
1000
0010
0010
0010
,
0100
0010
0010
0010
,
2000
3100
0020
0031
,
2000
0000
3010
0000
0100
0001
1000
0000
,
0001
0010
0010
0010
,
0001
0100
0100
0100
,
0001
0000
1000
0000
0010
0000
0010
1000
,
0000
1000
0001
0000
0001
0000
0010
0001
,
0000
0001
1000
0000
1000
0000
1000
0100
,
0000
0000
0100
0000
0010
0000
0000
0000
0001
0000
0000
0001
0000
0000
0001
0000
,
2000
0000
3200
0000
,
0302
0000
0203
0000
,
1300
0010
0001
0010
,
1000
0000
0100
0000
0010
0001
1000
0000
,
2002
0000
0000
0000
,
0000
0000
0000
0000
,
0000
0000
0000
0000
,
3003
0000
0000
0000
,
0001
0000
0000
0000
1000
0000
0000
0000
0001
0000
0000
0001
0000
0000
1000
0000
,
0000
1000
0000
0000
0001
0000
0000
0001
0000
0000
1000
0000
0001
0000
1000
0000
,
0020
0000
0000
0000
0100
0000
0000
0000
0100
0000
0000
0130
0000
0000
0001
0000
,
0000
1000
0001
1000
0000
0010
0100
0010
,
1000
1000
0001
0001
,
0010
0010
0200
0300
,
1001
1001
0110
0110
,
2002
0000
0000
3003
0000
0001
1000
0001
,
2000
0000
3002
0000
,
0023
0000
0130
0020
,
0230
0000
0320
0000
,
0031
0000
1000
1001
,
0001
0100
0001
1000
,
0001
0100
0001
0010
,
0100
1000
0010
0100
,
0001
0000
0010
0000
0100
1000
0100
0000
,
1000
0100
1000
0001
,
1000
0100
1000
0010
,
0100
0002
0013
0200
,
1300
0010
0100
1001
,
0001
0010
1000
0010
,
0100
1000
0010
1000
,
0001
0100
1000
0100
,
0001
0010
0001
0100
,
0010
0100
0001
0010
,
0100
0010
0001
0100
,
0001
0200
0310
1000
,
0001
0000
0000
0001
0000
0000
0001
0000
1000
0000
0000
0000
1001
0000
0000
0000
,
0002
0203
2300
3200
,
0302
0203
2300
3200
,
0302
0203
2300
3200
,
0320
0032
0023
2030
,
3200
0000
0000
0000
0000
0000
0000
0000
0000
0000
0000
0000
0000
0000
0000
0000
0000
0000
0000
0000
0000
0000
0000
0000
0000
0000
0000
0000
0000
0000
0000
0000
0000
0000
0000
0000
0000
0000
0000
0000
0000
0000
0000
0000
0000
0000
0000
0000
0302
0000
0000
0000
0000
0000
0000
0000
0000
0000
0000
0000
0000
0000
0000
0000
0000
0000
0000
0000
0000
0000
0000
0000
0000
0000
0000
0000
0000
0000
0000
0000
0000
0000
0000
0000
0000
0000
0000
0000
0000
0000
0000
0000
0000
0000
0000
0000
0203
0000
0000
0000
0000
0000
0000
0000
0000
0000
0000
0000
0000
0000
0000
0000
0000
0000
0000
0000
0000
0000
0000
0000
0000
0000
0000
0000
0000
0000
0000
0000
0000
0000
0000
0000
0000
0000
0000
0000
0000
0000
0000
0000
0000
0000
0000
0300
2000
0000
0000
0000
0000
0000
0000
0000
0000
0000
0000
0000
0000
0000
0000
0000
0000
0000
0000
0000
0000
0000
0000
0000
0000
0000
0000
0000
0000
0000
0000
0000
0000
0000
0000
0000
0000
0000
0000
0000
0000
0000
0000
0000
0000
0000
0000
0000
,
3020
0032
2003
3200
,
0320
2030
3002
0023
,
0130
0100
0100
1001
,
2002
0000
0000
0000
0000
0000
0000
0000
3003
0000
0010
0000
0000
0010
0000
0000
,
0010
0000
0000
0000
,
0000
0000
0000
0000
;
#NOTES:
     dance-single:
     :
     Medium:
     13:
     :
0000
0000
0000
0000
,
0000
0000
0000
0000
,
2001
0100
3002
0010
,
2003
0100
3002
0013
,
1002
0100
2003
3010
,
1000
0010
0100
0001
2000
0000
3000
0000
,
1001
1001
0110
0110
,
1001
0000
1001
0000
0110
0000
2002
3003
,
1000
0001
1000
0000
1000
0000
0000
0000
0010
0100
0010
0000
0010
0000
0000
0000
,
1000
0010
0100
1001
,
1000
0000
0010
0000
1000
0000
0001
0100
0000
0010
0000
0100
0000
0001
1000
0000
,
0001
0000
0010
0000
0001
0000
1000
0100
0000
0010
0000
0100
0000
1000
0001
0000
,
1000
0000
0010
0000
1000
0000
0001
0100
0000
0010
0000
0100
0020
0000
0030
0000
,
1001
0110
1001
0110
,
2000
0000
0000
0000
3002
0023
2030
3002
,
0203
0000
0000
0000
0302
0203
2300
3010
,
0110
1010
1001
0011
,
0110
1001
0110
1001
,
2000
0000
0000
3100
0002
0000
0000
0103
,
2000
0000
0000
3100
0001
0100
1000
0000
,
0001
1000
0000
0001
0000
0010
0000
0100
0000
1000
0000
0010
0000
0100
0001
0000
,
1000
0001
0000
1000
0000
0010
0000
0100
0000
0001
0000
0010
0000
0100
1000
0000
,
0002
0000
0000
0103
2000
0000
0000
3100
,
0002
0000
0000
0103
1000
0100
0001
0000
,
1000
0001
0000
1000
0000
0010
0000
0100
0000
0001
0000
0010
0000
0100
1000
0000
,
0001
0100
0000
0010
0000
1000
0000
0100
0000
0010
0000
0100
1000
0000
0000
0000
,
1001
0000
1001
0000
1001
0000
0001
1000
,
0000
1000
0001
0000
0001
0000
0010
0100
,
0000
0100
0010
0000
0110
0000
0010
0100
,
0000
0000
0100
0000
0010
0000
0000
0000
0001
0000
0000
1000
0000
0000
0001
0000
,
1000
0000
0000
0000
1000
0000
0000
0000
0001
0000
0000
0001
0000
0000
0001
0000
,
0010
0010
0010
0000
0100
0000
0100
0100
,
0100
0000
1000
0001
0100
0000
0100
0000
0010
0000
0000
0010
0000
0000
0010
0000
,
2000
0000
0000
0000
3000
0000
0001
1000
0100
0000
1000
0001
0100
0000
0000
0000
,
2002
0000
0000
0000
,
0000
0000
0000
0000
,
0000
0000
0000
0000
,
3003
0000
0000
0000
1000
1000
0001
0001
,
1000
0000
0100
0010
0000
0001
1000
0100
2000
0000
0000
3001
0000
0000
2000
0000
,
0000
3010
0000
0000
2000
0000
0000
3001
0000
0000
0020
0000
0031
0000
1000
0000
,
0001
0000
0100
0010
0000
1000
0010
0100
0002
0000
0000
1003
0000
0000
0020
0000
,
0000
1000
1000
1030
0000
0001
0001
0001
,
1001
1001
1001
1001
,
0110
0000
0000
0110
0000
0000
0010
0100
0010
0100
0000
0010
,
0100
0110
1001
1001
,
2001
0000
0000
0000
0000
0000
3100
0000
0010
0000
0100
0000
0010
0000
0000
0001
0000
0000
0001
0000
0000
0001
0000
0000
,
1000
0000
0000
0001
0000
0000
1000
0000
0000
0010
0000
0000
0100
0000
0001
0000
,
1000
0000
0000
0001
0000
0000
1000
0000
0000
0010
0000
0000
0100
0010
0100
0000
,
0001
0000
0000
1000
0000
0000
0010
0000
1000
0000
0000
0001
0000
0000
0010
0000
,
0001
0000
0000
0100
0000
0000
0010
0000
1000
0000
1000
0000
1000
0000
0000
0000
,
0001
0000
0000
0100
0000
0000
0001
0000
0000
1000
0000
0000
0100
0000
1000
0000
,
0001
0000
0000
0100
0000
0000
0001
0000
0000
0010
0000
0000
0001
0000
1000
0000
,
0010
0000
0000
1000
0000
0000
0010
0100
0010
0000
0000
1000
0000
0000
0010
0100
,
0001
0000
0000
1000
0000
0000
0001
0100
0010
0000
0010
0000
0010
0000
0000
0000
,
1000
0000
0000
0100
0000
0000
1000
0000
0000
0001
0000
0000
0100
0000
0001
0000
,
1000
0000
0000
0100
0000
0000
1000
0000
0000
0010
0000
0000
0100
0000
0001
0000
,
1000
0000
0000
0000
0001
1000
0001
0000
0010
0000
0000
0000
0100
0010
0100
0000
,
1000
0000
0000
0100
0000
0000
0010
0000
0001
0000
0000
0000
1001
0000
0000
0000
,
1000
0000
0000
0000
0001
0000
0000
0000
1000
0000
0000
0010
0000
0000
0001
0000
,
1000
0000
0000
0000
0100
0000
0000
0000
0001
0000
0000
0010
0000
0000
1000
0000
,
0001
0000
0000
0000
0100
0000
0000
0000
1000
0000
0000
0010
0000
0000
0001
0000
,
0010
0000
1000
0000
0010
0000
0100
0000
0001
0000
0010
0100
1000
0000
0001
0000
,
0100
0000
0000
0000
1000
0000
0000
0000
0001
0000
0000
0010
0000
0000
1000
0000
,
0100
0000
0000
0000
0001
0000
0000
0000
1000
0000
0000
0010
0000
0000
0001
0000
,
1000
0000
0000
0000
0001
1000
0001
0000
0010
0000
0000
0100
0000
0000
1000
0000
,
0002
0000
0103
0110
,
0010
1000
0000
0001
0000
1000
0000
0010
0000
0100
0000
0010
0000
1000
0010
0000
,
0100
0001
0000
1000
0000
0001
0000
0010
0000
0100
0000
0010
0000
0001
0010
0000
,
0100
1000
0000
0001
0000
1000
0000
0010
0000
0100
0000
0010
0000
1000
0010
0000
,
0100
0010
0000
0010
0000
0010
0000
0100
0000
0100
0000
0100
0000
0001
1000
0000
,
0001
0010
0000
0100
0000
1000
0000
0010
0000
0100
0000
0001
0000
0010
0100
0000
,
1000
0010
0000
0100
0000
0001
0000
0010
0000
0100
0000
1000
0000
0010
0100
0000
,
0001
0010
0000
0100
0000
0010
0000
1000
0000
0010
0000
0001
0000
0010
0100
0000
,
0010
0010
1001
1001
,
0000
0000
0001
0100
0001
0000
1000
0100
1000
0000
0001
0000
0000
1000
0000
0000
,
1001
0000
0000
0000
,
0000
0000
0000
0000
;
#NOTES:
     dance-single:
     :
     Hard:
     16:
     :
0000
0000
0000
0000
,
0000
0000
0000
0000
,
1002
0100
1000
0010
,
2003
0100
0001
3010
,
1002
0100
1000
0013
,
0110
0000
0100
0000
0010
0100
0010
0100
0010
0000
0110
0000
0110
0000
0110
0000
,
1001
1001
0101
0101
,
1100
1100
1010
1001
,
0001
1000
0001
1000
0001
0010
0000
0000
0100
0010
0100
0010
0100
1000
0000
0000
,
1001
1010
0011
1100
,
1000
0000
0010
0000
0100
0000
0001
0100
0000
0001
0000
0001
1000
0100
0010
0000
,
0001
0000
0010
0100
0010
0100
1000
0100
0000
1000
0000
1000
0001
1000
0001
0010
,
0001
0000
0010
0000
0001
0000
0100
0001
0000
0001
0000
0001
0020
0000
0000
0030
,
0110
0011
0101
1010
,
0001
1000
0001
1000
0001
1000
0001
1000
0002
0000
0023
0000
2030
0000
3002
0000
,
0103
0010
0100
0010
0100
0010
0100
0010
0002
0000
0203
0000
2300
0000
3001
0000
,
0010
0100
0010
0100
0010
0100
0010
0100
0001
1000
0001
1000
0001
1000
0001
1000
,
0010
0000
0100
0100
0101
0000
1001
0000
,
2010
0000
0000
0000
0000
0000
3010
0100
0002
0000
0000
0000
0000
0000
1003
0100
,
0020
0000
0000
0000
0000
0000
0031
1000
0100
0000
0010
0001
0100
0000
0101
0000
,
0200
0001
0000
0001
0000
0001
0000
0001
0000
0001
0000
0301
1000
0001
1000
0001
,
0200
0001
0000
0001
0000
0001
0000
0001
0000
0001
0000
0301
1000
0100
0010
0000
,
0012
0000
0000
0000
0000
0000
0013
0100
2000
0000
0000
0000
0000
0000
3001
0100
,
0020
0000
0000
0000
0000
0000
1030
0001
0100
0000
0020
0000
2030
0000
3100
0000
,
0200
1000
0000
1000
0000
1000
0000
1000
0000
1000
0000
1300
0001
1000
0001
1000
,
0020
0100
0000
0100
0000
0100
0000
0100
0000
0100
0000
0130
0001
0000
0000
0000
,
1100
0000
1100
0000
0011
0000
0001
1001
,
0000
1000
1010
0000
0110
0000
0100
0101
,
0000
0001
1001
0000
1100
0000
0100
0110
,
0000
0000
0010
0000
1001
0000
0000
0000
0101
0000
0000
1100
0000
0000
1001
0000
,
1001
0000
0000
0000
1001
0000
0000
0000
1001
0000
0000
1001
0000
0000
1001
0000
,
0110
0110
0110
0000
1001
0000
1001
1001
,
1001
0000
1000
0100
0010
0000
0010
0000
0110
0000
0000
0011
0000
0000
1010
0000
,
2002
0000
0000
0000
3003
0000
1000
0010
0100
0000
0001
0010
0100
0000
1000
0000
,
2002
0000
0000
0000
,
0000
0000
0000
0000
,
0000
0000
0000
0000
,
3003
0000
0000
0000
0001
1100
0011
1001
,
2000
0000
3100
0020
0000
0031
0010
0100
2000
0000
0000
3010
0000
0000
0002
0000
,
0000
0000
0000
0013
0000
0000
0000
0000
0000
0000
0000
0000
2000
0000
0000
0000
0000
0000
0000
0000
0000
3010
0000
0000
0000
0000
0000
0000
0000
0000
0020
0000
0000
0000
0000
0000
1030
0000
0001
0000
1000
0000
0002
0000
0000
0000
0000
0000
,
0023
0000
0130
0010
0000
0001
0010
0100
0020
0000
0000
0130
0000
0000
0020
0000
,
0000
0001
0100
0031
0000
1001
1001
1001
,
0110
0110
0110
0110
,
1001
0000
0000
1001
0000
0000
1000
0001
1000
0001
0000
0001
,
1000
1001
1001
1001
,
2001
0000
0000
0000
0000
0000
3100
0000
0010
0000
0100
0000
0010
0000
0000
0110
0000
0000
0110
0000
0000
0110
0000
0000
,
0001
0000
0001
1000
0000
1000
0100
0000
0100
0010
0000
0010
0001
0000
1000
0000
,
0001
0000
0001
0010
0000
0010
0100
0000
0100
2000
0000
3000
0100
0100
0100
0100
,
0200
0000
0000
0000
0000
0000
0300
0000
1000
0010
0100
0001
1000
0100
0010
0001
,
2000
0000
0000
0000
3001
0001
1001
0000
,
1000
0000
1000
0001
0000
0001
0100
0000
0100
0001
0000
0001
1000
0000
0010
0000
,
1000
0000
1000
0001
0000
0001
1000
0000
1000
0010
0000
0010
1000
0000
0010
0000
,
1010
0000
0000
0110
0000
0000
0010
0100
0001
0000
0000
1001
0000
0000
1000
0100
,
0010
0000
0000
0011
0000
0000
0001
0100
0010
0000
0010
0000
0110
0000
1001
0000
,
0001
0000
0001
1000
0000
1000
0100
0000
0100
1000
0000
1000
0001
0000
0010
0000
,
0001
0000
0001
1000
0000
1000
0001
0000
0001
0010
0000
0010
0001
0000
0010
0000
,
0110
0000
0000
0000
0100
0100
0100
0100
0100
0000
0000
1000
0010
0100
0001
0010
,
0100
0000
0000
0010
0000
0000
0010
0000
0110
0000
0000
0000
1001
0000
0000
0000
,
1100
0000
0000
0000
0101
0000
0000
0000
0011
0000
0000
1010
0000
0000
1001
0000
,
0101
0000
0000
0000
1100
0000
0000
0000
1010
0000
0000
0011
0000
0010
0001
1000
,
0100
0000
0000
0000
0101
0000
0000
0000
0011
0000
0000
1010
0000
0000
0110
0000
,
1001
0000
0000
0110
0000
0000
1001
0000
0000
0110
0000
0000
1001
0000
0000
0001
1000
0001
1000
0000
0000
0001
0000
0000
,
1001
0000
0000
0000
1100
0000
0000
0000
0101
0000
0000
0011
0000
0000
1010
0000
,
0110
0000
0000
0000
0101
0000
0000
0000
1100
0000
0000
0011
0000
0010
0001
1000
,
0100
0000
0000
0100
0100
0100
0100
0100
0100
0000
0000
0010
0000
0000
0100
0000
,
1002
0000
0013
0110
,
0100
0010
0000
0010
0001
1000
0000
1000
0010
0100
0000
0100
0000
0001
1000
0001
,
0100
0010
0000
0010
1000
0001
0000
0001
0010
0100
0000
0100
0000
1000
0001
1000
,
0100
0010
0000
0010
0001
1000
0000
1000
0010
0100
0000
0100
0000
0001
1000
0001
,
0010
0001
1000
0100
0000
0100
0000
0100
0000
0100
0000
0100
0010
0100
0010
0100
,
1000
0001
0000
0001
0100
0010
0000
0010
1000
0001
0000
0001
0000
0010
0100
0010
,
0001
1000
0000
1000
0100
0010
0000
0010
0001
1000
0000
1000
0000
0010
0100
0010
,
1000
0010
0000
0010
0100
1000
0000
1000
0001
0010
0000
0010
0000
0010
0100
0010
,
1000
1001
0101
1100
,
0000
0000
0100
1000
0100
1000
0001
0100
0001
0000
1100
0000
0000
0101
0000
0000
,
1001
0000
0000
0000
,
0000
0000
0000
0000
;
#NOTES:
     dance-double:
     :
     Easy:
     8:
     :
00000000
00000000
00000000
00000000
,
00000000
00000000
00000000
00000000
,
00010000
00001000
00000100
00000010
,
00010000
00001000
01000000
00100000
,
00010000
00001000
00000100
00000010
,
00001000
00000001
00001000
00000001
00002000
00000000
00003000
00000000
,
00000001
00000001
00001000
00001000
,
00000010
00000010
00010000
00000000
,
00001000
00010000
00001000
00000000
00100000
00010000
00100000
00000000
,
01000000
10000000
00100000
00010000
,
00011000
00001000
00000100
00000010
,
00001000
00000100
00000010
00001000
,
00011000
00010000
01000000
00100000
,
00010000
01000000
00100000
00010000
,
00021000
00000000
00000010
00000010
,
00032000
00000000
00100000
00100000
,
00023000
00000100
00032000
01003000
,
00100000
00010000
00001000
00011000
,
00002000
00013000
00000020
00001030
,
00000002
00000000
00000103
00000000
00000010
00001000
00000001
00000000
,
00000010
00001000
00010000
01000000
,
00100000
00001000
00010000
00000100
,
00000020
00000031
00002000
00003100
,
00020000
00000000
00031000
00000000
00100000
00010000
10000000
00000000
,
01000000
00010000
00001000
00000010
,
00000100
00010000
00001000
00100000
,
01000000
00000000
10000000
00000000
00010000
00000000
00010000
01000000
,
00000000
01000000
00010000
00000000
00010000
00000000
00100000
00001000
,
00000000
00001000
00010000
00000000
00000100
00000000
00000100
00001000
,
00000000
00000000
00001000
00000000
00000001
00000000
00000000
00000000
00001000
00000000
00000000
00001000
00000000
00000000
00001000
00000000
,
00000002
00000000
00000203
00000000
,
00002300
00000000
00023000
00000000
,
00031000
00010000
00100000
01000000
,
00100000
00010000
00001000
00000100
,
00000002
00000000
00000000
00000000
,
00000000
00000000
00000000
00000000
,
00000000
00000000
00000000
00000000
,
00000003
00000000
00000000
00000000
,
00000001
00001000
00000010
00010000
,
00001000
01000000
00010000
10000000
,
01000000
00100000
00001000
00010000
,
00000010
00000000
00000100
00000000
00000001
00001000
00000001
00000000
,
00001000
00001000
00000100
00000100
,
00010000
00010000
00002000
00003000
,
00101000
00101000
01100000
01100000
,
20020000
00000000
00000000
30030000
00000000
10000000
00100000
10000000
,
00200000
00000000
00320000
00000000
,
00032000
00000000
00003100
00000020
,
00020030
00000000
00032000
00000000
,
01003000
00010000
10000000
10010000
,
10000000
01000000
00010000
00001000
,
00010000
00100000
10000000
01000000
,
00010000
00001000
00100000
01000000
,
00010000
00000000
00001000
00000000
00000010
00000100
00000010
00000000
,
00000001
00000100
00001000
00010000
,
00001000
00000010
00000001
00000100
,
00001000
00020000
00130000
02000000
,
03010000
00100000
01000000
10000000
,
00010000
00100000
00001000
01000000
,
00010000
00100000
00001000
00010000
,
00000100
00001000
00000010
00010000
,
00001000
01000000
00100000
10000000
,
01000000
00100000
00010000
01000000
,
00001000
00010000
00000100
00000010
,
00000001
00000200
00000310
00001000
,
00000100
00010000
00001000
00011000
,
00020000
02030000
23000000
30200000
,
00320000
00032000
00003200
00000302
,
00000023
00002030
00023000
02030000
,
03200000
00302000
00023000
00230000
,
20300000
32000000
03020000
00032000
,
00003020
00000032
00000203
00002300
,
00023000
00230000
02300000
03200000
,
10300000
01000000
00010000
00001000
,
00020000
00000000
00000000
00000000
00000000
00000000
00000000
00000000
00030000
00000000
00001000
00000000
00000000
00001000
00000000
00000000
,
00001000
00000000
00000000
00000000
,
00000000
00000000
00000000
00000000
;
#NOTES:
     dance-double:
     :
     Medium:
     13:
     :
00000000
00000000
00000000
00000000
,
00000000
00000000
00000000
00000000
,
00011000
00010000
01000000
10000000
,
00010000
10000000
01000000
00010000
,
00011000
00001000
00000100
00000001
,
00001000
00000010
00000100
00000001
00002000
00000000
00003000
00000000
,
00001010
00001010
00010010
00010010
,
00011000
00000000
00011000
00000000
01001000
00000000
20020000
30030000
,
10000000
00010000
10000000
00000000
10000000
00000000
00000000
00000000
00100000
10000000
00100000
00000000
00100000
00000000
00000000
00000000
,
10000000
00100000
00010000
00011000
,
00001000
00000000
00010000
00000000
00000010
00000000
00001000
00000001
00000000
00000100
00000000
00000010
00000000
00001000
00000001
00000000
,
00001000
00000000
00000010
00000000
00010000
00000000
00001000
01000000
00000000
00010000
00000000
10000000
00000000
00100000
01000000
00000000
,
00010000
00000000
10000000
00000000
00010000
00000000
00100000
00001000
00000000
00010000
00000000
00000100
00002000
00000000
00003000
00000000
,
00001001
00010010
00101000
10010000
,
21000000
00000000
00000000
00000000
30020000
02030000
03200000
00320000
,
00032000
00000000
00000000
00000000
00003200
00000302
00000023
00002030
,
00023000
01000000
00032000
00003100
,
00000101
00000011
00001010
00011000
,
00020000
00000000
00000000
00031000
00200000
00000000
00000000
00310000
,
20000000
00000000
00000000
31000000
00010000
01000000
10000000
00000000
,
00010000
10000000
00000000
00010000
00000000
00100000
00000000
00001000
00000000
00010000
00000000
00000010
00000000
00001000
00000001
00000000
,
00001000
00000001
00000000
00001000
00000000
00000010
00000000
00010000
00000000
00001000
00000000
00100000
00000000
00010000
10000000
00000000
,
00020000
00000000
00000000
01030000
00002000
00000000
00000000
00013000
,
00000020
00000000
00000000
00000130
00001000
00000100
00000001
00000000
,
00001000
00000001
00000000
00001000
00000000
00000010
00000000
00010000
00000000
00001000
00000000
00100000
00000000
00010000
10000000
00000000
,
00010000
01000000
00000000
00001000
00000000
00010000
00000000
00000100
00000000
00001000
00000000
00000001
00000100
00000000
00000000
00000000
,
00000101
00000000
00000101
00000000
00001001
00000000
00000001
00001000
,
00000000
00001000
00000100
00000000
00000100
00000000
00010000
00001000
,
00000000
00001000
00010000
00000000
00001000
00000000
00100000
00010000
,
00000000
00000000
00010000
00000000
00100000
00000000
00000000
00000000
00010000
00000000
00000000
00100000
00000000
00000000
01000000
00000000
,
10000000
00000000
00000000
00000000
10000000
00000000
00000000
00000000
00010000
00000000
00000000
00010000
00000000
00000000
00010000
00000000
,
00100000
00100000
00100000
00000000
00001000
00000000
00001000
00001000
,
00001000
00000000
00010000
00001000
00010000
00000000
00000100
00000000
00001000
00000000
00000000
00001000
00000000
00000000
00001000
00000000
,
00000002
00000000
00000000
00000000
00000003
00000000
00001000
00000100
00001000
00000000
00000001
00000100
00000001
00000000
00000000
00000000
,
00002002
00000000
00000000
00000000
,
00000000
00000000
00000000
00000000
,
00000000
00000000
00000000
00000000
,
00003003
00000000
00000000
00000000
00000001
00000001
00001000
00001000
,
00000001
00000000
00001000
00000010
00000000
00010000
00001000
00010000
00002000
00000000
00000000
00103000
00000000
00000000
00020000
00000000
,
00000000
10030000
00000000
00000000
02000000
00000000
00000000
13000000
00000000
00000000
00200000
00000000
10300000
00000000
00010000
00000000
,
01000000
00000000
00001000
00010000
00000000
00000010
00001000
00000000
00000002
00000000
00000000
00000103
00000000
00000000
00000020
00000000
,
00000000
00001030
00000100
00010000
00000000
00001000
00001000
00001000
,
00011000
00011000
01001000
01001000
,
10010000
00000000
00000000
10010000
00000000
00000000
10000000
00010000
10000000
00010000
00000000
00100000
,
00001000
00011000
00010010
00010010
,
00001001
00000000
00000000
00000000
00000000
00000000
00000001
00000000
00001000
00000000
00000001
00000000
00001000
00000000
00000000
00000010
00000000
00000000
00010000
00000000
00000000
00001000
00000000
00000000
,
01000000
00000000
00000000
00010000
00000000
00000000
10000000
00000000
00000000
00100000
00000000
00000000
01000000
00000000
00010000
00000000
,
10000000
00000000
00000000
00010000
00000000
00000000
00100000
00000000
00000000
00001000
00000000
00000000
00010000
00001000
00010000
00000000
,
00001000
00000000
00000000
00010000
00000000
00000000
00000010
00000000
00010000
00000000
00000000
00001000
00000000
00000000
00100000
00000000
,
00010000
00000000
00000000
10000000
00000000
00000000
00100000
00000000
01000000
00000000
01000000
00000000
01000000
00000000
00000000
00000000
,
00010000
00000000
00000000
10000000
00000000
00000000
00010000
00000000
00000000
00100000
00000000
00000000
00001000
00000000
00010000
00000000
,
00000100
00000000
00000000
00001000
00000000
00000000
00000001
00000000
00000000
00000010
00000000
00000000
00000001
00000000
00001000
00000000
,
00000010
00000000
00000000
00001000
00000000
00000000
00000010
00001000
00000010
00000000
00000000
00010000
00000000
00000000
00001000
00010000
,
00001000
00000000
00000000
01000000
00000000
00000000
00010000
01000000
00010000
00000000
00010000
00000000
00010000
00000000
00000000
00000000
,
10000000
00000000
00000000
00010000
00000000
00000000
10000000
00000000
00000000
00100000
00000000
00000000
01000000
00000000
00001000
00000000
,
00010000
00000000
00000000
00001000
00000000
00000000
00010000
00000000
00000000
00000010
00000000
00000000
00001000
00000000
00000001
00000000
,
00001000
00000000
00000000
00000000
00000001
00001000
00000001
00000000
00000010
00000000
00000000
00000000
00000100
00000010
00000100
00000000
,
00001000
00000000
00000000
00000100
00000000
00000000
00010000
00000000
00001000
00000000
00000000
00000000
00011000
00000000
00000000
00000000
,
00010000
00000000
00000000
00000000
00001000
00000000
00000000
00000000
00000100
00000000
00000000
00000001
00000000
00000000
00000010
00000000
,
00001000
00000000
00000000
00000000
00010000
00000000
00000000
00000000
01000000
00000000
00000000
10000000
00000000
00000000
00100000
00000000
,
00010000
00000000
00000000
00000000
00001000
00000000
00000000
00000000
00000100
00000000
00000000
00000001
00000000
00000000
00000010
00000000
,
00000100
00001000
00000010
00010000
00001000
01000000
00100000
00010000
,
00001000
00000000
00000000
00000000
00010000
00000000
00000000
00000000
01000000
00000000
00000000
00100000
00000000
00000000
00001000
00000000
,
00010000
00000000
00000000
00000000
00001000
00000000
00000000
00000000
00000100
00000000
00000000
00000010
00000000
00000000
00010000
00000000
,
00001000
00000000
00000000
00000000
00010000
00001000
00010000
00000000
00001000
00000000
00000000
00100000
00000000
00000000
01000000
00000000
,
20000000
00000000
30010000
10100000
,
00100000
10000000
00000000
00010000
00000000
01000000
00000000
00001000
00000000
00010000
00000000
00000010
00000000
00001000
00000001
00000000
,
00000100
00000001
00000000
00001000
00000000
00000100
00000000
00010000
00000000
00001000
00000000
00100000
00000000
00010000
10000000
00000000
,
01000000
10000000
00000000
00010000
00000000
01000000
00000000
00001000
00000000
00010000
00000000
00000010
00000000
00001000
00000001
00000000
,
00000010
00000001
00000000
00001000
00000000
00000010
00000000
00010000
00000000
00001000
00000000
01000000
00000000
00010000
10000000
00000000
,
00010000
00100000
00000000
01000000
00000000
10000000
00000000
00100000
00000000
01000000
00000000
00001000
00000000
00010000
00000010
00000000
,
00001000
00000010
00000000
00000100
00000000
00000001
00000000
00000010
00000000
00000100
00000000
00010000
00000000
00001000
00100000
00000000
,
01000000
10000000
00000000
00100000
00000000
01000000
00000000
00001000
00000000
00010000
00000000
00000100
00000000
00000010
00000001
00000000
,
00001000
00000010
00010000
00011000
,
00000000
00000000
00001000
01000000
00001000
00000000
00010000
00000100
00010000
00000000
00001000
00000000
00000000
00010000
00000000
00000000
,
00011000
00000000
00000000
00000000
,
00000000
00000000
00000000
00000000
;
#NOTES:
     dance-double:
     :
     Hard:
     16:
     :
00000000
00000000
00000000
00000000
,
00000000
00000000
00000000
00000000
,
00021000
01000000
00001000
00100000
,
00032000
00000100
00010000
00003010
,
00021000
01000000
00001000
00130000
,
01100000
00000000
01000000
00000000
00100000
01000000
00100000
01000000
00100000
00000000
01100000
00000000
01100000
00000000
01100000
00000000
,
10010000
10010000
01001000
01001000
,
00011000
00011000
00010010
00001001
,
00000001
00001000
00000001
00001000
00000001
00000010
00000000
00000000
00000100
00000010
00000100
00000010
00000100
00001000
00000000
00000000
,
00001001
00001010
00000011
00001100
,
00000001
00000000
00000010
00000000
00000100
00000000
00001000
00000100
00000000
00010000
00000000
00010000
00001000
00100000
00010000
00000000
,
10000000
00000000
00100000
01000000
00100000
01000000
00010000
01000000
00000000
00010000
00000000
00010000
10000000
00010000
10000000
00100000
,
10000000
00000000
00100000
00000000
10000000
00000000
00010000
01000000
00000000
00001000
00000000
00001000
00020000
00000000
00000000
00030000
,
00011000
00001100
00000110
00001001
,
00001000
00000001
00001000
00000001
00001000
00000001
00001000
00000001
00002000
00000000
00003200
00000000
00000320
00000000
00002030
00000000
,
00013000
00001000
00010000
00001000
00010000
00001000
00010000
00001000
00020000
00000000
02030000
00000000
03200000
00000000
00310000
00000000
,
10000000
00010000
10000000
00010000
10000000
00010000
10000000
00010000
01000000
00001000
01000000
00001000
01000000
00001000
01000000
00001000
,
00100000
00000000
00001000
00001000
00011000
00000000
01001000
00000000
,
20010000
00000000
00000000
00000000
00000000
00000000
30100000
01000000
00020000
00000000
00000000
00000000
00000000
00000000
00130000
00001000
,
00020000
00000000
00000000
00000000
00000000
00000000
00030010
00001000
00000100
00000000
00000010
00000001
00000100
00000000
00000110
00000000
,
00000100
00000010
00000000
00000010
00000000
00001000
00000000
00001000
00000000
00000100
00000000
00000100
00010000
00000100
00010000
00000100
,
00010000
00001000
00000000
00001000
00000000
00100000
00000000
00100000
00000000
00010000
00000000
00010000
10000000
01000000
10000000
01000000
,
00200000
00000000
00000000
00000000
00000000
00000000
00301000
00010000
00000020
00000000
00000000
00000000
00000000
00000000
00001030
00000001
,
00000020
00000000
00000000
00000000
00000000
00000000
00000031
00001000
00000100
00000000
00000020
00000000
00002030
00000000
00013000
00000000
,
00001000
00010000
00000000
00010000
00000000
00100000
00000000
00100000
00000000
01000000
00000000
01000000
00100000
01000000
00100000
01000000
,
00100000
00010000
00000000
00010000
00000000
00001000
00000000
00001000
00000000
00000100
00000000
00000100
00000001
00000000
00000000
00000000
,
00000101
00000000
00000101
00000000
00001010
00000000
00001000
00001001
,
00000000
00000001
00000011
00000000
00000110
00000000
00000100
00010100
,
00000000
00010000
00011000
00000000
01001000
00000000
01000000
01100000
,
00000000
00000000
00100000
00000000
10010000
00000000
00000000
00000000
11000000
00000000
00000000
01010000
00000000
00000000
10010000
00000000
,
10010000
00000000
00000000
00000000
10010000
00000000
00000000
00000000
00101000
00000000
00000000
00101000
00000000
00000000
00101000
00000000
,
00011000
00011000
00011000
00000000
00010010
00000000
00001001
00001001
,
00001001
00000000
00000001
00000100
00000010
00000000
00000010
00000000
00000110
00000000
00000000
00001010
00000000
00000000
00000101
00000000
,
00002002
00000000
00000000
00000000
00003003
00000000
00000001
00000010
00000100
00000000
00001000
00000010
00000100
00000000
00000001
00000000
,
00002002
00000000
00000000
00000000
,
00000000
00000000
00000000
00000000
,
00000000
00000000
00000000
00000000
,
00003003
00000000
00000000
00000000
00000001
00001100
00000011
00001001
,
00002000
00000000
00003100
00000020
00000000
00000031
00000010
00000100
00002000
00000000
00000000
00003010
00000000
00000000
00020000
00000000
,
00000000
00000000
00000000
00031000
00000000
00000000
00000000
00000000
00000000
00000000
00000000
00000000
02000000
00000000
00000000
00000000
00000000
00000000
00000000
00000000
00000000
03100000
00000000
00000000
00000000
00000000
00000000
00000000
00000000
00000000
00200000
00000000
00000000
00000000
00000000
00000000
10300000
00000000
00010000
00000000
10000000
00000000
00020000
00000000
00000000
00000000
00000000
00000000
,
00230000
00000000
01300000
00010000
00000000
00001000
00010000
00000100
00002000
00000000
00000000
00003100
00000000
00000000
00000020
00000000
,
00000000
00001030
00010000
00001000
00000000
00011000
00011000
00011000
,
00001000
00000000
00000000
00010000
00000000
00000000
00001000
00000000
00000000
00000010
00000000
00000000
00000100
00000000
00001000
00000000
,
00000001
00000000
00000000
00000000
00000000
00000000
00000000
00000000
00000000
00000100
00000000
00000000
00000000
00000000
00000000
00000000
00000000
00000000
00000010
00000000
00000000
00000000
00000000
00000000
00000100
00000000
00000000
00000000
00000010
00000000
00000000
00000000
00000100
00000000
00000000
00000000
00000010
00000000
00000000
00000000
00000000
00000000
00000000
00000000
00001000
00000000
00000000
00000000
,
00000001
00000000
00000000
00000000
00001000
00000000
00000010
00001000
00000010
00000000
00000000
00010000
00000000
00000000
00001000
01000000
,
00200000
00000000
00000000
00000000
00000000
00000000
01300000
00000000
00100000
00000000
01000000
00000000
00100000
00000000
00000000
01100000
00000000
00000000
01100000
00000000
00000000
01100000
00000000
00000000
,
10000000
00000000
10000000
00010000
00000000
00010000
01000000
00000000
01000000
00001000
00000000
00001000
00010000
00000000
00000010
00000000
,
00001000
00000000
00001000
00000010
00000000
00000010
00000100
00000000
00000100
00000002
00000000
00000003
00000100
00000100
00000100
00000100
,
00000200
00000000
00000000
00000000
00000000
00000000
00000300
00000000
00000001
00001000
00000100
00010000
00001000
01000000
00010000
10000000
,
00020000
00000000
00000000
00000000
10030000
10000000
10010000
00000000
,
10000000
00000000
10000000
00010000
00000000
00010000
01000000
00000000
01000000
00001000
00000000
00001000
00010000
00000000
00000010
00000000
,
00001000
00000000
00001000
00000001
00000000
00000001
00000100
00000000
00000100
00000010
00000000
00000010
00010000
00000000
00001000
00000000
,
00011000
00000000
00000000
01010000
00000000
00000000
00010000
01000000
00100000
00000000
00000000
10010000
00000000
00000000
10000000
01000000
,
00100000
00000000
00000000
00011000
00000000
00000000
00001000
00000100
00000010
00000000
00000010
00000000
00000110
00000000
00001001
00000000
,
00000001
00000000
00000001
00001000
00000000
00001000
00000100
00000000
00000100
00010000
00000000
00010000
00001000
00000000
00100000
00000000
,
00010000
00000000
00010000
10000000
00000000
10000000
01000000
00000000
01000000
00100000
00000000
00100000
00010000
00000000
00100000
00000000
,
01100000
00000000
00000000
00000000
01000000
01000000
01000000
01000000
01000000
00000000
00000000
10000000
00100000
01000000
00010000
00100000
,
00001000
00000000
00000000
00010000
00000000
00000000
00000100
00000000
00001000
00000000
00000000
00000000
00001001
00000000
00000000
00000000
,
00000101
00000000
00000000
00000000
00001100
00000000
00000000
00000000
00011000
00000000
00000000
00110000
00000000
00000000
10100000
00000000
,
10010000
00000000
00000000
00000000
01010000
00000000
00000000
00000000
00011000
00000000
00000000
00001010
00000000
00000010
00001000
00000001
,
00000100
00000000
00000000
00000000
00000110
00000000
00000000
00000000
00001100
00000000
00000000
00011000
00000000
00000000
01010000
00000000
,
01100000
00000000
00000000
10010000
00000000
00000000
01100000
00000000
00000000
10010000
00000000
00000000
01100000
00000000
00000000
00100000
01000000
00100000
01000000
00000000
00000000
00100000
00000000
00000000
,
10010000
00000000
00000000
00000000
01001000
00000000
00000000
00000000
00011000
00000000
00000000
00010010
00000000
00000000
00001001
00000000
,
00000101
00000000
00000000
00000000
00001100
00000000
00000000
00000000
00011000
00000000
00000000
00110000
00000000
00100000
00010000
10000000
,
01000000
00000000
00000000
01000000
01000000
01000000
01000000
01000000
01000000
00000000
00000000
00100000
00000000
00000000
01000000
00000000
,
02200000
00000000
03300000
10010000
,
10000000
00010000
00000000
00010000
00100000
00001000
00000000
00001000
00010000
00000100
00000000
00000100
00000000
00001000
00000001
00001000
,
00000001
00001000
00000000
00001000
00000010
00010000
00000000
00010000
00001000
01000000
00000000
01000000
00000000
00010000
10000000
00010000
,
10000000
00010000
00000000
00010000
00100000
00001000
00000000
00001000
00010000
00000100
00000000
00000100
00000000
00001000
00000001
00001000
,
00000010
00010000
00001000
01000000
00000000
01000000
00000000
01000000
00000000
01000000
00000000
01000000
00100000
01000000
00100000
01000000
,
00010000
10000000
00000000
10000000
01000000
00100000
00000000
00100000
00001000
00010000
00000000
00010000
00000000
00001000
00010000
00000010
,
00001000
00000001
00000000
00000001
00000100
00000010
00000000
00000010
00001000
00000001
00000000
00000001
00000000
00001000
00000001
00001000
,
00000001
00000010
00000000
00000010
00000100
00000001
00000000
00000001
00001000
00000010
00000000
00000010
00000000
00000010
00000100
00000010
,
00000001
00001001
00001100
00010100
,
00000000
00000000
00000100
00010000
00000100
00010000
00001000
01000000
00001000
00000000
01001000
00000000
00000000
10010000
00000000
00000000
,
01100000
00000000
00000000
00000000
,
00000000
00000000
00000000
00000000
;
