
//----- song ID: hori -----//
#TITLE:HORIZON BEATZ;
#ARTIST:SOUND HOLIC feat. Nana Takahashi;
#BANNER:HORIZON BEATZ.png;
#BACKGROUND:HORIZON BEATZ-bg.png;
#CDTITLE:./CDTitles/bm IIDX 33 Sparkle Shower.png;
#MUSIC:HORIZON BEATZ.ogg;
#SAMPLESTART:58.426;
#SAMPLELENGTH:15;
#BPMS:0=152;
#BGSTAGE:16;
#NOTES:
     dance-single:
     :
     Beginner:
     3:
     :
0000
0000
0000
0000
,
0000
0000
0000
0000
,
0000
0000
0000
0000
,
0000
0000
0000
0000
,
0000
0000
0000
0000
,
0001
0000
0000
0000
,
0001
0000
0000
0000
,
0001
0000
0000
0000
,
0000
0000
0000
0000
,
0010
0000
0000
0000
,
0010
0000
0000
0000
,
0010
0000
0000
0000
,
0000
0000
0000
0000
,
1000
0000
0000
0000
,
1000
0000
0000
0000
,
1000
0000
0000
0000
,
0000
0000
0000
0000
,
1000
0000
0000
0000
,
0010
0000
0000
0000
,
1000
0000
0000
0000
,
0000
0000
0000
0000
,
1000
0000
0000
0000
,
1000
0000
0000
0000
,
0010
0000
0000
0000
,
0000
0000
0000
0000
,
0010
0000
0000
0000
,
0010
0000
0000
0000
,
0001
0000
0000
0000
,
0000
0000
0000
0000
,
0002
0000
0000
0000
,
0003
0000
0000
0000
,
0001
0000
0000
0000
,
0010
0000
0000
0000
,
0020
0000
0000
0000
,
0030
0000
0000
0000
,
0010
0000
0000
0000
,
1000
0000
0000
0000
,
2000
0000
0000
0000
,
3000
0000
0000
0000
,
1000
0000
1000
0000
,
0010
0000
0000
0000
,
0020
0000
0000
0000
,
0030
0000
0000
0000
,
0010
0000
0010
0000
,
0001
0000
0000
0000
,
0002
0000
0000
0000
,
0003
0000
0000
0000
,
0001
0000
0100
0000
,
0010
0000
0000
0000
,
2000
0000
0000
0000
,
3000
0000
0000
0000
,
1000
0000
0100
0000
,
0010
0000
0000
0000
,
1001
0000
0000
0000
,
0000
0000
0000
0000
,
1001
0000
0000
0000
,
0000
0000
0000
0000
,
0001
0000
0000
0000
,
0010
0000
0000
0000
,
1000
0000
0000
0000
,
0000
0000
0000
0000
,
1000
0000
0000
0000
,
0010
0000
0000
0000
,
0000
0000
0000
0000
,
1001
0000
0000
0000
,
0000
0000
0000
0000
,
1000
0000
0010
0000
,
1000
0000
0000
0000
,
0010
0000
0000
0000
,
0010
0000
0000
0000
,
0001
0000
0010
0000
,
0001
0000
0000
0000
,
0001
0000
0000
0000
,
0100
0000
0000
0000
,
0010
0000
0000
0000
,
2000
0000
0000
0000
,
3000
0000
0000
0000
,
1000
0000
0010
0010
,
0000
0000
0000
0000
;
#NOTES:
     dance-single:
     :
     Easy:
     6:
     :
0000
0000
0000
0000
,
0000
0000
0000
0000
,
0000
0000
0000
0000
,
0000
0000
0000
0000
,
0000
0000
0000
0000
,
1000
0001
1000
0000
,
0010
0100
0010
0000
,
1000
0001
1000
0000
,
0100
0010
0100
0000
,
1000
0001
1000
0001
,
0010
0001
0010
0000
,
0001
1000
0001
1000
,
0010
1000
0010
0000
,
1000
0010
1000
0010
,
1000
0100
1000
0000
,
0001
0100
0001
0100
,
0001
0010
0001
0000
,
1000
0100
0010
0100
,
1000
0100
0010
0000
,
0001
0100
0010
0100
,
0001
0000
0000
0000
,
1000
1000
0001
0001
,
1000
0100
0010
0000
,
0001
0001
1000
1000
,
0001
0100
0010
0000
,
1000
0001
0010
0001
,
1000
0001
0010
0000
,
0001
1000
0010
1000
,
0001
1000
0010
0000
,
2000
0000
0000
0000
,
3000
0000
0000
0000
,
0002
0000
0000
0000
,
0003
0000
0000
0000
,
0020
0000
0000
0000
,
0030
0000
0000
0000
,
0200
0000
0000
0000
,
0300
0000
0000
0000
,
1000
0100
1000
0100
,
0010
0001
0010
0000
,
0001
0100
0001
0100
,
0010
1000
0010
0000
,
1000
0010
1000
0010
,
1000
0001
0100
0000
,
0001
0010
0001
0010
,
0001
1000
0100
0000
,
1000
0100
0010
0001
,
1000
0100
0010
0000
,
0001
0010
0100
1000
,
0001
0010
0100
0000
,
1000
0010
0100
0001
,
1000
0010
0100
0000
,
0001
0100
0010
1000
,
0001
0100
0010
0000
,
2000
0000
0000
3000
,
0002
0000
0000
0003
,
0020
0000
0000
0000
,
0000
0000
0030
0000
,
0001
0100
0001
1000
,
0100
1000
0001
0000
,
1000
0010
1000
0001
,
0010
0001
1000
0000
,
0001
0010
0100
1000
,
0010
0100
0001
0000
,
1001
0000
0000
0000
,
0110
0000
1001
0000
,
0110
0000
1001
0000
,
1000
0100
1000
0010
,
0100
0001
1000
0000
,
0001
0010
0100
0010
,
0001
1000
0010
0100
,
0001
0010
0001
0100
,
0010
1000
0001
0000
,
1000
1000
0001
0001
,
0100
0010
0100
0110
,
0000
0000
0000
0000
,
0001
0010
0100
1000
,
0010
0100
0001
1000
,
0100
0100
0010
0010
,
0000
0000
0000
0000
;
#NOTES:
     dance-single:
     :
     Medium:
     12:
     :
0000
0000
0000
0000
,
0000
0000
0000
0000
,
0000
0000
0000
0000
,
0000
0000
0000
0000
,
0000
0000
0000
0000
,
0001
0000
0000
0100
0000
0000
0010
0000
0000
0000
1000
0000
0001
0000
0000
0000
,
1000
0000
0000
0100
0000
0000
0010
0000
0000
0000
0001
0000
1000
0000
0000
0000
,
0001
0000
0000
0010
0000
0000
0100
0000
0000
0000
1000
0000
0001
0000
0000
0000
,
1000
0000
0000
0010
0000
0000
0100
0000
0000
0000
0001
0000
1000
0000
0000
0000
,
0001
0000
0000
0100
0000
0000
0001
0000
0100
0000
0000
0010
0000
0000
0100
0000
,
0010
0000
0000
1000
0000
0000
0010
0000
1000
0000
0000
0001
0000
0000
1000
0000
,
0100
0010
0100
0010
0001
1000
0001
1000
,
0002
0000
2000
3003
,
1000
0100
1000
0100
0010
0001
1000
0001
,
0100
0010
0100
0010
1000
0001
1000
0000
,
0001
0010
0001
0010
0100
1000
0001
1000
,
0010
0100
0010
0100
0001
1000
0001
0000
,
1000
0100
0010
0100
0001
0100
1000
0001
,
0100
0010
1000
0100
0010
0001
1000
0000
,
0001
0100
0010
0100
1000
0100
0001
1000
,
0020
0000
0000
0030
,
1000
0010
1000
0010
1000
0100
1000
0100
,
1000
0010
0100
0001
0010
0100
1000
0000
,
0001
0010
0001
0010
0001
0100
0001
0100
,
0001
0010
0100
1000
0010
0100
0001
0000
,
1000
0010
0001
0010
1000
0010
0001
0000
,
0010
0100
0010
0100
0001
1000
0001
0000
,
1000
0100
0001
0100
1000
0100
0001
0000
,
0100
0010
0100
0010
0001
1000
0001
0000
,
2000
0000
0000
3000
,
0020
0000
0000
0030
,
0200
0000
0000
0300
,
0002
0000
0000
0003
,
0001
0001
1000
1000
,
0001
0001
1000
1000
,
0001
0100
0001
0000
1000
0010
1000
0000
,
0001
0010
0100
1000
0100
0010
0001
0000
,
1000
0000
0000
0100
0000
0000
1100
0000
0000
0001
0000
0000
0100
0000
0001
0000
,
0010
0100
1000
0100
0010
0001
1000
0000
,
0001
0100
0010
0100
1000
0100
0010
0100
,
0001
1000
0100
0010
0000
0001
1000
0000
,
0001
0000
0000
0100
0000
0000
0101
0000
0000
1000
0000
0000
0100
0000
1000
0000
,
0010
0100
0001
0100
0010
1000
0001
0000
,
1000
0100
0010
0100
0001
0100
0010
0100
,
1000
0001
0100
0010
0000
1000
0001
0000
,
1000
0100
0010
1000
0010
0100
1000
0001
,
0100
0010
0001
0010
1000
0010
0100
0000
,
0001
0100
1000
0001
0010
1000
0001
0100
,
0010
1000
0100
0010
0000
0001
1000
0000
,
0001
0100
0010
0001
0010
0100
0001
1000
,
0100
0010
1000
0010
0001
0010
0100
0000
,
1000
0100
0001
1000
0010
0001
1000
0100
,
0010
0001
0100
0010
0000
1000
0001
0000
,
2000
0000
3100
0100
,
0020
0000
0031
1000
,
0002
0000
0103
0100
,
0020
0000
1030
0001
,
1000
0000
0001
0000
0010
0100
0010
0000
,
0001
0000
1000
0000
0010
0100
0010
0000
,
1000
1010
0001
0011
,
1000
1100
0001
0101
,
1000
0001
1000
0001
0100
0010
0100
0010
,
1000
0001
0100
0010
1000
0001
0100
0010
,
1000
0000
0000
0000
,
1100
0000
0000
0011
0000
0000
0000
0000
,
0101
0000
0000
1010
0000
0000
1001
0000
,
0001
0100
0010
0100
1000
0100
0010
0100
,
0001
1000
0100
0001
0100
1000
0001
0000
,
1000
0100
0010
0001
0100
0010
1000
0100
,
0010
0001
0100
0001
0010
0100
1000
0001
,
1000
0100
0010
0100
0001
0100
0010
0100
,
1000
0001
0010
1000
0010
0001
1000
0000
,
0001
0100
0001
0100
1000
0100
1000
0001
,
0010
0001
0010
1000
0010
1000
0020
0000
,
0000
0100
0100
0130
,
0110
0000
1001
0000
1000
0100
0010
0000
,
0011
0000
1100
0000
1000
0001
0100
0000
,
0001
0100
0010
0100
1000
0100
0001
1000
,
0000
0000
0000
0000
;
#NOTES:
     dance-single:
     :
     Hard:
     16:
     :
0000
0000
0000
0000
,
0000
0000
0000
0000
,
0000
0000
0000
0000
,
0000
0000
0000
0000
,
0000
0000
0000
0000
,
0001
0000
0100
0010
0100
0000
0001
0000
0010
0100
0010
0000
0001
0000
0000
0000
,
1000
0000
0100
0010
0100
0000
1000
0000
0010
0100
0010
0000
1000
0000
0000
0000
,
0001
0000
0100
0010
1000
0000
0001
0000
1000
0010
0100
0000
0001
0000
0000
0000
,
1000
0000
0100
0010
0001
0000
1000
0000
0001
0010
0100
0000
1000
0000
0000
0000
,
0001
0000
0010
0001
0010
0000
0001
0000
1000
0000
0010
1000
0010
0000
1000
0000
,
0001
0000
0100
0001
0100
0000
0001
0000
1000
0000
0100
1000
0100
0000
1000
0000
,
0001
0100
0010
0100
0001
1000
0010
0100
0001
0100
0010
1000
0001
0010
0100
1000
,
0100
0010
0100
0010
0001
1000
0001
1000
0010
0100
0001
1000
0100
0010
0001
1000
,
0001
0000
1000
0010
1000
0000
0001
0000
1000
0100
1000
0000
0001
0100
0001
0000
,
1000
0000
0001
0010
0001
0000
1000
0000
0001
0100
0001
0000
1000
0100
1000
0000
,
0001
0000
1000
0100
1000
0000
0001
0000
1000
0010
1000
0000
0001
0010
0001
0000
,
1000
0000
0001
0100
0001
0000
1000
0000
0001
0010
0001
0000
1000
0010
1000
0000
,
0001
0000
0100
0010
1000
0000
0100
0000
0010
0001
1000
0000
0001
1000
0010
0000
,
0100
0000
0010
1000
0001
0000
0010
0000
0100
1000
0001
0000
0100
0001
1000
0000
,
0001
0000
0010
0100
1000
0000
0010
0000
0100
0000
0001
0000
1000
0001
1000
0001
,
1000
0100
0010
0001
1000
0100
0010
0001
1000
0001
0010
0100
1000
0000
0000
0000
,
0001
0010
0100
0010
0001
0000
1000
0000
0010
0100
0001
1000
0001
0000
0000
0000
,
1000
0100
0010
0100
1000
0000
0001
0000
0100
0010
1000
0001
1000
0000
0000
0000
,
0001
0100
0001
0100
0010
0000
1000
0000
0100
0010
0001
0100
0010
0000
0000
0000
,
1000
0010
1000
0010
0100
0000
0001
0000
0010
0100
1000
0010
0100
0000
0000
0000
,
0001
0100
0001
0100
0010
0000
0001
0000
1000
0100
1000
0100
0010
0000
0000
0000
,
1000
0100
1000
0100
0010
0000
1000
0000
0001
0100
0001
0100
0010
0000
0000
0000
,
0001
0010
0100
1000
0001
0000
0110
0000
1000
0100
0010
0001
1000
0000
0110
0000
,
0001
0100
0010
1000
0100
0010
0001
0000
1000
0010
0100
0001
1000
0010
0100
0001
,
2000
0010
0010
3010
,
0002
0010
0010
0013
,
1000
0000
0010
0100
0000
0001
0010
0100
,
1000
0001
2000
0000
0100
0000
3010
0000
,
1000
0000
1000
0100
1000
0000
0110
0000
,
0001
0100
0001
0000
0110
0000
1001
1000
,
0001
0010
1000
0010
0001
0100
1000
0100
,
0001
0000
0010
0100
0010
0000
0001
0000
0100
0010
1000
0000
1001
0000
0000
0000
,
1000
0000
0100
0010
0001
0000
0100
0000
0010
1000
0001
0000
1000
0010
0100
0000
,
0001
0100
0000
0001
0100
0000
0010
1000
0000
0010
1000
0000
0100
0010
0100
0000
,
0010
0000
0001
1000
0001
0000
0010
0000
0100
1000
0001
0010
0100
0000
0010
0000
,
0001
0100
0010
1000
0010
0000
1000
0100
0000
0100
0010
0000
0001
1000
0001
1000
,
0001
0000
0010
0100
1000
0000
0010
0000
0100
0001
1000
0000
0001
0100
0010
0000
,
1000
0010
0000
1000
0010
0000
0100
0001
0000
0100
0001
0000
0010
0100
0010
0000
,
0100
0000
1000
0001
1000
0000
0100
0000
0010
0001
1000
0100
0010
0000
0100
0000
,
1000
0000
0010
0000
1000
0000
0100
0000
0010
0001
0100
0010
1000
0000
0000
0000
,
0001
0100
0001
0100
0010
0000
1000
0100
1000
0100
0010
0000
0001
1000
0001
0000
,
1000
0010
0000
1000
0010
0000
0100
0001
0000
0100
0001
0000
0010
0001
1000
0001
,
0100
0000
0010
1000
0100
0000
0010
0001
0100
0000
0010
1000
0001
0010
0001
0000
,
1000
0100
1000
0001
0100
0001
1000
0010
1000
0001
0010
0001
0100
0010
1000
0000
,
0001
1000
0100
0010
0001
0000
1000
0001
0100
0010
1000
0000
0001
1000
0001
0000
,
1000
0100
0010
0001
1000
0010
0100
0001
0000
0001
0100
0010
1000
0010
1000
0000
,
0001
0100
0001
0100
0010
0000
0001
0000
1000
0100
1000
0100
0010
0000
1000
0000
,
0100
0010
0100
0000
0010
0100
0010
0000
0001
1000
0001
1000
0001
1000
0001
1000
,
0001
0100
0100
0010
1000
0010
,
1000
0100
0100
0010
0001
0010
,
0002
0000
0000
0000
0000
0000
0000
0000
1003
0000
0000
0000
0000
0000
1000
0010
,
0100
0000
0001
0000
1000
0000
0100
0000
0010
0000
0001
0010
,
0001
0000
0011
0000
0000
1100
0000
0000
1001
0000
1000
0100
0000
0001
0100
0000
,
1000
0001
1000
0000
0010
0100
0000
0100
0010
0000
1000
0001
1000
0000
0001
0000
,
1000
0010
0100
0001
0010
0100
1000
0100
0001
0100
1000
0000
,
0001
0000
1000
0100
1000
0100
0010
0100
0010
0000
0100
0000
1001
0000
0000
0000
,
0001
0000
0010
0000
1000
0010
0000
0001
0010
0000
0000
0100
1000
0100
1000
0000
,
0001
0000
0100
0010
0000
0010
1000
0000
0001
0100
0010
1000
0100
0010
0001
1000
,
0100
0000
0000
0000
,
1100
0000
1000
0100
1000
0000
1010
0000
0010
0100
0010
0000
0110
0000
0100
0000
,
0101
0000
0001
1000
0001
0000
1001
0000
1000
0100
1000
0000
1001
0000
0000
0000
,
0001
0010
0001
0100
0010
1000
0100
0000
1000
0100
0010
0001
0100
0010
1000
0000
,
0001
0100
0010
0100
0001
0010
0100
0010
0001
1000
0100
0010
0001
1000
0010
0000
,
1000
0100
1000
0010
0100
0001
0010
0000
0100
1000
0001
0100
0001
1000
0100
0000
,
0010
0001
1000
0010
1000
0001
0100
0010
0100
0001
0010
0100
1000
0001
0100
0000
,
0010
1000
0010
1000
0100
1000
0100
0000
0010
0001
0010
0001
0100
0001
0100
0000
,
0001
0100
0010
1000
0010
0100
0001
1000
0100
0010
0001
1000
0001
0000
1000
0001
,
1000
0000
0100
0010
0100
0000
1000
0000
0010
0100
0001
0000
0010
0000
0100
0000
,
1000
0000
0100
0010
0000
0100
0010
0000
0001
1000
0010
0100
0001
0000
0000
0000
,
2000
0000
0000
3000
,
0001
0000
0010
0100
0010
0000
0001
0000
0100
0010
0100
0000
0001
0000
0000
0000
,
1000
0000
0100
0010
0100
0000
1000
0000
0010
0100
0010
0000
1000
0000
0000
0000
,
0001
0010
0001
0010
0100
0010
0100
1000
0100
1000
0001
1000
0010
0100
0001
1000
,
0000
0000
0000
0000
;
#NOTES:
     dance-double:
     :
     Easy:
     6:
     :
00000000
00000000
00000000
00000000
,
00000000
00000000
00000000
00000000
,
00000000
00000000
00000000
00000000
,
00000000
00000000
00000000
00000000
,
00000000
00000000
00000000
00000000
,
00001000
00010000
00001000
00000000
,
00001000
00000010
00000001
00000000
,
00001000
00000001
00001000
00000000
,
00001000
00000100
00010000
00000000
,
00001000
00010000
00001000
00010000
,
00001000
01000000
00001000
00000000
,
01000000
00010000
01000000
00010000
,
01000000
00100000
01000000
00000000
,
00100000
10000000
00100000
00000000
,
10000000
01000000
10000000
00000000
,
00010000
00100000
00010000
00000000
,
00100000
00001000
00100000
00000000
,
00001000
00010000
00001000
00000000
,
00010000
00000100
00010000
00000000
,
00000100
00001000
00000100
00000010
,
00000001
00000000
00000000
00000000
,
00000001
00000001
00001000
00001000
,
00000010
00000100
00000010
00000000
,
00000100
00000010
00001000
00000000
,
00000010
00010000
00001000
00000000
,
00010000
00010000
00001000
00001000
,
01000000
00010000
00100000
00000000
,
00010000
00100000
01000000
00000000
,
10000000
00100000
01000000
00000000
,
00020000
00000000
00000000
00000000
,
00030000
00000000
00000000
00000000
,
02000000
00000000
00000000
00000000
,
03000000
00000000
00000000
00000000
,
00002000
00000000
00000000
00000000
,
00003000
00000000
00000000
00000000
,
00020000
00000000
00000000
00000000
,
00030000
00000000
00000000
00000000
,
00001000
00010000
00001000
00010000
,
00000100
00001000
00000100
00000000
,
00000010
00000001
00000010
00000001
,
00001000
00000001
00001000
00000000
,
00000001
00000100
00000001
00000100
,
00001000
00010000
00001000
00000000
,
00010000
00100000
00010000
00100000
,
10000000
00100000
10000000
00000000
,
10000000
01000000
00100000
00010000
,
10000000
01000000
00100000
00000000
,
00010000
00100000
00001000
00010000
,
00001000
00010000
00000100
00000000
,
00001000
00000100
00000010
00000001
,
00001000
00000100
00000010
00000000
,
00000001
00000100
00000010
00001000
,
00000010
00010000
00001000
00000000
,
00020000
00000000
00000000
00030000
,
00002000
00000000
00000000
00003000
,
02000000
00000000
00000000
00000000
,
00000000
00000000
03000000
00000000
,
00010000
00100000
00010000
00000000
,
10000000
01000000
10000000
00000000
,
00010000
01000000
00010000
00000000
,
00100000
00001000
00010000
00000000
,
00001000
00010000
00000010
00001000
,
00000100
00000010
00000001
00000000
,
00001001
00000000
00000000
00000000
,
00001001
00000000
00000110
00000000
,
00001001
00000000
00000000
00000000
,
00000001
00000100
00001000
00000000
,
00010000
00001000
00010000
00000000
,
00010000
00100000
10000000
00000000
,
00010000
10000000
00010000
00000000
,
10000000
01000000
00010000
00001000
,
00000010
00000001
00001000
00000000
,
00000001
00000001
00000010
00000010
,
00001000
00001000
00010000
00011000
,
00000000
00000000
00000000
00000000
,
00001000
00010000
00100000
10000000
,
00010000
00100000
01000000
00010000
,
00001000
00001000
00010000
00010000
,
00000000
00000000
00000000
00000000
;
#NOTES:
     dance-double:
     :
     Medium:
     12:
     :
00000000
00000000
00000000
00000000
,
00000000
00000000
00000000
00000000
,
00000000
00000000
00000000
00000000
,
00000000
00000000
00000000
00000000
,
00000000
00000000
00000000
00000000
,
00001000
00000000
00000000
00010000
00000000
00000000
00001000
00000000
00000000
00000000
00001000
00000000
00010000
00000000
00100000
00000000
,
10000000
00000000
00000000
00010000
00000000
00000000
10000000
00000000
00000000
00000000
10000000
00000000
01000000
00000000
00000000
00000000
,
01000000
00000000
00000000
00100000
00000000
00000000
00010000
00000000
00000000
00000000
00010000
00000000
00100000
00000000
00001000
00000000
,
00010000
00000000
00000000
00001000
00000000
00000000
00000100
00000000
00000000
00000000
00000100
00000000
00000001
00000000
00000000
00000000
,
00001000
00000000
00000000
00000100
00000000
00000000
00000010
00000000
00000001
00000000
00000000
00000100
00000000
00000000
00000010
00000000
,
00010000
00000000
00000000
00001000
00000000
00000000
01000000
00000000
00010000
00000000
00000000
10000000
00000000
00000000
00010000
00000000
,
10000000
01000000
10000000
01000000
00100000
00010000
00100000
00001000
,
00020000
00000000
00002000
00033000
,
00001000
00010000
00001000
00010000
00000100
00001000
00000100
00001000
,
00000010
00001000
00000100
00000010
00000001
00001000
00000001
00000000
,
00000010
00000001
00000010
00000001
00001000
00000100
00001000
00000100
,
00010000
00001000
00010000
00001000
00100000
01000000
00100000
00000000
,
00010000
10000000
00100000
01000000
00010000
00100000
10000000
00100000
,
00010000
01000000
00001000
00010000
00000010
00001000
00000010
00000000
,
00001000
00000001
00000010
00000100
00001000
00000100
00010000
00001000
,
00020000
00000000
00000000
00030000
,
00010000
00001000
00100000
00001000
00010000
00001000
00100000
00001000
,
00010000
00001000
00100000
00000000
01000000
00010000
00001000
00000000
,
00001000
00010000
00000010
00010000
00001000
00010000
00000010
00010000
,
00001000
00010000
00000010
00000000
00000100
00001000
00010000
00000000
,
00001000
00010000
00000010
00001000
00000100
00000010
00000001
00000000
,
00000010
00000100
00000010
00000100
00001000
00000001
00001000
00000000
,
00000100
00001000
00000100
00010000
00001000
00100000
00010000
00000000
,
00100000
00010000
00100000
01000000
10000000
00010000
10000000
00000000
,
00020000
00000000
00000000
00030000
,
00200000
00000000
00000000
00300000
,
00002000
00000000
00000000
00003000
,
00020000
00000000
00000000
00030000
,
00001000
00010000
00001000
00001000
,
00010000
00000010
00001000
00001000
,
00000100
00000010
00000100
00000000
00000010
00000001
00000010
00000000
,
00000001
00001000
00000001
00001000
00000000
00001000
00000001
00000000
,
00001000
00000000
00000000
00000100
00000000
00000000
00010000
00000000
00000000
00001000
00000000
00000000
00011000
00000000
00000000
00000000
,
00001000
00010000
00100000
10000000
00010000
01000000
00100000
00000000
,
10000000
01000000
00010000
00001000
00010000
01000000
10000000
00010000
,
01000000
10000000
01000000
00010000
00000000
00010000
00100000
00000000
,
00010000
00000000
00000000
01000000
00000000
00000000
00001000
00000000
00000000
00010000
00000000
00000000
00011000
00000000
00000000
00000000
,
00010000
00001000
00000010
00000001
00001000
00000100
00000010
00000000
,
00000001
00000100
00001000
00010000
00001000
00000100
00000001
00001000
,
00000100
00000001
00000100
00001000
00000000
00001000
00000010
00000000
,
00001000
00000100
00000010
00000001
00000100
00001000
00000100
00000001
,
00000010
00000100
00001000
00000001
00000100
00001000
00000100
00000001
,
00000010
00000100
00010000
00001000
00100000
00010000
01000000
00100000
,
00010000
00001000
00010000
01000000
00000000
01000000
10000000
00000000
,
00010000
01000000
00100000
10000000
01000000
00010000
01000000
10000000
,
00100000
01000000
00010000
10000000
01000000
00010000
01000000
10000000
,
00100000
01000000
00001000
00010000
00000010
00001000
00000100
00000010
,
00001000
00010000
00001000
00000100
00000000
00000100
00000001
00000000
,
00002000
00000000
00003100
00000100
,
00020000
00000000
00031000
00001000
,
00200000
00000000
00310000
00010000
,
20000000
00000000
30100000
00100000
,
10000000
00000000
01000000
00000000
00100000
01000000
00100000
00000000
,
00010000
00000000
00100000
00000000
00001000
00010000
00001000
00000000
,
00010000
00010100
00000100
00001100
,
00001000
00001010
00000010
00000110
,
00000001
00001000
00000001
00001000
00000010
00010000
00000010
00010000
,
00001000
01000000
00001000
01000000
00010000
10000000
00010000
10000000
,
00010000
00000000
00000000
00000000
,
00110000
00000000
00000000
11000000
00000000
00000000
00000000
00000000
,
10100000
00000000
00000000
01010000
00000000
00000000
01001000
00000000
,
00001000
00010000
00100000
00000000
00010000
00001000
00010000
00000000
,
00001000
00000100
00001000
00010000
00000000
00010000
00001000
00000000
,
00010000
00000010
00001000
00000100
00000010
00000001
00000100
00000010
,
00001000
00000100
00000001
00000100
00001000
00000100
00010000
00001000
,
00100000
00010000
01000000
00010000
00100000
01000000
10000000
00010000
,
01000000
00100000
10000000
00010000
00000000
00010000
10000000
00000000
,
01000000
00100000
01000000
00100000
00001000
00010000
00001000
00010000
,
00000100
00000010
00000100
00000010
00000000
00000010
00000002
00000000
,
00000000
00001000
00001000
00001003
,
00000110
00000000
00001001
00000000
00000001
00000100
00001000
00000000
,
00010000
00100000
10000000
00100000
00000000
10000000
00010000
00000000
,
10000000
01000000
00100000
00010000
00001000
00000100
00000010
00000001
,
00000000
00000000
00000000
00000000
;
#NOTES:
     dance-double:
     :
     Hard:
     16:
     :
00000000
00000000
00000000
00000000
,
00000000
00000000
00000000
00000000
,
00000000
00000000
00000000
00000000
,
00000000
00000000
00000000
00000000
,
00000000
00000000
00000000
00000000
,
00001000
00000000
00010000
00001000
00010000
00000000
00001000
00000000
00010000
00000000
01000000
00000000
10000000
00000000
00000000
00000000
,
00010000
00000000
01000000
00100000
01000000
00000000
10000000
00000000
01000000
00000000
00010000
00000000
10000000
00000000
01000000
00000000
,
00100000
00000000
00010000
00100000
00010000
00000000
00100000
00000000
00001000
00000000
00010000
00000000
00001000
00000000
00000000
00000000
,
00010000
00000000
00001000
00010000
00001000
00000000
00010000
00000000
00001000
00000000
00000100
00000000
00000001
00000000
00000000
00000000
,
00000010
00000000
00000001
00001000
00000001
00000000
00000010
00000000
00000100
00000000
00010000
00000100
00010000
00000000
00001000
00000000
,
00010000
00000000
00001000
00100000
00001000
00000000
00010000
00000000
01000000
00000000
10000000
00000000
00010000
00000000
00000000
00000000
,
10000000
00100000
10000000
00100000
01000000
00010000
01000000
00010000
01000000
00001000
00010000
00001000
00010000
00000100
00001000
00000100
,
00000010
00000001
00000010
00000001
00001000
00000001
00001000
00000001
00000100
00000000
00000010
00000100
00000010
00000000
00001000
00000000
,
00000001
00000000
00000010
00000100
00000010
00000000
00000100
00001000
00000100
00000000
00010000
00000000
00001000
00000000
00100000
00000000
,
00010000
00000000
01000000
00100000
01000000
00000000
00100000
10000000
00100000
00000000
10000000
00000000
00100000
00000000
00010000
00000000
,
00100000
00000000
01000000
00010000
01000000
00000000
00001000
00010000
00001000
00000000
00010000
00000000
00000010
00000000
00001000
00000000
,
00000010
00000000
00000100
00000001
00000100
00000000
00000001
00000010
00000001
00000000
00001000
00000000
00000001
00000000
00000000
00000000
,
00001000
00000000
00000001
00000010
00000100
00000000
00001000
00000010
00000100
00000000
00000001
00000000
00000100
00000000
00001000
00000000
,
00010000
00000000
00100000
01000000
00010000
00000000
00100000
01000000
10000000
00000000
00010000
00000000
01000000
00000000
00100000
00000000
,
00010000
00000000
00100000
10000000
00100000
00000000
01000000
00010000
01000000
00000000
00010000
00000000
00100000
00000000
01000000
00000000
,
10000000
01000000
00100000
00010000
00100000
00001000
00010000
00001000
00010000
00000010
00001000
00000010
00000100
00000000
00000000
00000000
,
00000001
00000100
00000010
00000000
00001000
00000000
00010000
00000000
01000000
00100000
10000000
00000000
01000000
00100000
00010000
00000000
,
10000000
01000000
00100000
00000000
00010000
00000000
00001000
00000000
00000100
00000010
00000001
00000000
00000100
00000010
00001000
00000000
,
00000001
00000100
00000001
00000100
00001000
00000000
00010000
00000000
00100000
01000000
00010000
00000000
00100000
00000000
01000000
00000000
,
10000000
01000000
10000000
01000000
00010000
00000000
00001000
00000000
00000010
00000100
00001000
00000001
00000100
00000000
00000000
00000000
,
00000001
00000100
00000001
00001000
00000010
00000000
00010000
00000000
00001000
00010000
00001000
00100000
00010000
00000000
01000000
00100000
,
10000000
01000000
10000000
00010000
01000000
00000000
00001000
00000000
00010000
00001000
00010000
00000100
00001000
00000000
00000100
00000010
,
00000001
00001000
00000001
00000100
00000010
00000000
00001000
00000010
00010000
00001000
00010000
00001000
01000000
00000000
00010000
01000000
,
00010000
10000000
01000000
00100000
00010000
00000000
10000000
01000000
00100000
00010000
00100000
00001000
00010000
00001000
00010000
00000000
,
00002000
00010000
00000010
00010000
,
00023000
00001000
00100000
00001000
,
00031000
00000000
00010000
00000010
00000000
00000010
00001000
00000100
,
00000000
00000010
00000001
00000000
00000000
00000001
00001000
00000001
,
00001000
00000100
00000010
00001000
00000000
00001000
00010000
01000000
,
00100000
00010000
00000000
00010000
01000000
00100000
00010000
00001000
,
00000100
00001000
00010000
00001000
00000010
00000001
00001000
00000100
,
00010000
00000000
00000000
00000000
00011000
00000000
00000000
00000000
00001000
00010000
00001000
00010000
00001000
00000000
00000000
00000000
,
00010000
00000000
00001000
01000000
00001000
00000000
00100000
00000000
00010000
01000000
00010000
00000000
00100000
00000000
01000000
00000000
,
10000000
00100000
00000000
10000000
00100000
00000000
01000000
00010000
00000000
01000000
00010000
00000000
00100000
01000000
00100000
00000000
,
00010000
00000000
10000000
01000000
00010000
00000000
00001000
00000000
00000010
00000000
00000001
00001000
00000100
00000000
00000010
00000000
,
00000001
00000100
00000010
00001000
00000010
00000000
00001000
00000100
00000000
00000100
00000010
00000000
00001000
00000000
00010000
00000000
,
00001000
00000000
00010000
00000100
00010000
00000000
00000010
00000000
00001000
00000100
00001000
00000000
00000010
00000000
00000100
00000000
,
00000001
00000010
00000000
00000001
00000010
00000000
00000100
00001000
00000000
00000100
00001000
00000000
00000010
00000100
00000010
00000000
,
00001000
00000000
00000001
00000100
00001000
00000000
00010000
00000000
00100000
00000000
10000000
00010000
01000000
00000000
00100000
00000000
,
10000000
01000000
00100000
00010000
00100000
00000000
00010000
01000000
00000000
01000000
00100000
00000000
00010000
00000000
00001000
00000000
,
00010000
00000100
00010000
00000100
00001000
00000000
00000100
00000010
00000100
00000010
00000001
00000000
00001000
00000100
00000010
00000000
,
00000001
00000000
00000100
00000000
00001000
00000000
00010000
00000000
00100000
00000000
10000000
00010000
10000000
00000000
00010000
00000000
,
01000000
00000000
00100000
00010000
00100000
00000000
00010000
00001000
00010000
00000000
00001000
00000100
00001000
00000000
00000100
00000000
,
00000001
00000100
00000001
00001000
00000100
00001000
00000001
00000010
00000001
00001000
00000010
00001000
00000100
00000000
00010000
00000000
,
00001000
01000000
00001000
01000000
00010000
00000000
01000000
00100000
01000000
00100000
10000000
00000000
00010000
01000000
00100000
00000000
,
10000000
00000000
01000000
00000000
00010000
00000000
00001000
00000000
00000010
00000000
00000001
00001000
00000001
00000000
00001000
00000000
,
00000100
00000000
00000010
00001000
00000010
00000000
00001000
00010000
00001000
00000000
00010000
01000000
00010000
00000000
01000000
00000000
,
10000000
01000000
10000000
00010000
01000000
00010000
10000000
00100000
10000000
00010000
00100000
00010000
01000000
00000000
00001000
00000000
,
00010000
00001000
00010000
00001000
00000010
00000001
,
00001000
00000100
00000100
00010000
00001000
00001000
,
00020000
00000000
00000000
00000000
00000000
00000000
00000000
00000000
00031000
00000000
00000000
00000000
00000000
00000000
00001000
00100000
,
00010000
00000000
01000000
00000000
00100000
00000000
10000000
00000000
01000000
00000000
00100000
00010000
,
00100000
00000000
00110000
00000000
00000000
00101000
00000000
00000000
00011000
00000000
00001000
00010000
00000000
00010000
00000010
00000000
,
00000100
00000010
00000100
00000000
00001000
00000100
00000000
00000100
00000001
00000000
00000010
00000100
00001000
00000000
00000001
00000000
,
00001000
00000001
00000100
00001000
00000100
00001000
00010000
00001000
00010000
00100000
10000000
00000000
,
00010000
00000000
10000000
01000000
10000000
01000000
00100000
01000000
00100000
00000000
00010000
00000000
10010000
00000000
00000000
00000000
,
10000000
00000000
01000000
00000000
00010000
00001000
00000000
00001000
00000010
00000000
00000000
00000001
00000010
00000001
00000010
00000000
,
00000001
00000000
00000100
00000010
00000000
00000100
00001000
00000000
00010000
00000000
00001000
01000000
00010000
01000000
00100000
10000000
,
00010000
00000000
00000000
00000000
,
10010000
00000000
10000000
01000000
00100000
00000000
00110000
00000000
00010000
00100000
00001000
00000000
00011000
00000000
00000000
00000000
,
00011000
00000000
00001000
00010000
00000100
00000000
00001100
00000000
00001000
00000100
00000010
00000000
00000110
00000000
00000000
00000000
,
00000001
00001000
00000001
00000000
00001000
00000010
00000100
00000010
00001000
00000000
00000010
00010000
00000010
00010000
00001000
00000000
,
00010000
00001000
00010000
00001000
00100000
00010000
00100000
00010000
00100000
01000000
10000000
00010000
10000000
00000000
00000000
00000000
,
00010000
00000000
10000000
01000000
00100000
00000000
00010000
01000000
00100000
00000000
10000000
00100000
01000000
00010000
01000000
00000000
,
00010000
00100000
00010000
00100000
00001000
00000000
00010000
00001000
00010000
00000100
00001000
00000000
00000100
00000000
00000010
00000000
,
00000001
00000010
00000001
00001000
00000001
00000010
00000001
00000000
00000010
00000100
00001000
00000100
00010000
00000100
00010000
00000000
,
00001000
00010000
00001000
01000000
00010000
01000000
00010000
00100000
01000000
10000000
00010000
00000000
10000000
00000000
00010000
00000000
,
10000000
00000000
01000000
00100000
01000000
00000000
00010000
00000000
00001000
00010000
00001000
00000000
00000010
00000000
00000100
00000000
,
00000010
00000000
00000001
00001000
00000000
00000001
00001000
00000000
00000001
00000000
00000100
00001000
00010000
00000000
00000000
00000000
,
00002000
00000000
00000000
00003000
,
00010000
00000000
00100000
01000000
00100000
00000000
00010000
00000000
00001000
00010000
00001000
00000000
00010000
00000000
00000000
00000000
,
00001000
00000000
00000010
00000100
00000010
00000000
00001000
00000000
00010000
00001000
00010000
00000000
00001000
00000000
00000000
00000000
,
00010000
00001000
00100000
00010000
01000000
00100000
10000000
01000000
00100000
00010000
00100000
00001000
00010000
00000100
00001000
00000100
,
00000000
00000000
00000000
00000000
;
