
//----- song ID: grco -----//
#TITLE:Gravity Collapse;
#ARTIST:X-END;
#BANNER:Gravity Collapse.png;
#BACKGROUND:Gravity Collapse-bg.png;
#CDTITLE:./CDTitles/DDR WORLD.png;
#MUSIC:Gravity Collapse.ogg;
#SAMPLESTART:47.601;
#SAMPLELENGTH:15;
#BPMS:0=150,58=300,60=150,76=75,80=150,100=75,108=150,159=300,160=150,163=300,164=150,218=300,220=150;
#STOPS:58=0.1,58.5=0.1,59=0.1,59.5=0.1,159=0.2,163=0.2,218=0.1,218.5=0.1,219=0.1,219.5=0.1;
#BGSTAGE:29;
#NOTES:
     dance-single:
     :
     Beginner:
     3:
     :
0000
0000
0000
0000
,
0000
0000
0000
0000
,
0000
0000
0000
0000
,
0001
0000
0001
0000
,
0010
0000
0000
0000
,
1000
0000
1000
0000
,
0010
0000
0000
0000
,
1000
0000
0001
0000
,
1000
0000
0000
0000
,
0001
0000
1000
0000
,
0001
0000
0000
0000
,
0010
0000
0000
0000
,
0010
0000
0000
0000
,
0100
0000
0000
0000
,
0100
0000
2000
0000
,
3000
0000
0000
0000
,
1000
0000
0000
0000
,
0100
0000
0000
0000
,
0010
0000
0000
0000
,
0110
0000
0000
0000
,
1000
0000
0000
0000
,
0001
0000
0000
0000
,
0100
0000
0000
0000
,
0010
0000
0010
0000
,
1000
0000
1000
0000
,
0001
0000
0000
0000
,
0010
0000
0000
0000
,
1000
0000
0000
0000
,
1000
0000
1000
0000
,
0010
0000
0000
0000
,
0100
0000
0000
0000
,
0001
0000
0000
0000
,
1000
0000
1000
0000
,
0100
0000
0000
0000
,
0010
0000
0000
0000
,
0001
0000
0000
0000
,
1000
0000
1000
0000
,
0010
0000
0000
0000
,
0100
0000
0000
0000
,
0001
0000
2000
3000
,
0000
0000
2000
3000
,
0000
0000
2000
3000
,
0000
0000
0000
0000
,
0001
0000
0000
0000
,
1000
0000
0000
0000
,
0001
0000
0000
0000
,
1000
0000
0000
0000
,
0010
0000
0000
0000
,
0100
0000
0000
0000
,
0010
0000
0000
0000
,
0100
0000
0000
0000
,
0110
0000
0000
0000
,
0010
0000
0000
0000
,
1000
0000
0000
0000
,
0001
0000
2000
0000
,
3000
0000
0000
0000
,
0001
0000
0000
0000
,
0100
0000
0000
0000
,
0020
0000
0000
0030
,
1000
0000
1000
0000
,
0010
0000
0000
0000
,
0001
0000
0001
0000
,
0010
0000
0000
0000
,
0020
0000
0031
0000
,
2000
0000
3100
0000
,
1000
0000
1000
0000
,
0001
0000
0001
0000
,
2000
0000
0000
0000
,
3000
0000
0000
0000
,
0002
0000
1000
1003
,
0000
0000
0000
0000
;
#NOTES:
     dance-single:
     :
     Easy:
     6:
     :
0000
0000
0000
0000
,
0000
0000
0000
0000
,
0000
0000
0000
0000
,
0001
0001
0001
0000
,
1000
1000
1000
0000
,
0010
0010
0010
0000
,
0100
0100
0100
0000
,
0001
0001
2000
3000
,
1000
1000
0002
0003
,
0100
0100
0010
0010
,
0220
0000
0000
0330
,
1000
0000
0001
0000
,
1000
0100
0010
0000
,
0001
0000
1000
0000
,
0001
0100
0020
0000
,
1030
0000
0001
0000
,
1000
0010
0100
0000
,
0001
0000
0010
0000
,
0100
0000
2000
3000
,
1001
0000
0010
0100
,
0110
0000
0000
0000
,
0001
1000
0001
0000
,
0100
0010
0100
0000
,
0001
0000
1000
0000
,
0010
0010
0010
0010
,
0110
0000
1000
0000
,
0001
1000
0200
0300
,
0110
0000
0000
0000
,
0100
1000
0100
1000
,
0002
0000
0103
0000
,
0100
0001
0100
0001
,
2000
0000
3100
0000
,
0001
0100
0010
1000
,
0002
0000
2003
0000
,
3100
0100
0010
0010
,
0002
0000
2003
0000
,
3001
0100
0010
1000
,
0002
0000
2003
0000
,
3001
0000
1000
0000
,
0001
0010
0100
1000
,
0001
0010
0100
1000
,
0001
0010
0100
1000
,
0200
0300
0020
0030
,
0220
0000
0000
0000
,
0000
0000
0000
0000
,
0000
0000
0000
0000
,
0330
0000
0000
0000
,
1000
0000
0100
0000
,
0001
0000
0100
0000
,
1000
0000
0100
0000
,
0001
0000
0100
0000
,
1000
0000
0001
0000
,
1000
0000
0001
0100
,
0001
0000
1000
0000
,
0001
0010
0002
0000
,
1003
0000
0001
0000
,
1000
0100
1000
0000
,
0001
0000
1000
0000
,
2002
0000
0000
3003
,
0001
0001
0001
0000
,
0010
0010
0010
0000
,
0100
0100
0100
0000
,
1000
1000
1000
0000
,
0001
1000
0001
0000
2000
0000
3000
0000
,
1000
0001
1000
0000
0002
0000
0003
0000
,
2000
3000
0002
0003
,
0200
0300
0020
0030
,
0220
0000
0000
0000
,
0000
0000
0000
0330
,
0010
0100
0010
0110
,
0000
0000
0000
0000
;
#NOTES:
     dance-single:
     :
     Medium:
     10:
     :
0000
0000
0000
0000
,
0000
0000
0000
0000
,
0000
0000
0000
0000
,
0001
0100
0001
0000
0100
0001
1000
0000
,
2000
0000
0000
0000
3100
1000
0001
0000
,
0002
0000
0000
0000
0103
0001
1000
0000
,
1000
0000
0000
1000
0000
0000
1000
0000
0000
1000
0000
0000
1000
0000
0001
0000
,
1000
0100
0020
0000
0031
0100
0001
0010
,
0001
0100
0020
0000
1030
0100
0020
0000
,
0031
1000
0001
0000
0010
0100
1000
0001
,
2000
0010
0001
0100
,
3100
0000
0001
0000
1000
0100
0010
0001
,
0000
1000
0001
0000
0100
0010
0100
0010
,
0100
0000
0010
0000
1000
0010
0100
0001
,
0000
1000
0001
0000
0100
0100
0100
0100
,
0100
0000
0001
0000
1000
0100
0010
0001
,
0000
1000
0001
0000
1000
0010
0100
0000
,
0001
0100
1000
0100
,
0001
0010
1000
0010
,
0002
0000
0000
0000
0003
0000
0000
0000
0001
0000
0000
0000
0000
0000
0000
0000
0010
0000
0000
0001
0000
0000
0020
0000
0000
0000
0000
0000
0000
0000
0000
0000
,
0130
0010
0100
0010
0002
0000
1003
0000
,
0001
1000
0001
1000
0010
0100
0001
0000
,
1000
0001
1000
0001
0010
0100
1000
0000
,
0001
0000
1000
0000
0010
0100
0010
0000
,
1000
0100
0010
0001
0010
0100
1000
0000
,
1001
0001
0100
0010
,
1000
0010
0100
0001
0020
0000
0032
0000
,
1003
0000
1000
0010
0100
0010
0100
0001
,
0000
0100
0001
0010
0000
0100
1000
0000
,
0020
0000
0230
0000
,
0301
0000
1000
0000
0010
1000
0100
0010
,
0001
0000
1000
0100
0010
0100
0010
0001
,
0000
0010
0001
0100
0000
0010
1000
0000
,
0200
0000
0320
0000
,
0030
0100
0010
0100
1000
0001
1000
0000
,
0001
0000
0100
0001
0100
0010
1000
0200
,
0000
0310
0001
0200
0000
0310
0100
0000
,
0002
0000
2003
0000
,
3000
0001
0100
0001
1000
0100
1000
0000
,
0001
0010
1000
0010
,
0001
0010
1000
0010
,
0001
0010
1000
0010
,
0001
0000
1000
0100
0010
0000
0001
0100
,
0020
0000
0000
0000
,
0230
0000
0000
0000
,
0302
0000
0000
0000
,
2003
0000
0000
0000
,
3002
0000
0100
0000
,
0203
0000
0010
0000
,
0320
0000
1000
0000
,
2030
0000
0001
0000
,
3001
0000
1000
0000
0100
1000
0100
0000
,
0010
0100
0010
0000
0001
0010
0001
0000
,
1000
0000
0001
0000
0100
0001
0100
0000
,
0010
0100
0010
0000
1000
1000
1000
1000
,
1000
0000
0001
0000
1000
0010
1000
0000
,
0010
0100
0010
0000
0100
0001
0100
0000
,
0001
0000
1000
0000
0001
0010
0001
0000
,
0020
0000
0000
0030
,
0100
0000
0010
0000
0100
1000
0001
1000
,
0010
0000
0100
0000
0010
1000
0001
1000
,
0100
0000
0010
0000
0100
0010
0100
0010
,
0100
0000
0000
0100
0000
0000
0100
0000
0000
0100
0000
0000
0100
0000
0000
0000
,
2000
0000
3100
0000
2000
3100
0020
0031
,
2000
0000
3010
0000
2000
3010
0200
0301
,
0100
0100
0100
0001
0001
0001
,
1000
1000
1000
0100
0100
0000
,
0220
0000
0000
0000
,
0000
0000
0000
0330
,
0010
0000
0000
0010
0000
0000
0100
0000
0000
0100
0000
0000
0110
0000
0110
0000
,
0000
0000
0000
0000
;
#NOTES:
     dance-single:
     :
     Hard:
     13:
     :
0000
0000
0000
0000
,
0000
0000
0000
0000
,
0000
0000
0000
0000
,
0001
0000
1000
0100
2000
0000
3000
0000
0001
0010
0001
0000
2000
0000
3000
0000
,
0001
0000
1000
0010
2000
0000
3000
0000
0001
0100
0001
0000
1000
0001
1000
0001
,
1000
0000
0010
0100
0020
0000
0030
0000
0100
0010
0100
0000
0002
0000
0003
0000
,
1000
0001
0000
1000
0001
0000
0010
0100
0000
0010
0100
0000
1000
0001
1000
0000
,
0001
0100
0020
0030
1000
1000
0001
0001
,
1000
0100
0020
0030
0001
0001
0002
0003
,
1000
0010
0100
0001
1000
1000
0001
0001
,
2002
0000
0000
3003
,
1000
0001
0100
0000
0010
1000
0100
0010
,
0000
0000
0001
0000
1000
0000
0000
0000
0001
0000
0100
0010
0100
0000
0001
0000
,
1000
0000
0000
0000
0001
0000
0000
0000
1000
0000
0100
0010
0100
0000
1000
0000
,
0000
0001
0010
0000
0100
0100
0100
0100
,
0100
1000
0001
0000
0100
0010
1000
0100
,
0000
0000
1000
0000
0001
0000
0000
0000
1000
0000
0001
0100
0001
0000
1000
0000
,
0002
0003
0020
0030
0200
0300
1000
0001
,
1000
0000
0010
0100
0010
0000
0100
0000
0001
0100
0001
0100
0001
0000
0000
0000
,
2000
0000
0000
0000
3000
0000
0000
0000
0001
0000
0000
0000
0000
0000
0000
0000
0010
0000
0000
0100
0000
0000
0020
0000
0000
0000
0000
0000
0030
0000
0000
0000
,
0100
1000
0100
1000
0002
0000
0100
0003
,
0001
0000
0100
0000
0010
0000
1000
0000
0001
0010
0000
0001
0010
0000
0001
0000
,
1000
0000
0100
0000
0010
0000
0001
0000
1000
0010
0000
1000
0010
0000
0000
0000
,
0100
0000
0010
0000
0100
0010
0100
0000
,
0010
0100
0010
0100
0001
1000
1001
0000
,
2000
3100
0002
0103
,
0001
0000
0000
0000
0010
0000
0000
0000
0100
0000
0000
0000
1000
0000
0000
0000
0001
0000
1000
0001
0000
1000
0001
0000
2000
0000
0000
0000
3001
0100
0001
0100
,
0002
0000
0003
0000
1000
0100
1000
0100
1000
0000
0100
0000
0010
0000
0002
0000
,
0003
0100
0010
2000
3000
0001
1000
0000
,
0001
0000
0000
0010
0000
0000
1000
0000
0000
0000
0010
0000
0001
0000
1000
0000
,
0000
0000
0001
0000
0100
0010
0100
0000
0001
0000
1000
0000
0001
0010
0001
0010
,
0002
0000
0003
0000
1000
0010
1000
0010
1000
0000
0010
0000
0100
0000
0002
0000
,
0003
0010
0100
2000
3000
0001
1000
0000
,
0001
0000
0000
0100
0000
0000
1000
0000
0000
0000
0100
0000
0001
0000
1000
0000
,
0000
0000
0001
0000
0100
0000
0010
0000
1000
0000
0100
0000
1000
0100
1000
0100
,
2000
0000
3000
0000
0001
0100
0001
0100
0001
0000
0100
0000
0010
0000
2000
0000
,
3000
0100
0010
0002
0003
1000
0001
0000
,
1000
0000
0000
0010
0000
0000
0001
0000
0000
0000
0010
0000
1000
0000
0001
0000
,
0000
0000
1000
0000
0100
0010
0100
0000
1000
0000
0001
0000
1000
0010
1000
0000
,
0001
0000
0010
0100
0000
0010
0100
0000
1000
0000
0002
0000
1003
0000
0000
0000
,
0001
0000
0010
0100
0000
0010
0100
0000
1000
0000
0002
0000
1003
0000
0000
0000
,
0001
0000
0010
0100
0000
0010
0100
0000
1000
0000
0001
0000
1000
0000
0000
0000
,
1000
1000
0100
0100
0010
0010
0001
0001
,
2000
0000
3020
0000
,
0230
0000
0302
0000
,
2003
0000
3200
0000
,
0320
0000
0032
0000
,
2003
0000
3020
0000
,
0032
0000
0023
0000
,
2030
0000
3002
0000
,
2003
0000
0000
0000
3000
0000
0001
1000
,
0001
0000
0100
0001
0100
0000
0010
0000
1000
0000
0100
0000
1000
0000
0001
0000
,
1000
0000
0100
1000
0100
0000
0010
0000
0001
0000
0100
0000
0001
0000
1000
0000
,
0001
0000
1000
0001
1000
0000
0001
0000
1000
0000
0001
0000
0100
0000
0010
0000
,
1000
0100
0010
0001
0100
0100
0100
0100
,
0100
0000
0001
0100
0001
0000
1000
0000
0001
0000
0010
0000
1000
0000
0010
0000
,
0001
0000
1000
0100
1000
0000
0001
0000
1000
0000
0010
0000
0001
0000
0010
0000
,
1000
0000
0001
1000
0001
0000
1000
0000
0100
0000
0100
0000
0010
0000
0010
0000
,
0220
0000
0000
0000
0000
0000
0000
0330
,
0001
0000
1000
0010
1000
0000
0001
0000
1000
0100
1000
0000
0002
0000
0003
0000
,
1000
0000
0001
0010
0001
0000
1000
0000
0001
0100
0001
0000
1000
0001
1000
0001
,
1000
0000
0100
0010
0100
0000
0010
0000
0001
0010
0001
0000
2000
0000
3000
0000
,
0001
1000
0000
0001
1000
0000
0010
0100
0000
0010
0100
0000
0001
1000
0001
0000
,
1000
0100
1000
0100
2000
0000
3000
0000
0100
0010
0100
0000
0010
0001
0010
0000
,
0001
0100
0001
0100
0002
0000
0003
0000
0100
0010
0100
0000
0010
1000
0010
0000
,
1000
1000
1000
0100
0100
0100
,
0010
0010
0010
0001
0001
0000
,
2002
0000
0000
0000
,
0000
0000
0000
3003
,
0001
0100
0000
0001
0100
0000
0010
1000
0000
0010
1000
0000
0010
0100
0010
0100
,
0000
0000
0000
0000
;
#NOTES:
     dance-single:
     :
     Challenge:
     15:
     :
0000
0000
0000
0000
,
0000
0000
0000
0000
,
0000
0000
0000
0000
,
0001
0000
0000
0000
0000
0000
0100
0000
0000
0010
0000
0000
1000
0000
0000
0000
0000
0000
0001
0000
0000
0000
0000
0000
1000
0000
0001
0000
1000
0000
0001
0000
0000
0000
0000
0000
1000
0000
0000
0000
0000
0000
0001
0000
0000
0000
0000
0000
,
1000
0000
0000
0000
0000
0000
0100
0000
0000
0010
0000
0000
0001
0000
0000
0000
0000
0000
1000
0000
0000
0000
0000
0000
0001
0000
1000
0000
0001
0000
1000
0000
0000
0000
0000
0000
0001
0000
0000
0100
0000
0000
0010
0000
0000
1000
0000
0000
,
0001
0000
0000
0000
0000
0000
1000
0000
0000
0100
0000
0000
0010
0000
0000
0000
0000
0000
0100
0000
0000
0000
0000
0000
0010
0000
0100
0000
0010
0000
0100
0000
0000
0000
0000
0000
0010
0000
0000
0000
0000
0000
0100
0000
0000
0000
0000
0000
,
1000
0000
0000
0010
0000
0000
0000
0000
0000
0100
0000
0000
0001
0000
0000
0000
0000
0000
1000
0000
0000
0100
0000
0000
0000
0000
0000
0010
0000
0000
0001
0000
0000
0000
0000
0000
0010
0000
0100
0000
0010
0000
0100
0000
0000
0000
0000
0000
,
0010
0000
0100
0000
2000
0000
3000
0000
0001
0100
0010
1000
0001
0100
0010
1000
,
0001
0000
1000
0000
0002
0000
0003
0000
1000
0100
0010
0001
2000
0000
3000
0000
,
0001
0000
0000
0100
0000
0000
0010
0000
0000
1000
0000
0000
0100
0000
0000
0010
0000
0000
0001
0000
0000
0000
0000
0000
1000
0000
0001
0000
1000
0000
0001
0000
0000
0000
0000
0000
1000
0000
0001
0000
1000
0000
0001
0000
0000
0000
0000
0000
,
1000
1000
0010
0010
0100
0100
0001
0001
,
0001
0000
0010
0100
1000
0000
0000
0000
0001
0000
0010
0001
0100
0000
0010
0000
,
0000
0000
1000
0000
0010
0000
0000
0000
1000
0000
0010
0100
0001
0000
1000
0000
,
0100
0000
0000
0000
1000
0000
0000
0000
0001
0000
0100
0001
0010
0000
0100
0000
,
0000
1000
0010
0000
1000
1000
1000
1000
,
1000
0000
0010
0100
0001
0000
0000
0000
1000
0000
0010
1000
0100
0000
0010
0000
,
0000
0000
0001
0000
0010
0000
0000
0000
0001
0000
0010
0100
1000
0000
0001
0000
,
0200
0300
0020
0030
2000
3000
0001
1000
,
0100
0000
0010
0001
0100
0000
0001
0000
0100
0001
0010
0100
1000
0000
0000
0000
,
0002
0000
0000
0000
0003
0000
0100
0000
0100
0000
0000
0000
0010
0000
0000
0000
1000
0000
0001
1000
0000
0001
0010
0100
2000
0000
0000
0000
3000
0000
0000
0000
,
0001
1000
0001
1000
2010
0000
0001
3000
,
1000
0000
0001
0000
1000
0000
0001
0000
1000
0100
0000
0010
0001
0000
1000
0000
,
0001
0000
1000
0000
0001
0000
1000
0000
0001
0100
0000
0010
1000
0000
0001
0000
,
1000
0000
0010
0000
0100
0010
0110
0000
,
1000
0100
0010
0001
1001
0110
1001
0000
,
2000
0100
3100
0000
0002
0100
0103
0000
,
0001
0000
0010
0000
0100
0000
1000
0000
0001
0000
0100
0000
0010
0000
1000
0000
0001
0000
0100
0010
0000
0010
0100
0000
0020
0000
0000
0000
1030
0100
0010
0001
,
0200
0000
0300
0000
0001
0100
0010
1000
0100
0000
1000
0000
0100
0000
0020
0000
,
0030
0001
0100
0020
0030
1000
0002
0003
,
2000
0000
3000
0200
0000
0300
0002
0000
0003
0000
0100
0000
1000
0000
0001
0000
,
0000
0000
1000
0000
0001
0100
0010
1000
0010
0000
1000
0000
0001
0010
0100
1000
,
0020
0000
0030
0000
1000
0010
0100
0001
0010
0000
0001
0000
0010
0000
0200
0000
,
0300
1000
0010
0200
0300
0001
2000
3000
,
0002
0000
0003
0200
0000
0300
2000
0000
3000
0000
0100
0000
0001
0000
1000
0000
,
0000
0000
0001
0100
0001
1000
0100
1000
0001
0100
0001
0000
1000
0100
0010
0001
,
0020
0000
0030
0000
0001
0100
0010
1000
0010
0000
1000
0000
0001
0000
0200
0000
,
0300
0001
1000
0200
0300
1000
0002
0003
,
2000
0000
3000
0020
0000
0030
0002
0000
0003
0000
0010
0000
1000
0000
0001
0000
,
0000
0000
1000
0000
0001
0100
0010
1000
0100
0000
1000
0000
0001
0010
0100
1000
,
0010
0000
1000
0100
0000
0010
0001
0000
1000
0000
0020
0000
0130
0000
0000
0000
,
0010
0000
1000
0100
0000
0010
0001
0000
1000
0000
0020
0000
0130
0000
0000
0000
,
0010
0000
1000
0100
0000
0010
0001
0000
1000
0000
0010
0000
0100
0010
1000
0010
,
0100
0000
0001
0000
0100
0000
0001
0010
0100
0000
1000
0010
0100
0000
0000
0000
,
2001
3200
0320
0032
,
2003
3020
0230
0302
,
2003
3200
0302
0203
,
2300
0000
3020
0000
0032
0000
0023
0030
,
2010
3020
0230
0320
,
0032
0023
0230
0320
,
2030
3200
0320
0230
,
2300
0000
0002
0000
3003
0000
1001
1001
,
0001
0000
0100
0010
1000
0000
0001
0000
1000
0000
0100
0010
0001
0000
1000
0000
,
0001
0010
1000
0010
0001
0100
1000
0100
,
0001
0000
0010
0100
1000
0000
0001
0000
1000
0000
0010
0100
0001
0000
1000
0000
,
0001
0010
0100
1000
0001
0001
0001
0001
,
0001
0000
0010
0100
1000
0000
0001
0000
1000
0000
0010
0100
0001
0000
1000
0000
,
0001
0100
1000
0100
0001
0010
1000
0010
,
0001
0000
1000
0100
1000
0000
0001
0000
1000
0000
0001
0100
0001
0000
1000
0000
,
2002
0000
0000
0000
0000
0000
0000
3003
,
1000
0000
0000
0000
0000
0000
0100
0000
0000
0010
0000
0000
0001
0000
0000
0000
0000
0000
1000
0000
0000
0000
0000
0000
0001
0000
1000
0000
0001
0000
1000
0000
0000
0000
0000
0000
0001
0000
0000
0000
0000
0000
1000
0000
0000
0000
0000
0000
,
0001
0000
0000
0000
0000
0000
0100
0000
0000
0010
0000
0000
1000
0000
0000
0000
0000
0000
0001
0000
0000
0000
0000
0000
1000
0000
0001
0000
1000
0000
0001
0000
0000
0000
0000
0000
1000
0000
0000
0100
0000
0000
0010
0000
0000
0001
0000
0000
,
1000
0000
0000
0000
0000
0000
0001
0000
0000
0100
0000
0000
0010
0000
0000
0000
0000
0000
0100
0000
0000
0000
0000
0000
0010
0000
0100
0000
0010
0000
0100
0000
0000
0000
0000
0000
0010
0000
0000
0000
0000
0000
0100
0000
0000
0000
0000
0000
,
0001
0000
0000
0010
0000
0000
0000
0000
0000
0100
0000
0000
1000
0000
0000
0000
0000
0000
0001
0000
0000
0100
0000
0000
0000
0000
0000
0010
0000
0000
1000
0000
0000
0000
0000
0000
0001
0000
1000
0000
0001
0000
1000
0000
0000
0000
0000
0000
,
0001
0000
0000
0100
0000
0000
1000
0000
0000
0100
0000
0000
0001
0000
0000
0000
0000
0000
0100
0000
0000
0000
0000
0000
0010
0000
1000
0000
0010
0000
1000
0000
0000
0000
0000
0000
0001
0000
0010
0000
0001
0000
0010
0000
0000
0000
0000
0000
,
0001
0000
0000
0010
0000
0000
1000
0000
0000
0010
0000
0000
0001
0000
0000
0000
0000
0000
1000
0000
0000
0000
0000
0000
0001
0000
1000
0000
0001
0000
1000
0000
0000
0000
0000
0000
0001
0000
0000
0100
0000
0000
1000
0000
0000
0100
0000
0000
,
0001
0100
0100
1000
0010
0010
,
0001
0100
0100
1000
0010
0000
,
2002
0000
0000
0000
,
0000
0000
0000
0000
0000
0000
0000
0000
3003
0000
0000
0000
0001
0100
0010
1000
,
0100
0000
0000
0010
0000
0000
0000
0000
0000
0100
0000
0000
0010
0000
0000
0000
0000
0000
0001
0000
0000
0010
0000
0000
0000
0000
0000
0001
0000
0000
1000
0000
0000
0000
0000
0000
0001
0000
1000
0000
0001
0000
1000
0000
0000
0001
0000
0000
,
0000
0000
0000
0000
;
#NOTES:
     dance-double:
     :
     Easy:
     6:
     :
00000000
00000000
00000000
00000000
,
00000000
00000000
00000000
00000000
,
00000000
00000000
00000000
00000000
,
00001000
00010000
00001000
00000000
,
00010000
00001000
00000010
00000000
,
00000100
00000010
00000100
00000000
,
00000010
00001000
00010000
00000000
,
00001000
00010000
00000020
00000030
,
00010000
00001000
00200000
00300000
,
00001000
00000000
00010000
00000000
,
00022000
00000000
00000000
00033000
,
00001000
00000000
00001000
00000000
,
00010000
00000000
00010000
00000000
,
00100000
00000000
00100000
00000000
,
10000000
00000000
20000000
00000000
,
30100000
00000000
00100000
00000000
,
01000000
00000000
00001000
00000000
,
00010000
00000000
00000010
00000000
,
00001000
00000000
00000002
00000003
,
00000100
00000000
00000010
00000000
,
00000110
00000000
00000000
00000000
,
00000010
00000000
00001000
00000000
,
00000100
00000000
00010000
00000000
,
00001000
00000000
00100000
00000000
,
00010000
00000000
01000000
00010000
,
01000000
00000000
00010000
00000000
,
10000000
00000000
01000000
00000000
,
01100000
00000000
00000000
00000000
,
01000000
00100000
00010000
00000000
,
00200000
00000000
00302000
00000000
,
00013000
00000100
00001000
00000000
,
00000200
00000000
00000320
00000000
,
00000031
00000010
00000100
00000000
,
00002000
00000000
00003200
00000000
,
00010300
00001000
01000000
00010000
,
02000000
00000000
03200000
00000000
,
10300000
00010000
01000000
00000000
,
00002000
00000000
00023000
00000000
,
00030010
00000000
00001000
00000000
,
00000001
00000010
00000100
00001000
,
00000001
00000010
00000100
00001000
,
00000001
00000010
00000100
00001000
,
00000200
00000300
00020000
00030000
,
00002000
00000000
00000000
00000000
,
00100000
00000000
00000000
00000000
,
00010000
00000000
00000000
00000000
,
01000000
00000000
00000000
00003000
,
00020000
00000000
00000000
00000000
,
00000010
00000000
00000000
00000000
,
00001000
00000000
00000000
00000000
,
00000100
00000000
00000000
00030000
,
00001000
00010000
00001000
00000000
,
00100000
00000000
00010000
00100000
,
00010000
00000000
10000000
00000000
,
00100000
10000000
00200000
00000000
,
10300000
00000000
00100000
00000000
,
01000000
00010000
01000000
00000000
,
00001000
00000000
00010000
00000000
,
00022000
00000000
00000000
00033000
,
00010000
00001000
00010000
00000000
,
00001000
00010000
00100000
00000000
,
00010000
00100000
10000000
00000000
,
00100000
10000000
01000000
00000000
,
00100000
00010000
00100000
00000000
00001000
00000000
00010000
00000000
,
00000100
00001000
00000100
00000000
00000010
00000000
00000001
00000000
,
00002000
00003000
00000020
00000030
,
00020000
00030000
00002000
00003000
,
00022000
00000000
00000000
00000000
,
00000000
00000000
00000000
00033000
,
00001000
00010000
00100000
01100000
,
00000000
00000000
00000000
00000000
;
#NOTES:
     dance-double:
     :
     Medium:
     10:
     :
00000000
00000000
00000000
00000000
,
00000000
00000000
00000000
00000000
,
00000000
00000000
00000000
00000000
,
00001000
00010000
00001000
00000000
00010000
00001000
00100000
00000000
,
00200000
00000000
00000000
00000000
00310000
00100000
01000000
00000000
,
02000000
00000000
00000000
00000000
13000000
01000000
00010000
00000000
,
00001000
00000000
00000000
00001000
00000000
00000000
00001000
00000000
00000000
00001000
00000000
00000000
00001000
00000000
00000000
00000000
,
00020000
00000000
00030020
00000000
00001030
00000010
00000100
00000000
,
00002000
00000000
00203000
00000000
00310000
00100000
02000000
00000000
,
03100000
01000000
00010000
00000000
01000000
00010000
00001000
00000000
,
00020000
00000000
00000000
00030000
,
00010000
00000000
00001000
00000000
00010000
00001000
00000100
00000010
,
00000000
00000100
00000010
00000000
00001000
00000010
00001000
00000000
,
00000010
00000000
00010000
00000000
00001000
01000000
00010000
01000000
,
00000000
00100000
01000000
00000000
00100000
00100000
00100000
00100000
,
00100000
00000000
10000000
00000000
00010000
00100000
10000000
00100000
,
00000000
01000000
00100000
00000000
00010000
00100000
00010000
00000000
,
00100000
00001000
00010000
00000100
,
00001000
00000010
00000100
00000001
,
00000200
00000000
00000000
00000000
00000300
00000000
00000000
00000000
00000001
00000000
00000000
00000000
00000000
00000000
00000000
00000000
00001000
00000000
00000000
00000001
00000000
00000000
00002000
00000000
00000000
00000000
00000000
00000000
00000000
00000000
00000000
00000000
,
00003100
00001000
00000200
00000300
,
00010000
00001000
00010000
00000000
00001000
00010000
00100000
00000000
,
01000000
00010000
00100000
00000000
01000000
10000000
00100000
00000000
,
01000000
00000000
00100000
00000000
01000000
00100000
01000000
00000000
,
00100000
01000000
00010000
01000000
00001000
00010000
00001000
00000000
,
00011000
00000000
00000010
00001000
,
00000010
00001000
00000100
00010000
00002000
00000000
00023000
00000000
,
00031000
00000000
00010000
00001000
00100000
00010000
01000000
00100000
,
00000000
01000000
00100000
10000000
00000000
01000000
00100000
00000000
,
00020000
00000000
00230000
00000000
,
00301000
00000000
00010000
00000000
00000010
00001000
00000100
00000010
,
00000001
00000000
00000010
00000001
00000100
00001000
00010000
00001000
,
00000000
00010000
00001000
00100000
00000000
00010000
01000000
00000000
,
00200000
00000000
20300000
00000000
,
30000000
00100000
10000000
00100000
01000000
00010000
01000000
00000000
,
00010000
00000000
10000000
01000000
00010000
00001000
00010000
00002000
,
00000000
00013000
00001000
00020000
00000000
00030010
00001000
00000000
,
00000020
00000000
00000230
00000000
,
00000300
00000001
00000100
00001000
00000100
00001000
00010000
00000000
,
00001000
00010000
00100000
01000000
,
00001000
00010000
00100000
01000000
,
00001000
00010000
00100000
01000000
,
00010000
01000000
00001000
00010000
,
00000020
00000000
00000000
00000000
,
00000230
00000000
00000000
00000000
,
00002300
00000000
00000000
00000000
,
00023000
00000000
00000000
00000000
,
00032000
00000000
01000000
00000000
,
02003000
00000000
00100000
00000000
,
03200000
00000000
10000000
00000000
,
20300000
00000000
00010000
00000000
,
30010000
00000000
10000000
00000000
00100000
01000000
00100000
00000000
,
01000000
00010000
00100000
00000000
01000000
00010000
00001000
00000000
,
00010000
00000000
00001000
00000000
00010000
00001000
00000100
00000000
,
00000010
00001000
00000100
00000000
00000010
00000010
00000010
00000010
,
00000010
00000000
00000001
00000000
00000010
00000001
00000100
00000000
,
00000001
00000100
00001000
00000000
00000100
00001000
00010000
00000000
,
00001000
00000000
00010000
00000000
00001000
00010000
01000000
00000000
,
00200000
00000000
00000000
00300000
,
01000000
00000000
10000000
00000000
01000000
10000000
00010000
01000000
,
00001000
00000000
00010000
00000000
00001000
00010000
00000010
00001000
,
00000001
00000000
00000100
00000000
00000001
00000100
00001000
00010000
,
00001000
00000000
00000000
00001000
00000000
00000000
00001000
00000000
00000000
00001000
00000000
00000000
00001000
00000000
00000000
00000000
,
00020000
00000000
00031000
00000000
02000000
03010000
20000000
30100000
,
20000000
00000000
31000000
00000000
00200000
01300000
00020000
00031000
,
00010000
00001000
00000100
00000001
00000010
00001000
,
00010000
01000000
10000000
00100000
00010000
00000000
,
00022000
00000000
00000000
00000000
,
00000000
00000000
00000000
00033000
,
00001000
00000000
00000000
00010000
00000000
00000000
00000100
00000000
00000000
00001000
00000000
00000000
00000100
00000000
00000010
00000000
,
00000000
00000000
00000000
00000000
;
#NOTES:
     dance-double:
     :
     Hard:
     13:
     :
00000000
00000000
00000000
00000000
,
00000000
00000000
00000000
00000000
,
00000000
00000000
00000000
00000000
,
00001000
00000000
00010000
00001000
00020000
00000000
00030000
00000000
00000100
00001000
00000100
00000000
00000020
00000000
00000030
00000000
,
00000001
00000000
00001000
00000001
00002000
00000000
00003000
00000000
00000010
00001000
00000010
00000000
00001000
00000010
00010000
00001000
,
00010000
00000000
00001000
00010000
00002000
00000000
00003000
00000000
01000000
00010000
01000000
00000000
00020000
00000000
00030000
00000000
,
00100000
00010000
00000000
00100000
00010000
00000000
10000000
01000000
00000000
10000000
01000000
00000000
00100000
01000000
00100000
00000000
,
01000000
00100000
00020000
00030000
00100000
00001000
00010000
00000100
,
00001000
00000100
00000020
00000030
00000001
00000001
00000020
00000030
,
00000001
00000010
00001000
00010000
01000000
10000000
00100000
00010000
,
00002000
00000000
00000000
00003000
,
00010000
00001000
00000100
00000000
00000010
00001000
00000100
00000010
,
00000000
00000001
00000010
00000000
00000001
00000100
00001000
00010000
,
00100000
00000000
10000000
00000000
00100000
10000000
01000000
00100000
,
00000000
00001000
00010000
00000000
00001000
00001000
00001000
00001000
,
00001000
00010000
00000100
00000000
00000010
00000001
00000100
00000010
,
00000000
00001000
00000010
00000000
00010000
00000010
00000100
00001000
,
00020000
00030000
00002000
00003000
00200000
00300000
01000000
10000000
,
00100000
00010000
00001000
00000100
00000001
00000010
00001000
00000000
,
00020000
00000000
00000000
00000000
00030000
00000000
00000000
00000000
00001000
00000000
00000000
00000000
00000000
00000000
00000000
00000000
00100000
00000000
00000000
01000000
00000000
00000000
00200000
00000000
00000000
00000000
00000000
00000000
00300000
00000000
00000000
00000000
,
01000000
10000000
00100000
10000000
02000000
00000000
00100000
03000000
,
01000000
00000000
00100000
00000000
00010000
00000000
01000000
00000000
00001000
00010000
00000000
00001000
00010000
00000000
00000010
00000000
,
00001000
00000000
00000100
00000000
00000001
00000000
00000100
00000000
00001000
00000001
00000000
00001000
00000001
00000000
00000000
00000000
,
00000100
00000000
00001000
00000000
00010000
00001000
00010000
00000000
,
00001000
00010000
00100000
10000000
01000000
00100000
00010000
00000000
,
20000000
31000000
00020000
01030000
,
10000000
00000000
00000000
00000000
01000000
00000000
00000000
00000000
00010000
00000000
00000000
00000000
00001000
00000000
00000000
00000000
00010000
00000000
00001000
00010000
00000000
00001000
00010000
00000000
00002000
00000000
00000000
00000000
00013000
00000000
00001000
00000000
,
00000020
00000000
00000030
00000000
00000001
00000010
00000001
00000010
00000001
00000000
00000100
00000000
00000010
00000000
00002000
00000000
,
00003000
00000010
00010000
00002000
00003000
00010000
00001000
00000000
,
00010000
00000000
00000000
00100000
00000000
00000000
10000000
00000000
00000000
00000000
01000000
00000000
00010000
00000000
00001000
00000000
,
00000000
00010000
00000010
00001000
00000100
00000001
00000100
00001000
,
00000020
00000000
00000030
00000000
00001000
00000010
00001000
00000010
00001000
00000000
00000010
00000000
00000100
00000000
00000002
00000000
,
00000003
00000010
00000100
00002000
00003000
00000100
00010000
00000000
,
00001000
00000000
00000000
00010000
00000000
00000000
01000000
00000000
00000000
00000000
00010000
00000000
00001000
00000000
00010000
00000000
,
00000000
00001000
01000000
00010000
01000000
10000000
01000000
00010000
,
00200000
00000000
00300000
00000000
00010000
00100000
00010000
00100000
00010000
00000000
00100000
00000000
01000000
00000000
20000000
00000000
,
30000000
00100000
01000000
00020000
00030000
01000000
00001000
00000000
,
00010000
00000000
00000000
00001000
00000000
00000000
00000100
00000000
00000000
00000000
00001000
00000000
00010000
00000000
00001000
00000000
,
00000000
00010000
00000010
00000100
00001000
00000100
00000010
00000000
,
00000100
00000000
00001000
00010000
00000000
00001000
00010000
00000000
00000010
00000000
00000100
00000000
00000010
00000000
00000000
00000000
,
00000100
00000000
00001000
00010000
00000000
00001000
00010000
00000000
00000010
00000000
00000100
00000000
00000010
00000000
00000000
00000000
,
00000100
00000000
00001000
00010000
00000000
00001000
00010000
00000000
00000010
00000000
00000100
00000000
00000010
00000000
00000000
00000000
,
00000100
00000000
00000001
00000100
00001000
00010000
00001000
00010000
,
00002000
00000000
00023000
00000000
,
02030000
00000000
03200000
00000000
,
20300000
00000000
30200000
00000000
,
00320000
00000000
02030000
00000000
,
03002000
00000000
00023000
00000000
,
00032000
00000000
00003200
00000000
,
00000320
00000000
00000032
00000000
,
00000023
00000000
00000000
00000000
00000030
00000000
00000100
00000010
,
00001000
00000000
00000010
00001000
00000010
00000000
00010000
00000000
00001000
00000000
00010000
00000000
01000000
00000000
00100000
00000000
,
00010000
10000000
00100000
01000000
00010000
10000000
01000000
00010000
,
00001000
00000000
00010000
00001000
00010000
00000000
00001000
00000000
00010000
00000000
00000100
00000000
00001000
00000000
00000001
00000000
,
00001000
00000100
00000010
00000001
00000100
00000100
00000100
00000100
,
00000100
00000000
00000001
00000100
00000001
00000000
00000100
00000000
00001000
00000000
00010000
00000000
00100000
00000000
01000000
00000000
,
00010000
10000000
01000000
00100000
00010000
10000000
00100000
00010000
,
00001000
00000000
00010000
00001000
00010000
00000000
00001000
00000000
00010000
00000000
00001000
00000000
00000100
00000000
00000001
00000000
,
00000200
00000000
00000000
00000000
00000000
00000000
00000000
00000300
,
00000001
00000000
00000100
00000001
00000100
00000000
00000010
00000000
00001000
00000010
00001000
00000000
00000020
00000000
00000030
00000000
,
00010000
00000000
00001000
00010000
00001000
00000000
01000000
00000000
00010000
01000000
00010000
00000000
10000000
00100000
10000000
00100000
,
10000000
00000000
01000000
00100000
01000000
00000000
00100000
00000000
00010000
00100000
00010000
00000000
00200000
00000000
00300000
00000000
,
00001000
00010000
00000000
00001000
00010000
00000000
00000010
00001000
00000000
00000010
00001000
00000000
00000001
00000100
00000001
00000000
,
00000100
00000010
00000100
00000010
00000200
00000000
00000300
00000000
00001000
00010000
00000010
00000000
00010000
00001000
00100000
00000000
,
01000000
00100000
01000000
00100000
02000000
00000000
03000000
00000000
00010000
00001000
00100000
00000000
00001000
00010000
00000010
00000000
,
00001000
00001000
00001000
00000010
00000010
00000010
,
00000100
00000100
00000100
00000001
00000001
00000000
,
00002002
00000000
00000000
00000000
,
00000000
00000000
00000000
00003003
,
00001000
00000010
00000000
00010000
00001000
00000000
01000000
00010000
00000000
10000000
01000000
00000000
10000000
00010000
10000000
00010000
,
00000000
00000000
00000000
00000000
;
#NOTES:
     dance-double:
     :
     Challenge:
     15:
     :
00000000
00000000
00000000
00000000
,
00000000
00000000
00000000
00000000
,
00000000
00000000
00000000
00000000
,
00001000
00000000
00010000
00001000
01000000
00000000
00010000
00000000
01000000
00100000
10000000
00000000
00010000
00000000
10000000
00000000
,
00010000
00000000
10000000
01000000
00100000
00000000
00010000
00000000
00100000
00001000
00010000
00000000
00001000
00010000
00000100
00001000
,
00000100
00000000
00000010
00000001
00000100
00000000
00000010
00000000
00000100
00000010
00000100
00000000
00000010
00000000
00001000
00000000
,
00000010
00001000
00000000
00000010
00010000
00000000
00001000
00010000
00000000
00001000
01000000
00000000
00100000
01000000
00100000
00000000
,
10000000
00000000
01000000
00000000
00200000
00000000
00300000
00000000
00010000
00100000
00010000
00100000
00001000
00010000
00001000
00010000
,
00001000
00000000
00010000
00000000
00000200
00000000
00000300
00000000
00001000
00000100
00000010
00000001
00000200
00000000
00000300
00000000
,
00000001
00000100
00000010
00000000
00001000
00000100
00000010
00000000
00000100
00001000
00000010
00000000
00001000
00000010
00010000
00000000
,
00002000
00023000
02030000
23000000
,
30010000
00000000
10000000
00000000
00100000
00000000
00000000
00000000
10000000
00000000
00100000
00010000
00001000
00000000
00010000
00000000
,
00000000
00000000
00001000
00000000
00010000
00000000
00000000
00000000
00001000
00000000
00010000
00001000
00000100
00000000
00000001
00000000
,
00000100
00000000
00000000
00000000
00001000
00000000
00000000
00000000
00010000
00000000
00001000
00010000
01000000
00000000
10000000
00000000
,
00000000
00010000
10000000
00000000
00010000
00010000
00010000
00010000
,
00010000
00000000
10000000
00000000
01000000
00000000
00000000
00000000
10000000
00000000
01000000
00010000
00001000
00000000
00010000
00000000
,
00000000
00000000
00001000
00000000
00010000
00000000
00000000
00000000
00001000
00000000
00010000
00001000
00000010
00000000
00000001
00000000
,
00000020
00000030
00000200
00000300
00002000
00003000
00000100
00010000
,
00001000
00000000
00100000
00000000
00010000
00000000
10000000
00000000
00100000
10000000
01000000
00100000
00010000
00000000
00000000
00000000
,
02000000
00000000
00000000
00000000
03000000
00000000
00100000
00000000
00100000
00000000
00000000
00000000
10000000
00000000
00000000
00000000
00010000
00000000
10000000
00010000
00000000
10000000
01000000
00100000
00020000
00000000
00000000
00000000
00030000
00000000
00000000
00000000
,
00100000
00001000
00100000
00001000
00020000
00000000
00001000
00030000
,
00010000
00000000
00001000
00000000
00000010
00000000
00000001
00000000
00000100
00000001
00000000
00001000
00000100
00000000
00010000
00000000
,
00001000
00000000
00010000
00000000
00100000
00000000
10000000
00000000
01000000
10000000
00000000
00010000
01000000
00000000
00001000
00000000
,
00010000
00000000
00001000
00000000
00010000
00001000
00011000
00000000
,
00010000
00001000
00000100
00000001
00000010
00001000
00011000
00000000
,
00002000
00010000
00013000
00000000
00020000
00001000
00031000
00000000
,
00001000
00000000
00010000
00000000
00100000
00000000
01000000
00000000
00010000
00000000
00100000
00000000
01000000
00000000
10000000
00000000
00100000
00000000
01000000
00100000
00000000
00100000
01000000
00000000
00200000
00000000
00000000
00000000
10300000
01000000
00100000
00010000
,
02000000
00000000
03000000
00000000
00010000
01000000
00001000
00010000
00001000
00000000
00010000
00000000
00001000
00000000
00000020
00000000
,
00000030
00001000
00010000
00200000
00300000
00010000
00002000
00003000
,
00020000
00000000
00030000
02000000
00000000
03000000
20000000
00000000
30000000
00000000
00100000
00000000
00010000
00000000
00001000
00000000
,
00000000
00000000
00010000
00000000
00001000
00010000
00000100
00001000
00000100
00000000
00001000
00000000
00000001
00000010
00000100
00001000
,
00000020
00000000
00000030
00000000
00001000
00000010
00010000
00001000
00010000
00000000
00001000
00000000
00010000
00000000
02000000
00000000
,
03000000
00010000
00001000
00000200
00000300
00001000
00020000
00030000
,
00002000
00000000
00003000
00000020
00000000
00000030
00000002
00000000
00000003
00000000
00000100
00000000
00001000
00000000
00010000
00000000
,
00000000
00000000
00001000
00010000
00001000
00100000
00010000
00100000
00001000
00010000
00001000
00000000
00010000
00001000
00100000
00010000
,
02000000
00000000
03000000
00000000
00010000
01000000
00100000
10000000
01000000
00000000
10000000
00000000
01000000
00000000
00020000
00000000
,
00030000
00001000
00000100
00000002
00000003
00001000
00000002
00000003
,
00000020
00000000
00000030
00000200
00000000
00000300
00002000
00000000
00003000
00000000
00000100
00000000
00010000
00000000
00001000
00000000
,
00000000
00000000
00010000
00000000
00001000
00010000
00001000
01000000
00010000
00000000
01000000
00000000
00010000
10000000
00010000
00000000
,
10000000
00000000
00100000
00010000
00000000
00001000
00010000
00000000
00001000
00000000
00010000
00000000
01000000
00000000
00000000
00000000
,
10000000
00000000
00100000
00010000
00000000
00001000
00010000
00000000
00001000
00000000
00010000
00000000
01000000
00000000
00000000
00000000
,
10000000
00000000
00100000
00010000
00000000
00001000
00010000
00000000
00001000
00000000
00010000
00000000
01000000
00000000
00100000
00000000
,
01000000
00000000
10000000
00000000
01000000
00000000
00100000
01000000
00010000
00000000
01000000
00010000
00001000
00000000
00010000
00000000
,
00002000
00023000
00032000
00003200
,
00002300
00023000
02030000
03020000
,
00032000
00023000
00032000
00003020
,
00002030
00023000
00230000
00320000
,
00032000
00003200
00000320
00002030
,
00023000
00230000
02300000
03020000
,
00032000
00003020
00000032
00002003
,
00003002
00000000
00000000
00000000
00000003
00000000
00000001
00000001
,
00001000
00000000
00000001
00000100
00001000
00000000
00010000
00000000
00001000
00000000
00010000
01000000
10000000
00000000
00010000
00000000
,
10000000
01000000
00100000
00010000
01000000
00100000
00010000
00001000
,
00010000
00000000
00001000
00010000
01000000
00000000
00010000
00000000
00001000
00000000
00010000
00001000
00000100
00000000
00001000
00000000
,
00010000
00001000
00000100
00000001
00001000
00001000
00001000
00001000
,
00001000
00000000
00000001
00000010
00001000
00000000
00010000
00000000
00001000
00000000
00010000
00100000
10000000
00000000
00010000
00000000
,
10000000
00100000
01000000
00010000
00100000
01000000
00010000
00001000
,
00010000
00000000
00001000
00010000
00100000
00000000
00010000
00000000
00001000
00000000
00010000
00001000
00000010
00000000
00001000
00000000
,
00020000
00000000
00000000
00000000
00000000
00000000
00000000
00030000
,
00001000
00000000
00010000
00001000
00100000
00000000
00010000
00000000
00100000
01000000
10000000
00000000
00010000
00000000
10000000
00000000
,
00010000
00000000
10000000
00100000
01000000
00000000
00010000
00000000
01000000
00001000
00010000
00000000
00001000
00010000
00000010
00001000
,
00000010
00000000
00000100
00000001
00000010
00000000
00000100
00000000
00000010
00000100
00000010
00000000
00000100
00000000
00001000
00000000
,
00000001
00000100
00000000
00001000
00010000
00000000
00100000
10000000
00000000
01000000
00010000
00000000
00001000
00010000
00001000
00000000
,
00010000
00000000
00001000
00000000
00010000
00000000
00001000
00000000
00000000
00000000
00000000
00000000
00010000
00000000
00000000
00000000
00000000
00000000
00001000
00000000
00000000
00000000
00000000
00000000
00010000
00000000
00000000
00001000
00000000
00000000
00100000
00000000
00000000
00000000
00000000
00000000
00001000
00000000
00000000
00010000
00000000
00000000
00000100
00000000
00000000
00000000
00000000
00000000
,
00010000
00000000
00001000
00000000
00010000
00000000
00001000
00000000
00000000
00000000
00000000
00000000
00010000
00000000
00000000
00000000
00000000
00000000
00001000
00000000
00000000
00000000
00000000
00000000
00100000
00000000
00000000
00010000
00000000
00000000
00100000
00000000
00000000
00000000
00000000
00000000
00001000
00000000
00010000
00000000
00001000
00000000
00010000
00000000
00000000
00000000
00000000
00000000
,
00001000
00001000
00001000
00010000
00010000
00010000
,
01000000
01000000
01000000
10000000
10000000
00000000
,
20020000
00000000
00000000
00000000
,
00000000
00000000
00000000
00000000
00000000
00000000
00000000
00000000
30030000
00000000
00000000
00000000
10000000
01000000
00100000
00010000
,
10000000
00000000
00000000
00010000
00000000
00000000
00000000
00000000
00000000
10000000
00000000
00000000
00010000
00000000
00000000
00000000
00000000
00000000
10000000
00000000
00000000
01000000
00000000
00000000
00000000
00000000
00000000
00010000
00000000
00000000
00001000
00000000
00000000
00000000
00000000
00000000
00010000
00000000
00001000
00000000
00010000
00000000
00001000
00000000
00000000
00010000
00000000
00000000
,
00000000
00000000
00000000
00000000
;
