
//----- song ID: gitg -----//
#TITLE:Get Into The Groove feat.WaMi;
#ARTIST:DÉ DÉ MOUSE;
#BANNER:Get Into The Groove feat.WaMi.png;
#BACKGROUND:Get Into The Groove feat.WaMi-bg.png;
#CDTITLE:./CDTitles/DDR WORLD.png;
#MUSIC:Get Into The Groove feat.WaMi.ogg;
#SAMPLESTART:29.122;
#SAMPLELENGTH:15;
#BPMS:0=140;
#BGSTAGE:16;
#NOTES:
     dance-single:
     :
     Beginner:
     2:
     :
0000
0000
0000
0000
,
0000
0000
0000
0000
,
0000
0000
0000
0000
,
0000
0000
0000
0000
,
0000
0000
0000
0000
,
0001
0000
0000
0000
,
0001
0000
0000
0000
,
1000
0000
0000
0000
,
1000
0000
0000
0000
,
0010
0000
0000
0000
,
0000
0000
0000
0000
,
0010
0000
0000
0000
,
0000
0000
0000
0000
,
0010
0000
0000
0000
,
0010
0000
0000
0000
,
0010
0000
0000
0000
,
0110
0000
0000
0000
,
0001
0000
0000
0000
,
1000
0000
0000
0000
,
0010
0000
0000
0000
,
0100
0000
0000
0000
,
0001
0000
0000
0000
,
1000
0000
0000
0000
,
0010
0000
0000
0000
,
0100
0000
0000
0000
,
0001
0000
0001
0000
,
0001
0000
0000
0000
,
1000
0000
1000
0000
,
1000
0000
0000
0000
,
0010
0000
0010
0000
,
0010
0000
0000
0000
,
0100
0000
0100
0000
,
0100
0000
0000
0000
,
0110
0000
0000
0000
,
0001
0000
0000
0000
,
0000
0000
0000
0000
,
0001
0000
0000
0000
,
0001
0000
0000
0000
,
0001
0000
0000
0000
,
0001
0000
0001
0000
,
0001
0000
0000
0000
,
1000
0000
0000
0000
,
0100
0000
0000
0000
,
0010
0000
0000
0000
,
0001
0000
0000
0000
,
0010
0000
0000
0000
,
0100
0000
0000
0000
,
1000
0000
0000
0000
,
0001
0000
0000
0000
,
0200
0000
0300
0000
,
0001
0000
0000
0000
,
0100
0000
0000
0000
,
0010
0000
0000
0000
,
1000
0000
0000
0000
,
0001
0000
0000
0000
,
0100
0000
0000
0000
,
0010
0000
0000
0000
,
1000
0000
0000
0000
,
0010
0000
0010
0000
,
0010
0000
0000
0000
,
0100
0000
0100
0000
,
0100
0000
0000
0000
,
0001
0000
0001
0000
,
0001
0000
0000
0000
,
1000
0000
1000
0000
,
1000
0000
0000
0000
,
0020
0000
0000
0000
,
0000
0000
0000
0000
,
0030
0000
0000
0000
,
0000
0000
0000
0000
;
#NOTES:
     dance-single:
     :
     Easy:
     7:
     :
0000
0000
0000
0000
,
0000
0000
0000
0000
,
0000
0000
0000
0000
,
0000
0000
0000
0000
,
0000
0000
0000
0000
,
0001
1000
0010
0100
,
0001
1000
0010
0100
,
0001
0010
0100
1000
,
0001
0010
0100
1000
,
0010
0000
0010
0000
,
0100
0000
0100
0000
,
0001
0000
0001
0000
,
1000
0000
1000
0000
,
0001
0001
0010
0100
,
1000
1000
0010
0100
,
0002
0000
2000
3003
,
1001
0000
0000
0000
,
0001
0101
1000
1100
,
0001
0010
0001
1000
,
0010
0110
0001
0011
,
1000
0000
1000
0000
0010
0010
0010
0000
,
1000
1100
0001
0101
,
1000
0100
1000
0001
,
0100
0110
1000
1100
,
0010
0000
0000
1001
,
1000
0100
0001
0100
,
1000
0100
0001
0100
,
1000
0010
0001
0010
,
1000
0010
0001
0010
,
1000
0100
0001
0100
,
1000
0010
0001
0010
,
1000
0100
0010
0001
,
0100
0010
1000
0001
,
1001
0000
0000
0000
,
0002
0100
0000
0103
,
2000
0010
0000
3010
,
0002
0100
0000
0103
,
2000
0010
0001
3100
,
0002
0010
1000
0103
,
0110
1001
0110
1001
,
0220
0000
0330
0000
,
0001
0100
0010
0001
,
0010
1000
0100
0001
,
0100
0010
0001
0100
,
1000
0000
0100
0000
0010
0010
0020
0000
,
1030
0100
0010
1000
,
0010
0001
0100
1000
,
0100
0010
1000
0001
,
0020
0230
2300
3020
,
0030
0000
0000
0000
,
0011
1000
0010
0100
,
0011
1000
0010
0100
,
1010
0001
0010
0100
,
1010
0001
0010
0100
,
1100
0001
0100
0010
,
1100
0001
0100
0010
,
0101
1000
0100
0010
,
0001
0000
1000
0000
,
0002
0103
2000
3100
,
0002
0103
2000
3100
,
0002
0013
2000
3010
,
0002
0013
2000
3010
,
0102
1003
2100
3001
,
0102
1003
2100
3001
,
1000
0010
0100
0001
,
0010
0100
1000
0010
,
0200
0000
0000
0000
,
0000
0000
0000
0000
,
0300
0000
0000
0000
,
0000
0000
0000
0000
;
#NOTES:
     dance-single:
     :
     Medium:
     12:
     :
0000
0000
0000
0000
,
0000
0000
0000
0000
,
0000
0000
0000
0000
,
0000
0000
0000
0000
,
0000
0000
0000
0000
,
1000
0000
0001
0000
1000
0100
0010
0000
,
0001
0000
1000
0000
0001
0100
0010
0000
,
1000
0000
0001
0000
0010
0001
0100
0000
,
0010
0000
0000
0000
1000
0000
0000
0001
0000
0000
0010
0000
0100
0000
0000
0000
,
1000
0000
0001
0000
0100
0000
0000
0010
0000
0000
0100
0000
0000
0001
0000
0000
,
0010
0000
0100
0000
1000
0000
0000
0010
0000
0000
0100
0000
0000
0001
0000
0000
,
1000
0000
0100
0000
0010
0000
0000
1000
0000
0000
0010
0000
0000
0001
0000
0000
,
0100
0000
0010
0000
1000
0000
0000
0001
0000
0000
0100
0000
0000
1000
0000
0000
,
0200
0010
0001
0010
,
0302
0010
1000
0103
,
0100
0010
1000
0010
0100
0010
1000
0001
,
0020
0000
0030
0000
,
0110
0000
1000
0000
0001
0000
0000
1000
0000
0000
0010
0000
0100
0000
0000
0000
,
0001
0000
0010
0000
0100
0000
0000
0001
0000
0000
0100
0000
1000
0000
0010
0000
,
0001
0000
0010
0000
0100
0000
0000
0001
0000
0000
1000
0000
0100
1000
0000
0010
,
0000
0100
0000
0001
0001
1000
0100
0000
,
0110
0000
0001
0000
1000
0000
0000
0001
0000
0000
0100
0000
0010
0000
0000
0000
,
1000
0000
0100
0000
0010
0000
0000
0001
0000
0000
1000
0000
0010
0100
0000
0001
,
0000
0000
0010
0000
0001
0010
0000
0100
0000
0000
1000
0000
0010
0000
0000
0100
,
0000
0000
0000
0000
0000
0000
0001
0001
,
1000
0010
0100
0010
1000
0100
1000
0010
,
0100
0010
1000
0100
1000
0010
0100
0000
,
0001
0010
0001
0100
0010
0100
0001
0010
,
0001
0100
0010
0100
0001
0010
0100
0000
,
0001
0100
1000
0010
0100
0001
0010
1000
,
0010
0001
0100
0010
1000
0000
0001
0100
,
0110
0000
0000
0000
0001
0000
0000
0000
1000
0000
0001
0000
0100
0000
0010
0200
,
0000
0000
0000
0000
,
0310
0000
0000
0000
,
0000
0001
0000
0001
,
0000
1000
0000
1000
,
0000
0010
0000
0010
,
0100
0001
1000
0001
,
0010
0100
1000
0001
,
0100
0001
0100
0001
1000
0010
0100
0001
,
0020
0000
0030
0000
,
0001
0100
0010
1000
0100
1000
0010
0100
,
0001
0010
0001
0100
0010
1000
0100
1000
,
0010
0100
0001
0010
0001
0100
0010
0100
,
0001
0000
0010
0000
0100
0000
1000
0000
0001
0100
0000
0100
0020
0000
0000
0000
,
1030
0100
1000
0010
0100
1000
0100
0010
,
0001
0010
0100
0001
0010
0001
1000
0100
,
1000
0010
0100
1000
0100
0010
0001
0010
,
0200
0000
0302
0000
0023
0000
0230
0000
1300
0000
1000
0000
0010
0000
0100
0001
,
2000
0000
0000
3000
,
0110
0000
0001
0000
1000
0000
0000
0001
0000
0000
0100
0000
0010
0000
0001
0000
,
0010
0000
0100
0000
0001
0000
0000
0010
0000
0000
0100
0000
1000
0000
0001
0000
,
0100
0000
0001
0000
0010
0000
0000
0100
0000
0000
1000
0000
0010
0100
0000
0010
,
0000
1000
0000
0001
0001
0010
0100
0000
,
0110
0000
1000
0000
0001
0000
0000
1000
0000
0000
0010
0000
0100
0000
1000
0000
,
0100
0000
0010
0000
1000
0000
0000
0001
0000
0000
0010
0000
0001
0100
0000
0010
,
0000
0000
1000
0000
0010
0100
0000
0001
0000
0000
0010
0000
0100
0000
0000
1000
,
0000
0000
0000
0000
0000
0000
0000
0001
0000
0000
0100
0000
0110
0000
0000
0000
,
0010
1000
0100
1000
0010
1000
0100
1000
,
0001
0100
0001
0010
0001
0100
0001
0010
,
0100
0001
0100
1000
0100
0001
0100
1000
,
0010
0001
0010
1000
0010
0001
0010
0010
,
0100
0001
0010
0001
0100
0010
1000
0100
,
1000
0010
0100
0001
1000
0000
0001
0010
,
0110
0000
0000
0000
1000
0000
0000
0000
0001
0000
1000
0000
0010
0000
0100
0020
,
0000
0000
1000
0000
0001
0000
1030
0100
,
0020
0000
0000
0000
,
0000
0000
0000
0000
,
0030
0000
0000
0000
,
0000
0000
0000
0000
;
#NOTES:
     dance-single:
     :
     Hard:
     16:
     :
0000
0000
0000
0000
,
0000
0000
0000
0000
,
0000
0000
0000
0000
,
0000
0000
0000
0000
,
0000
0000
0000
0000
,
1000
0000
1000
0000
0100
0000
0010
0001
0000
0100
0001
0000
1000
0020
0000
0000
,
0130
0000
0001
0000
1000
0000
0001
0200
0000
0000
0310
0000
1000
0100
0000
0002
,
0000
0000
0103
0000
1000
0000
0001
0200
0000
0000
0310
0000
1000
0200
0000
0000
,
0301
0000
0100
0000
1000
0000
0001
0020
0000
0000
0130
0000
0010
0001
1000
0001
,
0100
0000
0100
0000
0010
0000
0000
1000
0000
0001
1000
0010
1000
0001
0010
0000
,
0001
0000
0001
0000
1000
0000
0000
0100
0000
0010
0001
1000
0010
1000
0001
0000
,
0100
0000
0100
0000
0010
0000
0000
1000
0000
0001
1000
0010
0100
0001
1000
0000
,
0001
0000
0001
0000
0010
0000
0000
0100
0000
1000
0001
0100
0010
1000
0001
0000
,
1010
0101
0011
1100
,
1010
1000
0001
0000
0011
0001
1000
0000
,
1100
1000
0001
0100
0101
0001
1000
0010
,
0100
0000
0100
0000
0001
1000
0001
1000
0100
0000
0010
0000
2002
0000
3003
0000
,
0001
0000
0001
1000
0010
0000
1000
0001
0000
0010
0100
1000
0001
0100
0000
1000
,
0100
0000
0001
0000
0010
0000
0100
1000
0000
0001
0100
0010
1000
0001
1000
0100
,
0010
0000
0100
0000
1000
0000
0001
0200
0000
0000
1300
0000
0100
0001
1000
0100
,
0020
0200
0330
0100
1000
0001
1001
0000
,
1000
0000
1000
0001
0010
0000
0001
1000
0000
0010
0100
0001
1000
0100
0000
0001
,
0100
0000
1000
0000
0010
0000
0100
0001
0000
1000
0100
0000
1000
0010
0000
0001
,
0010
0100
0001
1000
0100
0010
0000
1000
0010
0100
1000
0001
0100
0010
0000
0220
,
0000
0000
0000
0000
0330
0000
0000
0000
0000
0000
0000
0000
0010
0000
0010
1000
,
0001
0000
1000
0010
0000
1000
0100
0010
0001
0000
1000
0020
0000
0000
0130
0001
,
1000
0000
0010
0000
0100
0001
0000
1000
0001
0010
0100
1000
0010
0100
0001
1000
,
0100
0000
1000
0001
0000
1000
0010
0100
0001
0000
1000
0200
0000
0000
0310
0001
,
1000
0000
0010
0000
0100
0001
0000
1000
0100
0010
0001
1000
1001
0000
0000
0000
,
0001
0000
1000
0010
0000
1000
0100
0010
0001
0000
0100
0020
0000
0000
0000
0000
,
0031
0000
0010
0000
1000
0100
0000
1000
0001
0100
0010
1000
0100
1000
0010
0100
,
0001
0000
1000
0200
0000
0000
0301
0000
0100
0000
1000
0000
0010
0100
0010
1000
,
0001
0010
0100
0010
0001
0100
1000
0100
0001
0010
0100
0010
0001
0100
1000
0100
,
0001
0000
0000
0000
,
1000
0000
1000
0000
0100
0000
0000
0010
0000
0001
0100
0000
0001
0010
0000
0000
,
0001
0000
0001
0000
0100
0000
0000
0010
0000
1000
0100
0000
1000
0010
0000
0000
,
0100
0000
0100
0000
0010
0000
0000
1000
0000
0001
0010
0000
0001
1000
0000
0000
,
0011
1100
1010
0101
,
0011
0001
1000
0000
1010
1000
0001
0000
,
0101
0001
1000
0100
1100
1000
0001
0010
,
0100
0000
0100
0000
1000
0001
1000
0001
0100
0000
0010
0000
2002
0000
3003
0000
,
1000
0001
0010
0001
1000
0010
1000
0001
0010
0100
0010
0001
0100
0010
0100
0001
,
1000
0010
1000
0001
0010
0001
1000
0010
0100
0010
1000
0100
0010
0100
1000
0001
,
0100
0010
1000
0100
1000
0010
0100
0001
1000
0100
0010
0100
1000
0010
0100
0001
,
1000
0100
0010
0001
0100
0001
0010
0100
1000
0010
0000
0010
0200
0000
0000
0000
,
0301
1000
0010
1000
0001
0010
0001
1000
0010
0100
0010
1000
0100
0010
0100
1000
,
0001
0100
0010
1000
0001
0010
0100
1000
0001
0100
0010
1000
0001
0010
0100
1000
,
0001
0100
0001
0010
0100
1000
0010
1000
0001
0010
0001
1000
0010
0100
0001
1000
,
0100
0000
1000
0001
0000
0010
0000
0001
1000
0001
1000
0010
0100
0000
0001
1000
,
0000
0000
0000
0000
0010
0100
2002
3003
,
1000
0000
1000
0100
0010
0000
0001
0100
0000
0010
1000
0001
1000
0100
0000
0001
,
0100
0000
1000
0000
0010
0000
0100
0001
0000
1000
0100
0010
0100
1000
0001
0100
,
1000
0000
0100
0000
0001
0000
1000
0200
0000
0000
0301
0000
0100
1000
0001
0100
,
0020
0200
0330
0100
0001
1000
1001
0000
,
0001
0000
0001
0100
0010
0000
1000
0001
0000
0010
0100
1000
0001
0100
0000
1000
,
0100
0000
0001
0000
0010
0000
0100
1000
0000
0001
0100
0000
0001
0010
0000
1000
,
0010
0001
1000
0001
0100
1000
0000
0001
0010
1000
0001
1000
0100
0001
0000
0220
,
0000
0330
0000
1001
,
1000
0000
0001
0010
0000
0001
0100
0010
1000
0000
0100
1000
0000
0010
0100
0001
,
1000
0000
0100
0000
0010
0001
0000
1000
0001
0100
0010
1000
0100
1000
0010
0100
,
0001
0000
0010
0001
0000
1000
0010
0100
0001
0000
0010
0100
0000
1000
0001
0100
,
1000
0000
0100
0000
0001
0010
0000
0001
0100
0010
1000
0001
1001
0000
0000
0000
,
1000
0000
0001
0100
0000
0001
0010
0100
1000
0000
0010
0200
0000
0000
0000
0000
,
1300
0000
0100
0000
0001
0010
0000
0100
1000
0001
0100
0010
1000
0100
0010
0001
,
0100
0000
0001
0020
0000
0000
1030
0000
0010
0000
0001
0000
0100
0010
0100
0001
,
1000
0100
0010
0100
1000
0010
0001
0010
1000
0100
0010
0100
1000
0010
0001
0010
,
2000
0000
0000
0000
,
0000
0000
0000
0000
,
3000
0000
0000
0000
,
0000
0000
0000
0000
;
#NOTES:
     dance-double:
     :
     Easy:
     7:
     :
00000000
00000000
00000000
00000000
,
00000000
00000000
00000000
00000000
,
00000000
00000000
00000000
00000000
,
00000000
00000000
00000000
00000000
,
00000000
00000000
00000000
00000000
,
00001000
00010000
01000000
10000000
,
10000000
01000000
00010000
00001000
,
00010000
00001000
00000100
00000001
,
00000001
00000100
00001000
00010000
,
00001000
01000000
00010000
00000000
,
00010000
00100000
01000000
00000000
,
00010000
00001000
00000100
00000000
,
00000010
00001000
00000100
00000000
,
00000010
00000010
00000001
00000001
,
00000100
00000110
00001000
00001100
,
00020000
00000000
00002000
00000000
,
00033000
00000000
00000000
00000000
,
00011000
00010000
00000100
00001000
,
00000010
00000001
00000010
00001000
,
00000100
00010000
00001000
00010000
,
01000000
00100000
00001000
00010000
,
00011000
00001000
00100000
00010000
,
01000000
10000000
01000000
00010000
,
00100000
00001000
00010000
00001000
,
00000010
00000000
00000100
00000000
,
00010000
00001000
00000100
00001000
,
00010000
00001000
00000100
00001000
,
00010000
00001000
00000010
00001000
,
00010000
00001000
00001000
00010000
,
00001000
00010000
00100000
00010000
,
00001000
00010000
00100000
00010000
,
00001000
00001000
00010000
01000000
,
10000000
00100000
01000000
00010000
,
10010000
00000000
00000000
00000000
,
20000000
00100000
00000000
30100000
,
00020000
01000000
00000000
01030000
,
00002000
00010000
00000000
00013000
,
00001000
00001000
00000100
00000100
,
00000010
00000010
00001000
00001000
,
00000001
00000010
00000100
00001000
,
00002002
00000000
00003003
00000000
,
00000001
00000100
00001000
00010000
,
00100000
01000000
00100000
00010000
,
00001000
00010000
01000000
10000000
,
01000000
00010000
00001000
00000020
,
00000130
00010000
00001000
00000100
,
00000001
00000010
00001000
00010000
,
01000000
10000000
00100000
01000000
,
00020000
00230000
00302000
00023000
,
00030000
00000000
00000000
00000000
,
00011000
00001000
01000000
00010000
,
00100000
10000000
00100000
00001000
,
00010000
00100000
10000000
00100000
,
00010000
00001000
00010000
00000000
,
00011000
00010000
00000100
00001000
,
00000010
00000001
00000010
00010000
,
00001000
00000010
00000001
00000010
,
00001000
00000000
00010000
00000000
,
00001000
00010000
01000000
00010000
,
00001000
00000100
00001000
00010000
,
00001000
00000010
00001000
00010000
,
00100000
00010000
00001000
00010000
,
01000000
00010000
00001000
00000100
,
00001000
00010000
01000000
00010000
,
00001000
00001000
00010000
00010000
,
00000100
00001000
00000010
00000100
,
00000020
00000000
00000000
00000000
,
00000000
00000000
00000000
00000000
,
00000030
00000000
00000000
00000000
,
00000000
00000000
00000000
00000000
;
#NOTES:
     dance-double:
     :
     Medium:
     12:
     :
00000000
00000000
00000000
00000000
,
00000000
00000000
00000000
00000000
,
00000000
00000000
00000000
00000000
,
00000000
00000000
00000000
00000000
,
00000000
00000000
00000000
00000000
,
00001000
00000000
00010000
00000000
01000000
00100000
00010000
00000000
,
10000000
00000000
00100000
00000000
00010000
00001000
00100000
00000000
,
00001000
00000000
00010000
00000000
00001000
00000010
00000001
00000000
,
00000001
00000000
00000100
00000000
00000010
00000000
00000000
00010000
00000000
00000000
00001000
00000000
00010000
00000000
00000000
00000000
,
00001000
00000000
01000000
00000000
00010000
00000000
00000000
00100000
00000000
00000000
01000000
00000000
00000000
10000000
00000000
00000000
,
00010000
00000000
01000000
00000000
00100000
00000000
00000000
00010000
00000000
00000000
00001000
00000000
00000000
00000100
00000000
00000000
,
00000010
00000000
00001000
00000000
00000001
00000000
00000000
00000010
00000000
00000000
00000100
00000000
00000000
00001000
00000000
00000000
,
00000010
00000000
00010000
00000000
00001000
00000000
00000000
00000100
00000000
00000000
00001000
00000000
00000000
00010000
00000000
00000000
,
02000000
00100000
00100000
00100000
,
23000000
00100000
00100000
30100000
,
00100000
01000000
00100000
01000000
00001000
00010000
00000100
00000010
,
00000002
00000000
00000003
00000000
,
00000001
00000000
00000100
00000000
00001000
00000000
00000000
00100000
00000000
00000000
00001000
00000000
00010000
00000000
01000000
00000000
,
10000000
00000000
00100000
00000000
00010000
00000000
00000000
00001000
00000000
00000000
00010000
00000000
01000000
00000000
00100000
00000000
,
00001000
00000000
00010000
00000000
00001000
00000000
00000000
00000100
00000000
00000000
00000010
00000000
00010000
00001000
00000000
00010000
,
00000000
00000100
00000000
00000010
00001000
00010000
01000000
00000000
,
10000000
00000000
00100000
00000000
00010000
00000000
00000000
00000010
00000000
00000000
00010000
00000000
00001000
00000000
00000010
00000000
,
00000001
00000000
00000100
00000000
00001000
00000000
00000000
00010000
00000000
00000000
00001000
00000000
01000000
00100000
00000000
00010000
,
00000000
00000000
00001000
00000000
00010000
00000100
00000000
00000010
00000000
00000000
00001000
00000000
00010000
00000000
00000000
00001000
,
00000000
00000000
00000000
00000000
00000000
00000000
00001000
00001000
,
00010000
00001000
00000100
00000010
00010000
00001000
00000100
00000010
,
00010000
00001000
00000100
00000010
00001000
00000100
00010000
00000000
,
00001000
00010000
01000000
00100000
00001000
00010000
01000000
00100000
,
00001000
00010000
01000000
00100000
00010000
01000000
00001000
00000000
,
00010000
00001000
00000100
00000010
00000100
00001000
00010000
00001000
,
00000010
00000100
00000010
00001000
00010000
00001000
00000100
00000000
,
00000001
00000000
00000010
00000000
00000100
00000000
00000000
00000000
00001000
00000000
00000010
00000000
00010000
00000000
00001000
00020000
,
00000000
00000000
00000000
00000000
,
00031000
00000000
00000000
00000000
,
00000000
00001000
00000000
00001000
,
00000000
00001000
00000000
00001000
,
00000000
00001000
00000000
00001000
,
00010000
00010000
01000000
01000000
,
10000000
10000000
00100000
00100000
,
01000000
00010000
01000000
00010000
10000000
00100000
01000000
00010000
,
00200000
00000000
00300000
00000000
,
00001000
00010000
00001000
00000010
00000001
00000100
00001000
00010000
,
00001000
00000100
00000010
00001000
00000100
00000010
00000001
00000010
,
00001000
00010000
00000010
00010000
00001000
00000100
00001000
00010000
,
01000000
10000000
00100000
00010000
00001000
00100000
02000000
00000000
,
13000000
00100000
00010000
00100000
00010000
00001000
00010000
01000000
,
00010000
00001000
00000010
00000001
00000010
00000100
00001000
00000001
,
00000100
00001000
00010000
00100000
01000000
00001000
00010000
01000000
,
20000000
00000000
32000000
00000000
03200000
00000000
00320000
00000000
10030000
00000000
10000000
00000000
00100000
00000000
01000000
00010000
,
20000000
00000000
00000000
30000000
,
10000000
00000000
01000000
00000000
00010000
00000000
00000000
00000010
00000000
00000000
00010000
00000000
00001000
00000000
00000100
00000000
,
00000001
00000000
00000010
00000000
00001000
00000000
00000000
00010000
00000000
00000000
00001000
00000000
00000100
00000000
00000010
00000000
,
00010000
00000000
00001000
00000000
00010000
00000000
00000000
01000000
00000000
00000000
00100000
00000000
00001000
00010000
00000000
00001000
,
00000000
01000000
00000000
00100000
00010000
00001000
00000100
00000000
,
00000001
00000000
00000010
00000000
00001000
00000000
00000000
00100000
00000000
00000000
00001000
00000000
00010000
00000000
00100000
00000000
,
10000000
00000000
01000000
00000000
00010000
00000000
00000000
00001000
00000000
00000000
00010000
00000000
00000100
00000010
00000000
00001000
,
00000000
00000000
00010000
00000000
00001000
01000000
00000000
00100000
00000000
00000000
00010000
00000000
00001000
00000000
00000000
00010000
,
00000000
00000000
00000000
00011000
,
00001000
00010000
00100000
01000000
00001000
00010000
01000000
00100000
,
00001000
00010000
00100000
01000000
00010000
00100000
00001000
00000000
,
00010000
00001000
00000100
00000010
00010000
00001000
00000010
00000100
,
00010000
00001000
00000100
00000010
00001000
00000100
00010000
00000000
,
00001000
00010000
00100000
01000000
00010000
00100000
01000000
00010000
,
00001000
00010000
00100000
01000000
00001000
00010000
01000000
00000000
,
10000000
00000000
00100000
00000000
01000000
00000000
00000000
00000000
00010000
00000000
00100000
00000000
00001000
00000000
00010000
00002000
,
00000000
00000100
00010000
00100000
,
00023000
00000000
00000000
00000000
,
00000000
00000000
00000000
00000000
,
00030000
00000000
00000000
00000000
,
00000000
00000000
00000000
00000000
;
#NOTES:
     dance-double:
     :
     Hard:
     16:
     :
00000000
00000000
00000000
00000000
,
00000000
00000000
00000000
00000000
,
00000000
00000000
00000000
00000000
,
00000000
00000000
00000000
00000000
,
00000000
00000000
00000000
00000000
,
00001000
00000000
00001000
00000000
00010000
00000000
00000010
00000100
00000000
00001000
00010000
00000000
00001000
00100000
00000000
00000000
,
01000000
00000000
00010000
00000000
00001000
00000000
00010000
00000010
00000000
00000000
00000100
00000000
00001000
00010000
00000000
01000000
,
00000000
00000000
10000000
00000000
00100000
00000000
01000000
00010000
00000000
00000000
10000000
00000000
01000000
00010000
00000000
00001000
,
00000010
00000000
00000001
00000000
00001000
00000000
00000010
00000100
00000000
00000000
00000001
00000000
00001000
00000100
00001000
00000100
,
00000010
00000000
00001000
00000000
00010000
00000000
00000000
00001000
00000000
00010000
00100000
00000000
10000000
00100000
01000000
00000000
,
00010000
00000000
10000000
00000000
01000000
00000000
00000000
00010000
00000000
00001000
00000010
00000000
00001000
00010000
00000100
00000000
,
00000010
00000000
00000001
00000000
00000100
00000000
00000000
00001000
00000000
00010000
00100000
00000000
00010000
00001000
00100000
00000000
,
01000000
00000000
10000000
00000000
00100000
00000000
00000000
01000000
00000000
00001000
00010000
00000000
00000100
00001000
00000000
00000000
,
00001200
00000301
00001200
00010300
,
00001200
00000301
00001200
00010300
,
00000100
00010000
01000000
10000000
00100000
01000000
00010000
00100000
,
00110000
00000000
00000000
00000000
00001000
00000100
00000001
00000000
,
00000010
00000000
00000001
00000100
00000010
00000000
00010000
00001000
00000000
01000000
00100000
00000000
00010000
00001000
00000000
00010000
,
01000000
00000000
10000000
00000000
01000000
00000000
00010000
00001000
00000000
00000010
00000001
00000010
00000100
00001000
00000001
00000100
,
00000010
00000000
00001000
00000000
00000001
00000000
00000100
00001000
00000000
00010000
00100000
00000000
00010000
00001000
00000000
00100000
,
00001000
00000000
00010000
00000000
00000000
00000000
00100000
00000000
00010000
00000000
00001000
00000000
00000100
00000010
00000000
00000010
,
00001000
00000000
00000100
00000010
00000001
00000000
00000100
00001000
00000000
00010000
00100000
00000000
10000000
01000000
00000000
00010000
,
00001000
00000000
00000010
00000000
00000001
00000000
00000100
00001000
00000000
00001000
00010000
00000000
00010000
01000000
00000000
10000000
,
01000000
00100000
00010000
00000000
01000000
00100000
00000000
00010000
00001000
00010000
00000010
00000000
00001000
00000001
00000000
00000200
,
00000000
00000000
00000000
00000000
00000300
00000000
00000000
00000000
00000000
00000000
00000000
00000000
00000010
00000000
00000010
00001000
,
00000001
00000000
00000010
00000100
00000000
00000000
00001000
00000100
00010000
00000000
00001000
01000000
00000000
00000000
00010000
00100000
,
01000000
00000000
10000000
00000000
00100000
00000000
01000000
00010000
00100000
00001000
00010000
00000100
00001000
00000010
00000100
00000001
,
00000010
00000000
00000100
00001000
00000000
00000000
00000010
00010000
00001000
00000000
00000100
00001000
00000000
00000000
00010000
00000100
,
00001000
00000000
00000010
00000000
00000100
00000001
00000000
00000100
00000010
00001000
00000001
00000010
00001000
00000000
00000000
00000000
,
00100000
00000000
00001000
00010000
00000000
00100000
01000000
00010000
10000000
00000000
00100000
01000000
00000000
00010000
00100000
00001000
,
00010000
00000000
01000000
00000000
00010000
00001000
00000000
00000010
00000100
00001000
00000001
00001000
00000001
00000100
00000010
00001000
,
00000001
00000100
00001000
00010000
01000000
10000000
00100000
01000000
,
00010000
00100000
00010000
10000000
00100000
10000000
00010000
00100000
01000000
10000000
00100000
10000000
00010000
01000000
00010000
00100000
,
01000000
00000000
00000000
00000000
,
10000000
00000000
10000000
00000000
01000000
00000000
00000000
00100000
00000000
00010000
00100000
00000000
00001000
00010000
00000000
00000000
,
00000100
00000000
00000100
00000000
00001000
00000000
00000000
00000010
00000000
00000100
00000010
00000000
00001000
00000010
00000000
00000000
,
00010000
00000000
00010000
00000000
00001000
00000000
00000000
00100000
00000000
00010000
00100000
00000000
00001000
00100000
00000000
00000000
,
00001000
00010000
01000000
10000000
,
00100000
10000000
01000000
00000000
00100000
00010000
01000000
00000000
,
00001000
00001000
00010000
00010000
00000100
00000100
00001000
00001000
,
00000001
00000100
00000010
00001000
00002002
00000000
00003003
00000000
,
00000001
00000010
00000001
00000010
00000100
00001000
00000001
00000100
00000010
00001000
00000010
00001000
00000100
00010000
00001000
00100000
,
00010000
10000000
00010000
10000000
00100000
01000000
00010000
10000000
01000000
00100000
01000000
00100000
00010000
00100000
00001000
00010000
,
00000100
00001000
00000100
00001000
00000100
00000010
00000001
00001000
00000010
00000100
00000010
00000100
00000001
00001000
00000001
00000010
,
00000100
00001000
00000100
00001000
00000010
00010000
00001000
00010000
00000100
00001000
00000100
00010000
00002000
00000000
00000000
00000000
,
01003000
00100000
10000000
00010000
10000000
01000000
00100000
00010000
00100000
00001000
00010000
00001000
00010000
00000100
00001000
00000100
,
00010000
00001000
00010000
00000010
00001000
00000001
00000010
00000100
00001000
00000010
00010000
00001000
01000000
00010000
00100000
00001000
,
00010000
00001000
01000000
00010000
10000000
00100000
01000000
00010000
01000000
00100000
10000000
00010000
10000000
01000000
00100000
00010000
,
10000000
00000000
01000000
00010000
00000000
00001000
00000000
00000010
00000001
00000010
00000100
00000000
00001000
00000000
00000001
00000100
,
00000000
00000000
00000000
00000000
00001000
00010000
00002000
00003000
,
00100000
00000000
00010000
01000000
00100000
00000000
10000000
01000000
00000000
00010000
00001000
00000000
00000100
00000001
00000000
00000010
,
00000100
00000000
00010000
00000000
01000000
00000000
10000000
00010000
00000000
01000000
00100000
01000000
00010000
10000000
00010000
00100000
,
01000000
00000000
10000000
00000000
01000000
00000000
00010000
00001000
00000000
00000010
00000001
00000000
00001000
00000010
00000100
00000001
,
00001000
00000000
00000200
00000000
00000000
00000000
00000310
00000000
00001000
00000000
00010000
00000000
01000000
10000000
00000000
10000000
,
00100000
00000000
01000000
00000000
00010000
00000000
00100000
01000000
00000000
10000000
00100000
00000000
00010000
00001000
00000000
00000010
,
00000001
00000000
00000010
00000000
00000100
00000000
00010000
00001000
00000000
00001000
00000100
00000000
00000100
00000001
00000000
00000001
,
00000010
00000000
00000100
00000000
00010000
00001000
00000000
00010000
01000000
00000000
10000000
01000000
00100000
00000000
00000000
20020000
,
00000000
30030000
00000000
10010000
,
10000000
00000000
00100000
01000000
00000000
00000000
00010000
00100000
00001000
00000000
00010000
00000010
00000000
00000000
00001000
00000100
,
00000010
00000000
00000001
00000000
00000010
00000000
00000100
00001000
00000010
00010000
00001000
01000000
00010000
00100000
01000000
10000000
,
00100000
00000000
01000000
00010000
00000000
00000000
00100000
00001000
00010000
00000000
01000000
00010000
00000000
00000000
00001000
01000000
,
00010000
00000000
00100000
00000000
00010000
10000000
00000000
01000000
00100000
00010000
10000000
00100000
00010000
00000000
00000000
00000000
,
00000100
00000000
00010000
00001000
00000000
00000010
00000001
00000010
00000100
00000000
00001000
00000010
00000000
00010000
00001000
00010000
,
00001000
00000000
00000100
00000000
00001000
00010000
00000000
01000000
10000000
01000000
00100000
00010000
10000000
00010000
01000000
00100000
,
10000000
00000000
01000000
00000000
00010000
00000000
00001000
00000000
00000100
00000000
00000001
00000000
00000010
00000001
00000000
00001000
,
00000010
00000100
00000001
00000010
00000100
00001000
00000010
00010000
00001000
00010000
00001000
00010000
00100000
01000000
10000000
01000000
,
00200000
00000000
00000000
00000000
,
00000000
00000000
00000000
00000000
,
00300000
00000000
00000000
00000000
,
00000000
00000000
00000000
00000000
;
