
//----- song ID: gkrb -----//
#TITLE:月光乱舞;
#ARTIST:P*Light;
#TITLETRANSLIT:Gekkou ranbu;
#BANNER:Gekkou ranbu.png;
#BACKGROUND:Gekkou ranbu-bg.png;
#CDTITLE:./CDTitles/SDVX III GRAVITY WARS.png;
#MUSIC:Gekkou ranbu.ogg;
#SAMPLESTART:12.903;
#SAMPLELENGTH:15;
#BPMS:0=186;
#BGSTAGE:31;
#NOTES:
     dance-single:
     :
     Beginner:
     3:
     :
0000
0000
0000
0000
,
0000
0000
0000
0000
,
0000
0000
0000
0000
,
0000
0000
0000
0000
,
0000
0000
0000
0000
,
0000
0000
0000
0000
,
1001
0000
0000
0000
,
0110
0000
0000
0000
,
1001
0000
0000
0000
,
0110
0000
0000
0000
,
0001
0000
0001
0000
,
1000
0000
0000
0000
,
1000
0000
1000
0000
,
0010
0000
0000
0000
,
0010
0000
0010
0000
,
0100
0000
0000
0000
,
0100
0000
0100
0000
,
0001
0000
0000
0000
,
1000
0000
0001
0000
,
0001
0000
0000
0000
,
0001
0000
0100
0000
,
0100
0000
0000
0000
,
0010
0000
0010
0000
,
0010
0000
0010
0000
,
0010
0000
0010
0000
,
0010
0000
0000
0000
,
0110
0000
0000
0000
,
0001
0000
0000
0000
,
1000
0000
0000
0000
,
0001
0000
0000
0000
,
1001
0000
0000
0000
,
1000
0000
0000
0000
,
0001
0000
0000
0000
,
0200
0000
0000
0000
,
0300
0000
0000
0000
,
0001
0001
0001
0000
,
1000
0000
0000
0000
,
0010
0000
0010
0000
,
0010
0000
0000
0000
,
1000
0000
0000
0000
,
0100
0000
0100
0000
,
0100
0000
0000
0000
,
1000
0000
0000
0000
,
0010
0000
0010
0000
,
0010
0000
0000
0000
,
0100
0000
0000
0000
,
0001
0000
0000
0000
,
1000
0000
0000
0000
,
0001
0000
0001
0000
,
0001
0000
0001
0000
,
1001
0000
0000
0000
,
0110
0000
0000
0000
,
1001
0000
0000
0000
,
0000
0000
0000
0000
,
0002
0000
0003
0000
,
0020
0000
0030
0000
,
0200
0000
0300
0000
,
0000
0000
0000
0000
,
2000
0000
3000
0000
,
0200
0000
0300
0000
,
0020
0000
0030
0000
,
0000
0000
0000
0000
,
0001
0000
0001
0000
,
0001
0000
0000
0000
,
1000
0000
1000
0000
,
1000
0000
0000
0000
,
0001
0000
0001
0000
,
0001
0000
0000
0000
,
1000
0000
1000
0000
,
1000
0000
0000
0000
,
0010
0000
0010
0000
,
0100
0000
0000
0000
,
0010
0000
0010
0000
,
1000
0000
0000
0000
,
0001
0000
0100
0000
,
0100
0000
0000
0000
,
0010
0000
0100
0000
,
0100
0000
0000
0000
,
0001
0000
1000
0000
,
0001
0000
0000
0000
,
0100
0000
0010
0000
,
0100
0000
0000
0000
,
0110
0000
0000
0000
,
1001
0000
0000
0000
,
0110
0000
1001
0000
,
0110
0000
0000
0000
,
0020
0000
0000
0000
,
0000
0000
0000
0000
,
0030
0000
0000
0000
,
0000
0000
0000
0000
;
#NOTES:
     dance-single:
     :
     Easy:
     8:
     :
0000
0000
0000
0000
,
0000
0000
0000
0000
,
0000
0000
0000
0000
,
0000
0000
0000
0000
,
0000
0000
0000
0000
,
0000
0000
0000
0000
,
1001
0000
1000
0100
,
0001
0000
0001
0100
,
1000
1000
0010
0100
,
1001
0000
0000
0000
,
0001
1000
0001
0100
,
0010
1000
0010
0100
,
0001
0010
1000
0010
,
0001
0100
0010
0000
,
0010
1000
0100
1000
,
0001
0100
0010
1000
,
0100
0001
0100
1000
,
0000
0010
0000
0000
0220
0000
0330
0000
,
0001
0100
0010
0100
,
0001
1000
0100
1000
,
0010
0100
0001
0010
,
0100
1000
0001
0100
,
0010
0000
1000
0100
,
0001
0000
0001
0100
,
1000
0010
0100
0001
,
0000
0010
0000
0000
2002
0000
3003
0000
,
1000
1000
0100
0100
,
0010
0010
0100
0100
,
1000
1000
0010
0010
,
0100
0100
0010
0010
,
1010
0000
0001
0100
,
0101
0000
1000
0100
,
1100
0000
0011
0000
,
1001
0110
2002
0000
,
3003
0000
0000
0000
,
0110
1001
0110
0000
,
0001
1000
0010
0001
,
0010
0100
0001
0010
,
0100
0000
0100
0010
,
0001
0100
1000
0100
,
0001
0011
0010
0100
,
1000
0010
0001
0010
,
0100
0000
0100
0001
,
1000
0100
0001
0100
,
2000
0100
0100
0100
,
0001
0001
0001
0001
,
3020
0100
0100
0100
,
2030
0001
0001
3001
,
0011
0000
0110
0000
,
1100
0000
1001
0000
,
0001
0100
0010
1000
,
1001
0110
2002
0000
,
3003
0000
0000
0000
,
0000
0000
0001
0100
,
0002
0003
0100
0001
,
0200
0300
0001
0100
,
0001
0010
0100
1000
,
0200
0300
1000
0100
,
2000
3000
0100
1000
,
0200
0300
1000
0100
,
1000
0010
0100
0001
,
0200
0000
0000
0310
,
1010
1000
1000
1000
,
0001
0001
0001
0001
,
0100
0100
0100
0100
,
0010
0010
0010
0000
,
1010
0000
0101
0001
,
0011
0000
1100
1000
,
1020
0000
0000
0000
,
0130
0001
1000
1001
,
0001
0010
0100
1000
,
0001
0100
0010
0100
,
0001
0011
1000
1100
,
0001
0100
0010
0100
,
0001
0010
0100
1000
,
1000
0010
0100
0010
,
0220
0330
1001
0110
,
0000
1001
0000
0000
0220
0000
0330
0000
,
0001
1000
0100
1000
,
0010
0100
0001
0010
,
1000
0010
0001
0100
,
1000
0100
0001
0010
,
0100
1100
0100
1100
,
0010
0011
0010
0011
,
1000
0010
0100
0001
,
1001
0000
0000
0010
0000
0000
1001
0000
,
0200
0000
0000
0000
,
0000
0000
0000
0000
,
0300
0000
0000
0000
,
0000
0000
0000
0000
;
#NOTES:
     dance-single:
     :
     Medium:
     12:
     :
0000
0000
0000
0000
,
0000
0000
0000
0000
,
0000
0000
0000
0000
,
0000
0000
0000
0000
,
0000
0000
0000
0000
,
0000
0000
0000
0000
,
0110
0010
0010
1000
,
1001
0001
0001
0010
,
0110
0000
1100
0000
1000
0010
0100
0001
,
0020
0032
0203
0320
,
1030
0000
0010
0000
1000
0100
0010
0001
,
1000
0000
0010
0000
1000
0100
0010
0001
,
1000
0000
0000
0010
0000
0000
0001
0000
0010
0000
0100
0000
0001
0000
0000
0000
,
0010
0000
0011
0000
1000
0100
0010
0001
,
1000
0000
0010
0000
1000
0100
0010
0001
,
1000
0000
0010
0000
1000
0100
0010
0001
,
1000
0000
0000
0010
0000
0000
0100
0000
0001
0000
1000
0000
0001
0000
0010
0000
,
0000
0000
1100
0000
0000
0010
0000
0000
2002
0000
3000
0000
0003
0000
0000
0000
,
0001
0000
0000
0010
0000
0000
0100
0000
1000
0000
0100
0000
1000
0000
0000
0000
,
0001
0000
0000
0100
0000
0000
0010
0000
0100
0000
0010
0000
0100
0000
0000
0000
,
0010
0000
0000
1000
0000
0000
0001
0000
0010
0000
0001
0000
0010
0000
0000
0000
,
0100
0000
0000
0010
0000
0000
0001
0000
1000
0000
0001
0000
1000
0000
0000
0000
,
1100
0000
1100
0000
0100
0010
0001
0000
,
0101
0000
0101
0000
0100
0010
1000
0000
,
0001
0000
0000
0100
0000
0000
0001
0000
0010
0000
0100
0000
1000
0000
0001
0000
,
0000
0000
0101
0000
0000
0010
0000
0000
2002
0000
3000
0000
0003
0000
0000
0000
,
2000
0100
0100
0100
,
0100
0100
0100
0100
,
3200
0010
0010
0010
,
0320
0001
0001
0031
,
1001
0000
1000
0100
1000
0010
1000
0000
,
1001
0000
0001
0100
0001
0010
0001
0000
,
0100
0001
0010
0000
0100
1000
0010
0000
,
1000
0001
1000
0001
0010
0100
1000
0010
,
0100
0000
0000
0000
,
0010
0010
0010
0010
0010
0000
0000
0000
,
0100
0001
1000
0000
0001
0010
0100
0000
,
1000
0100
1000
0100
0010
0000
0001
0100
,
1000
0000
0000
0100
0010
0000
1000
0000
,
0001
0010
0100
0000
1000
0010
0001
0000
,
0010
0000
0110
0000
0100
0001
1000
0000
,
0001
0010
0001
0010
0100
0000
1000
0010
,
0001
0000
0000
0010
0100
0000
0001
0000
,
1000
0100
1000
0100
0010
0000
0011
0000
,
0002
1000
0010
1000
,
0100
1000
0010
1000
,
0203
0010
1000
0001
,
0320
1000
0001
0100
,
2030
0000
0100
0000
0001
0001
3001
0000
,
0002
0000
0010
0000
1000
1000
1003
0000
,
0001
0000
0000
0100
0000
0000
0001
0000
1000
0000
0000
0010
0000
0000
1000
0000
,
0001
0100
0001
0100
0001
0010
0100
1000
,
0001
0000
0000
0000
,
0000
0000
0000
0000
1000
0100
1000
0100
,
2000
0000
3000
0000
0001
0100
0001
0100
,
0002
0000
0003
0000
1000
0010
1000
0010
,
0200
0302
2003
3200
,
0320
0000
0030
0000
0001
0010
0001
0010
,
0002
0000
0003
0000
1000
0010
1000
0010
,
2000
0000
3000
0000
0001
0100
0001
0100
,
0020
2030
3002
0023
,
0230
0000
0000
0310
,
0001
0000
0001
1000
0001
0000
0001
0000
,
0100
0000
0100
0010
0100
0000
0100
0000
,
0001
0000
0001
0010
0100
0000
0100
0000
,
1000
0000
1000
0010
0100
0000
0100
0000
,
0001
0010
0001
0000
1000
0100
1000
0000
,
0010
0100
0010
0000
1000
0001
1000
0000
,
0001
0010
0100
1000
0001
0010
0100
1000
,
0002
0203
0310
1001
,
0001
0000
0100
0000
0001
0010
0100
0000
,
1000
0000
0010
0000
1000
0100
0001
0000
,
0100
0000
0000
1000
0000
0000
0010
0000
0000
0100
0000
0000
0010
0000
1000
0000
,
0001
0000
0000
0010
0000
0000
0100
0000
0000
1000
0000
0000
0010
0000
0100
0000
,
0001
0000
1000
0000
0001
0010
0100
0000
,
1000
0000
0010
0000
0100
0010
1000
0000
,
0001
0000
0000
0001
0000
0000
0001
0000
0010
0000
0100
0000
1000
0000
0010
0000
,
0000
0000
0100
0000
0000
1010
0000
0000
0100
0000
0000
1001
0000
0000
0000
0000
,
1000
0100
1000
0001
1000
0010
0001
0000
,
0010
0100
0001
1000
0001
0010
1000
0000
,
0010
0000
0000
0100
0000
0000
1000
0000
0000
0001
0000
0000
0100
0000
0010
0000
,
0100
0000
0000
0001
0000
0000
0010
0000
0000
0100
0000
0000
0010
0000
0001
0000
,
1000
0010
0100
0001
1000
0100
0001
0000
,
0100
0010
0001
1000
0001
0100
1000
0000
,
0100
0000
0000
0010
0000
0000
0100
0000
0001
0000
1000
0000
0100
0000
0010
0000
,
0001
0000
0000
0011
0000
0000
1010
0000
0000
0110
0000
0000
1001
0000
0000
0000
,
0200
0000
0000
0000
,
0000
0000
0000
0000
,
0300
0000
0000
0000
,
0000
0000
0000
0000
;
#NOTES:
     dance-single:
     :
     Hard:
     15:
     :
0000
0000
0000
0000
,
0000
0000
0000
0000
,
0000
0000
0000
0000
,
0000
0000
0000
0000
,
0000
0000
0000
0000
,
0000
0000
0000
0000
0001
0100
1000
0100
,
0001
0000
0010
0000
0001
0100
1000
0100
,
0001
0000
0010
0000
0001
0100
1000
0100
,
0001
0000
0010
0000
0001
0000
0100
0000
0010
1000
0010
1000
0001
0010
0001
0010
,
0200
0000
2300
0000
3001
0010
1000
0010
,
0001
0000
0000
0100
0000
0000
0010
0000
1000
0000
0100
0000
0001
0000
0100
0000
,
1000
0000
0000
0100
0000
0000
0010
0000
0001
0000
0100
0000
1000
0000
0100
0000
,
0001
0000
0010
0001
0000
0001
0100
0000
0010
0000
0001
0000
0010
0000
1000
0000
,
0001
0000
0000
0010
0000
0000
0100
0000
1000
0000
0010
0000
0001
0000
0010
0000
,
1000
0000
0000
0100
0000
0000
0010
0000
0001
0000
0100
0000
1000
0000
0100
0000
,
0001
0000
0000
0100
0000
0000
0010
0000
1000
0000
0100
0000
0001
0000
0100
0000
,
1000
0000
0000
1010
0000
0000
0101
0000
0001
0000
0010
0000
0100
0000
1000
0000
,
0000
0000
1100
0000
0000
0011
0000
0000
2002
0000
3000
0000
0003
0000
0000
0000
,
0001
0000
0100
0010
0000
0010
1000
0000
0100
0000
0010
0000
1000
0000
0010
0000
,
0001
0000
1000
0010
0000
0010
0100
0000
0001
0000
0010
0000
0100
0000
0001
0000
,
0100
0000
1000
0001
0000
0001
0100
0000
0010
0000
0001
0000
0010
0000
1000
0000
,
0100
0000
0010
0001
0000
0001
0100
0000
0001
0000
0010
0000
0010
0000
0100
0000
,
1000
0000
0100
1000
0000
0010
0100
0000
1000
0000
0100
0000
0001
0000
0010
0000
,
1000
0000
0010
0001
0000
0100
0010
0000
0001
0000
0010
0000
1000
0000
0100
0000
,
0001
0000
0100
0010
0000
0001
0100
0000
0001
1000
0001
1000
0100
0010
0001
0000
,
0000
0000
1100
0000
0000
1010
0000
0000
2002
0000
3000
0000
0003
0000
0000
0000
,
1000
0000
0000
0100
0000
0000
0010
0000
0000
0000
0001
0000
0001
0000
0001
0000
,
1000
0000
0000
0000
0000
0000
0000
0000
0000
0010
0000
0000
0000
0000
0000
0000
0000
0000
0100
0000
0000
0000
0000
0000
0001
0000
0000
0000
1000
0000
0000
0000
0100
0000
0000
0000
1000
0000
0000
0000
0000
0000
0000
0000
0010
0000
0000
0000
,
0100
0000
0000
0001
0000
0000
0010
0000
0000
0000
0001
0000
0001
0000
0001
0000
,
1000
0000
0000
0010
0000
0000
0100
0000
0010
0000
1000
0000
0001
1000
0001
1000
,
0001
0010
0100
1000
0100
1000
0100
0010
,
0011
0001
0100
0010
1000
0010
0100
0001
,
0011
1000
0100
0000
1010
0001
0100
0000
,
0010
1000
0010
0000
0100
0001
0100
0000
0010
1000
0010
1000
0001
0010
0001
0010
,
0100
0000
0000
0000
,
0011
1000
0100
0010
2002
0000
3003
0000
,
1000
0010
0100
1000
0100
0001
0010
0100
,
0001
0100
1000
0020
0001
0000
1030
0002
,
0100
0000
0000
0013
0200
0000
1000
0000
,
0301
0100
1000
0010
0001
0010
1000
0000
,
0001
1000
0001
1000
0001
0000
0010
0000
0100
0000
1000
0000
0010
0000
0100
0000
,
1000
0100
0001
0020
1000
0000
0031
2000
,
0100
0000
0000
3010
0200
0000
0001
0000
,
1300
0100
0001
0010
1000
0010
0001
0000
,
0001
0000
1000
0000
0010
0000
0100
0000
0010
0000
1000
0000
0001
0000
1000
0100
,
0010
0000
0001
0000
1000
0000
0010
0000
0100
0000
0001
0000
1000
0000
0001
0010
,
0100
0000
1000
0000
0001
0000
1000
0000
0010
0000
0100
0000
0001
0000
1000
0100
,
0010
0000
0001
0000
1000
0000
0001
0000
0100
0000
0010
0000
1000
0001
1000
0001
,
1000
0100
0010
0001
1001
1000
0010
0100
,
0101
0001
1000
0100
0110
0010
0001
1000
,
1100
0000
0000
0110
0000
0000
0001
0000
1001
0000
0000
1010
0000
0000
0010
0000
,
0100
0001
0100
0000
0010
1000
0010
0000
0100
0001
0100
0001
1000
0100
1000
0100
,
0010
0000
0000
0000
,
0000
0000
0000
0000
0001
0010
0100
0010
,
0002
0000
0003
0000
1000
0100
0010
0100
,
2000
0000
3000
0000
0001
0010
0100
0010
,
0001
0100
0010
0100
0001
0010
0001
0100
,
0020
0000
0030
0000
1000
0010
0100
0010
,
2000
0000
3000
0000
0001
0100
0010
0100
,
0002
0000
0003
0000
1000
0010
0100
0010
,
1000
0100
0010
0001
1000
0001
0100
1000
,
0200
0000
0000
0310
,
0010
0100
0010
0000
1000
0000
0001
0010
0000
0000
0100
0000
1000
0000
0001
0000
,
0100
0010
0100
0000
0001
0000
1000
0100
0000
0000
0010
0000
0001
0000
1000
0000
,
0100
0000
0000
1000
0000
0000
0001
0000
0000
0100
0000
0000
0010
0000
0010
0000
,
1000
0000
0000
1000
0000
0000
0100
0000
0000
0010
0000
0000
0001
0000
0001
0000
,
0100
0010
0100
0000
0001
0000
1000
0000
0010
0100
0010
0000
1000
0000
0001
0000
,
0010
0100
0010
0000
0001
0000
1000
0000
0100
0010
0100
0000
1000
0000
0001
0000
,
1000
0001
1000
0001
1000
0001
1000
0001
1000
0001
1000
0001
1000
0001
1000
0001
,
2000
0000
3020
0000
0130
0001
1001
0000
,
0001
0100
0001
0000
1000
0000
0100
1000
0000
0000
0001
0000
1000
0001
1000
0000
,
0001
0010
0001
0000
1000
0000
0010
1000
0000
0000
0001
0000
1000
0001
1000
0000
,
0100
0000
0000
0010
0000
0000
0001
0000
0000
1000
0000
0000
0010
0000
0010
0000
,
0200
0000
0000
1000
0000
0000
0010
0000
0000
0001
0000
0000
0010
0000
0310
0000
,
0010
0100
0010
0000
1000
0000
0001
0100
0000
0000
0001
0000
1000
0100
1000
0000
,
0001
0010
0001
0000
0100
0000
0010
1000
0000
0000
0001
0000
1000
0100
1000
0000
,
0001
0000
0000
0110
0000
0000
1000
0000
0001
0100
0001
0000
1000
0010
1000
0000
,
0000
0000
0110
0000
0000
1001
0000
0000
0110
0000
0000
1001
0000
0000
0000
0000
,
0001
0010
0100
0000
1000
0000
0001
0100
0000
0000
0010
0000
1000
0010
1000
0000
,
0001
0100
0010
0000
0100
0000
0001
1000
0000
0000
0100
0000
1000
0100
1000
0000
,
0001
0000
0001
0100
0000
0100
0010
0000
0010
1000
0000
1000
0001
0000
0001
0000
,
0100
0000
0100
0010
0000
0010
1000
0000
1000
0100
0000
0100
0010
0000
0010
0000
,
0001
1000
0001
0000
0010
0000
0100
0000
1000
0000
0010
0000
0100
0001
0100
0000
,
0010
1000
0010
0000
0100
0000
0001
0000
0010
0000
0100
0000
1000
0001
1000
0000
,
0010
0000
0000
0100
0000
0000
0010
0000
1000
0001
1000
0001
0010
0100
1000
0000
,
0001
0000
0000
0101
0000
0000
1100
0000
0000
1010
0000
0000
0011
0000
0000
0000
,
0200
0000
0000
0000
,
0000
0000
0000
0000
,
0300
0000
0000
0000
,
0000
0000
0000
0000
;
#NOTES:
     dance-single:
     :
     Challenge:
     18:
     :
0000
0000
0000
0000
,
0000
0000
0000
0000
,
0000
0000
0000
0000
,
0000
0000
0000
0000
,
0000
0000
0000
0000
,
0000
0000
0000
0000
0001
0010
0100
1000
,
0001
0100
0001
0100
0010
1000
0001
0010
,
0100
1000
0100
1000
0001
0100
0010
1000
,
0100
0000
0010
0000
0001
0000
1000
0000
0001
0010
0100
1000
0001
1000
0010
0100
,
0001
0000
0000
0000
1000
0000
0000
0000
1001
0000
0001
1000
0010
0000
0100
0000
,
0001
0000
1000
0100
0000
1000
0001
0000
0100
0000
0010
1000
0001
0000
0010
0000
,
0100
0000
1000
0001
0000
0010
0001
0000
1000
0000
0010
0100
0001
0000
0010
0000
,
0100
0000
1000
0001
0000
1000
0001
0000
1000
0000
0010
0100
0001
0000
0010
0000
,
0001
0000
1000
0010
0000
0100
0001
0000
1000
0000
0101
0000
1100
0000
0001
0000
,
1000
0000
0001
0100
0000
0001
1000
0000
0100
0000
0010
0001
1000
0000
0010
0000
,
0100
0000
0001
1000
0000
0100
1000
0000
0001
0000
0100
0010
1000
0000
0100
0000
,
0010
0000
0001
1000
0000
0001
1000
0000
1001
0000
0011
0000
1100
0000
1001
0000
,
0000
0000
1010
0000
0000
0101
0000
0000
1010
0000
0001
0000
1100
0000
0000
0000
,
0001
0000
0010
0100
1000
0000
0001
0000
1000
0000
0010
0000
0001
0000
0010
0000
,
1000
0000
0001
1000
0100
0000
0010
0000
1000
0000
0010
0000
0100
0000
0010
0000
,
0001
0000
1000
0010
0100
0000
0001
0000
1000
0000
0001
0000
0010
0000
1000
0000
,
0010
0000
0001
1000
0010
0000
0100
0000
0001
1000
0000
0000
1001
0000
0000
0000
,
0001
0000
1000
0001
0100
0000
0010
0000
0100
0000
1000
0000
0100
0000
0001
0000
,
1000
0000
0001
1000
0100
0000
0010
0000
0100
0000
0001
0000
0100
0000
0010
0000
,
0001
0000
1000
0010
0000
0100
0001
0000
1000
0100
0010
0001
1000
0001
0100
0000
,
0000
0000
0110
0000
0000
1010
0000
0000
0101
0000
1000
0000
0011
0000
0000
0000
,
1000
0000
0000
0001
0010
0000
0001
0000
1000
0000
0001
0000
0100
0000
0001
0000
,
1000
0000
0000
0000
0000
0000
0000
0000
0000
0001
0000
0000
0010
0000
0000
0000
0000
0000
0001
0000
0000
0000
0000
0000
1000
0000
0000
0000
0010
0000
0000
0000
0100
0000
0000
0000
0001
0000
0000
0000
0000
0000
0000
0000
1000
0000
0000
0000
,
0001
0000
0000
1000
0010
0000
1000
0000
0001
0000
1000
0000
0100
0000
1000
0000
,
0001
0000
0000
1000
0010
0000
1000
0000
0100
0000
0010
0000
0001
1000
0001
1000
,
0001
0000
1000
0000
0100
0000
1000
0000
0010
0000
0100
0000
0001
0000
0010
0100
,
0010
0000
0000
0000
0000
0000
0001
0000
0000
0000
0000
0000
0100
0000
0000
0000
0000
0000
0010
0000
0000
0000
0000
0000
1000
0000
0000
0000
0100
0000
0000
0000
0010
0000
0000
0000
0001
0000
0000
0000
0000
0000
1000
0000
0000
0010
0000
0000
,
0100
0000
0001
0000
0010
0000
0001
0100
0010
0000
1000
0000
0100
0000
1000
0010
,
0100
0000
0001
0010
0100
0000
1000
0010
0100
0001
0010
0001
1000
0010
0100
0001
,
0010
0000
0000
0000
,
0011
1100
1010
0101
2002
0000
3003
0000
,
0001
1000
0001
1000
0010
0100
0001
1000
0001
0010
0100
0010
0001
1000
0010
1000
,
0001
0010
0100
1000
0001
0100
0010
1000
0001
0010
0100
1000
0001
1000
0010
0100
,
0001
0100
0010
0100
1000
0100
0010
1000
0001
1000
0100
0010
0001
1000
0010
0100
,
0001
1000
0100
1000
0001
0100
0010
1000
0001
0010
0001
1000
0010
0000
0000
0000
,
1000
0100
1000
0100
0010
0001
1000
0001
0100
0010
1000
0001
1000
0100
0010
0100
,
1000
0001
0100
0010
1000
0001
0010
0001
1000
0010
0100
0001
1000
0001
0010
0100
,
1000
0100
0010
0100
0001
0100
0010
0001
1000
0001
0100
0010
1000
0001
0010
0000
,
0100
0000
0100
0000
0100
0000
0100
0000
0100
0010
0100
0000
1001
0000
0000
0000
,
1000
0000
0001
0010
0001
0000
1000
0010
1000
0000
0001
0010
0100
0000
1000
0010
,
0100
0000
0000
0000
0000
0000
0001
0000
0000
1000
0000
0000
0100
0000
0000
0000
0000
0000
0010
0000
0000
0001
0000
0000
1000
0000
0000
0000
0010
0000
0000
0000
0100
0000
0000
0000
0001
0000
0000
0000
0000
0000
1000
0000
0000
0001
0000
0000
,
1000
0000
0001
0010
0001
0000
1000
0010
1000
0000
0001
0010
0100
0000
1000
0010
,
0100
0000
0001
1000
0100
0000
0010
0001
1000
0000
0010
0000
1000
0001
0010
0100
,
1000
0000
0001
0000
0100
0000
0010
1000
0001
0000
0010
0000
0100
0000
0010
0001
,
1000
0000
0000
0000
0000
0000
0001
0000
0000
0000
0000
0000
0100
0000
0000
0000
0000
0000
0010
0000
0000
1000
0000
0000
0001
0000
0000
0000
0010
0000
0000
0000
0100
0000
0000
0000
1000
0000
0000
0000
0000
0000
0001
0000
0000
1000
0000
0000
,
0001
0000
1000
0010
0000
1000
0001
1000
0100
0000
0010
0001
0000
1000
0001
1000
,
0010
0000
1000
0100
0010
0000
0001
0100
0010
1000
0100
1000
0001
0100
0010
1000
,
0100
0000
0000
0000
,
0000
0000
0000
0000
1000
0100
0010
0001
,
0200
0000
0300
0000
0001
0100
0010
1000
,
0200
0000
0300
0000
1000
0100
0010
0001
,
0100
0001
0010
0100
1000
0010
0100
0001
,
2000
0000
3000
0000
0001
0100
0010
1000
,
0200
0000
0300
0000
1000
0100
0010
0001
,
0200
0000
0300
0000
0001
0100
0010
1000
,
0100
1000
0010
0100
0001
0010
0100
1000
,
0002
0000
0000
0003
,
1000
0001
1000
0000
0010
0000
1000
0001
0000
1000
0010
0100
0001
1000
0100
0010
,
0001
1000
0001
0000
0010
0000
0001
1000
0000
0001
0010
0100
1000
0001
0100
0010
,
1000
0000
0001
0010
0000
0001
1000
0000
0010
0100
0000
0001
1000
0000
1000
0000
,
0001
0000
1000
0010
0000
1000
0001
0000
0010
0100
0000
1000
0001
0000
0001
0000
,
0010
0100
1000
0000
1000
0000
0001
1000
0010
0100
0001
0000
0001
0000
0010
0100
,
1000
0001
0100
0000
0100
0000
0010
0100
0001
1000
0100
0000
0100
0000
0010
0001
,
1000
0010
0100
0001
1000
0100
1000
0001
0100
0010
1000
0100
0010
0001
0100
0010
,
1000
0000
0000
0000
0001
0000
0000
0000
1001
0000
1000
0001
0010
0000
0000
0000
,
0001
1000
0010
0000
1000
0000
0001
0010
0000
0100
1000
0001
0100
0010
1000
0001
,
0010
0001
1000
0000
0100
0000
0010
0001
0000
1000
0010
1000
0001
0010
0100
1000
,
0001
0000
0010
1000
0000
0010
0001
0000
0010
1000
0000
0010
0001
0000
1000
0000
,
0001
0000
0100
1000
0000
0100
0001
0000
0100
1000
0000
0100
0001
0000
1000
0000
,
0001
1000
0100
0000
0010
0000
0100
1000
0000
0001
0100
0010
1000
0001
0010
0100
,
1000
0001
0100
0000
0010
0000
0100
0001
0000
1000
0100
0010
0100
1000
0001
1000
,
0010
0000
0001
0010
0000
1000
0100
0000
0010
0001
1000
0001
0100
0010
1000
0100
,
0000
0000
0110
0000
0000
0011
0000
0000
1100
0000
0000
1001
0000
0000
0000
0000
,
0001
1000
0100
1000
0010
1000
0001
0010
0001
1000
0010
0100
0001
1000
0100
1000
,
0001
0100
0001
0010
0001
1000
0010
1000
0001
0010
0001
0100
0010
1000
0001
0100
,
0010
0100
1000
0100
0001
1000
0010
0100
0001
0100
0010
1000
0001
1000
0100
0010
,
0100
0001
0100
1000
0001
0010
0100
1000
0100
0010
0001
1000
0010
0100
0010
1000
,
0001
0010
0100
1000
0010
1000
0001
0010
0001
1000
0010
0100
0001
1000
0100
1000
,
0010
0100
0001
0010
0001
1000
0010
1000
0001
0010
0100
1000
0010
0100
0001
1000
,
0100
0000
0001
0100
0000
1000
0010
0000
0100
0001
1000
0001
0010
0100
1000
0001
,
0100
0000
0000
1010
0000
0000
1000
0000
0000
0011
0000
0000
0100
0000
0000
0000
,
2002
0000
0000
0000
,
0000
0000
0000
0000
,
3003
0000
0000
0000
,
0000
0000
0000
0000
;
#NOTES:
     dance-double:
     :
     Easy:
     8:
     :
00000000
00000000
00000000
00000000
,
00000000
00000000
00000000
00000000
,
00000000
00000000
00000000
00000000
,
00000000
00000000
00000000
00000000
,
00000000
00000000
00000000
00000000
,
00000000
00000000
00000000
00000000
,
00011000
00000000
00001000
00010000
,
00100000
00000000
00100000
00010000
,
00001000
00100000
00010000
01000000
,
01100000
00000000
00000000
00000000
,
01000000
00100000
10000000
01000000
,
00010000
00000000
00001000
00000010
,
00000001
00000100
00000010
00001000
,
00000001
00000000
00000001
00000100
,
00001000
00000000
00010000
00100000
,
10000000
00000000
10000000
01000000
,
00010000
00000000
00001000
00010000
,
00000000
00001000
00000000
00000000
00022000
00000000
00033000
00000000
,
00001000
00000100
00000001
00000010
,
00000100
00001000
00000001
00000100
,
00000010
00001000
00000100
00010000
,
00001000
01000000
00010000
00100000
,
00010000
00010000
10000000
01000000
,
00010000
00010000
00001000
00000010
,
00000001
00000100
00000010
00001000
,
00000000
00000100
00000000
00000000
00002002
00000000
00003003
00000000
,
00000001
00000001
00000100
00000100
,
00000010
00000010
00010000
00010000
,
00001000
00001000
00100000
00100000
,
00010000
00010000
10000000
10000000
,
10100000
00000000
00010000
01000000
,
01010000
00000000
00001000
00010000
,
00011000
00000000
00000010
00000000
,
00001001
00000110
00002002
00000000
,
00003003
00000000
00000000
00000000
,
00000110
00001001
00000110
00000000
,
00000001
00000100
00001000
00010000
,
00001000
00010000
01000000
00000000
,
10000000
00000000
00100000
00000000
,
10000000
01000000
00010000
00001000
,
00010000
00011000
00001000
00000100
,
00000001
00000010
00000100
00000000
,
00000010
00000000
00000001
00000000
,
00000001
00000100
00001000
00010000
,
00200000
00000000
01000000
01000000
,
01000000
00000000
10000000
10000000
,
20300000
00000000
00010000
00010000
,
30020000
00000000
00100000
00130000
,
00101000
00000000
00011000
00000000
,
00010100
00000000
00011000
00000000
,
00010000
00000010
00001000
00000100
,
00000110
00001001
00000220
00000000
,
00000330
00000000
00000000
00000000
,
00000000
00000000
00000001
00000100
,
00000002
00000003
00000100
00000001
,
00000200
00000300
00001000
00010000
,
00002000
00003000
00010000
00001000
,
00020000
00030000
01000000
10000000
,
02000000
03000000
10000000
01000000
,
20000000
30000000
01000000
00010000
,
02000000
03000000
00010000
00001000
,
00020000
00000000
00000000
00031000
,
00010000
00010000
00010000
00010000
,
00000100
00000100
00000100
00000100
,
00001000
00001000
00001000
00001000
,
00000010
00000010
00000010
00000000
,
00001010
00000000
00000101
00000000
,
00001001
00000000
00001100
00000000
,
00020100
00000000
00000000
00000000
,
00031000
00100000
00010000
10010000
,
10000000
01000000
00100000
00010000
,
10000000
00100000
00010000
00001000
,
00010000
00000100
00000010
00000001
,
00001000
00000010
00000100
00000110
,
00000001
00001000
00000001
00000100
,
00001000
00010000
00100000
10000000
,
20020000
30030000
01100000
10010000
,
00000000
01100000
00000000
00000000
20020000
00000000
30030000
00000000
,
10000000
01000000
00010000
00001000
,
00000100
00000001
00000010
00001000
,
00000010
00000001
00000100
00001000
,
00010000
01000000
10000000
00100000
,
01100000
00010000
01100000
10000000
,
01100000
00010000
01100000
10000000
,
01100000
00000000
00001000
00010000
,
00011000
00000000
00000000
00000010
00000000
00000000
00000100
00000000
,
00000020
00000000
00000000
00000000
,
00000000
00000000
00000000
00000000
,
00000030
00000000
00000000
00000000
,
00000000
00000000
00000000
00000000
;
#NOTES:
     dance-double:
     :
     Medium:
     12:
     :
00000000
00000000
00000000
00000000
,
00000000
00000000
00000000
00000000
,
00000000
00000000
00000000
00000000
,
00000000
00000000
00000000
00000000
,
00000000
00000000
00000000
00000000
,
00000000
00000000
00000000
00000000
,
00011000
00001000
00001000
01000000
,
01100000
00100000
00100000
10000000
,
10010000
00000000
00010000
00000000
10000000
01000000
00100000
00010000
,
00200000
00302000
00023000
00030200
,
00001300
00000000
00000010
00000000
00001000
00000100
00001000
00000100
,
00000010
00000000
00000001
00000000
00001000
00000010
00001000
00000010
,
00000100
00000000
00000000
00000001
00000000
00000000
00000100
00000000
00001000
00000000
00000000
00000000
00010000
00000000
00000000
00000000
,
00100000
00000000
10100000
00000000
10000000
01000000
10000000
01000000
,
00100000
00000000
00010000
00000000
10000000
00100000
10000000
00100000
,
01000000
00000000
00010000
00000000
01000000
00100000
00010000
00000000
,
00001000
00000000
00000000
00000010
00000000
00000000
00000001
00000000
00001000
00000000
00000010
00000000
00000100
00000000
00000001
00000000
,
00000000
00000000
00000011
00000000
00000000
00000100
00000000
00000000
00002002
00000000
00003000
00000000
00000003
00000000
00000000
00000000
,
00000001
00000000
00000000
00000010
00000000
00000000
00000100
00000000
00001000
00000000
00000100
00000000
00001000
00000000
00000000
00000000
,
00000010
00000000
00000000
00010000
00000000
00000000
00001000
00000000
00010000
00000000
00001000
00000000
00010000
00000000
00000000
00000000
,
00001000
00000000
00000000
00010000
00000000
00000000
01000000
00000000
10000000
00000000
01000000
00000000
10000000
00000000
00000000
00000000
,
00010000
00000000
00000000
01000000
00000000
00000000
00100000
00000000
10000000
00000000
00100000
00000000
10000000
00000000
00000000
00000000
,
11000000
00000000
11000000
00000000
01000000
00100000
00001000
00000000
,
00011000
00000000
00011000
00000000
00010000
00000100
00000010
00000000
,
00000001
00000000
00000000
00001000
00000000
00000000
00000001
00000000
00000010
00000000
00000100
00000000
00001000
00000000
00000001
00000000
,
00000000
00000000
00000100
00000000
00000000
00000010
00000000
00000000
00002002
00000000
00003000
00000000
00000003
00000000
00000000
00000000
,
00002000
00000010
00000010
00000010
,
00000010
00000010
00000010
00000010
,
00003020
00010000
00010000
00010000
,
00020030
00001000
00001000
00031000
,
00011000
00000000
00001000
00010000
00001000
00100000
00001000
00000000
,
00011000
00000000
00010000
00001000
00010000
00000100
00010000
00000000
,
00001000
00100000
00010000
00000000
10000000
00100000
01000000
00000000
,
00010000
10000000
00010000
10000000
01000000
00100000
00010000
01000000
,
00100000
00000000
00000000
00000000
,
00100000
00100000
00100000
00100000
00100000
00000000
00000000
00000000
,
10000000
01000000
00100000
00000000
00001000
00010000
00000100
00000000
,
00000010
00000000
00001000
00000010
00000001
00000000
00000100
00000000
,
00001000
00000000
00000000
00010000
00001000
00000000
00001000
00000000
,
00100000
00010000
01000000
00100000
10000000
01000000
00010000
00000000
,
00000010
00000110
00000001
00000010
,
00001000
00000000
00010000
00000000
01000000
00000000
10000000
01000000
,
00100000
00000000
00000000
00001000
00010000
00000000
00000010
00000000
,
00000100
00000001
00000010
00001000
00000010
00000001
00000100
00000000
,
00000020
00001000
00000100
00001000
,
00000100
00001000
00010000
00001000
,
00020030
00000100
00001000
00000010
,
00032000
00100000
00010000
01003000
,
00021000
00000000
00000010
00000000
00001000
00001000
00031000
00000000
,
00012000
00000000
00100000
00000000
00010000
00010000
00013000
00000000
,
00001000
00000000
00000000
00001000
00000000
00000000
00001000
00000000
00010000
00000000
00000000
00010000
00000000
00000000
00010000
00000000
,
00001000
00100000
00010000
01000000
00100000
10000000
00010000
00100000
,
01000000
00000000
00000000
00000000
,
00000000
00000000
00000000
00000000
10000000
01000000
10000000
01000000
,
20000000
00000000
30000000
00000000
00010000
00100000
00010000
00100000
,
00020000
00000000
00030000
00000000
00100000
00001000
00100000
00001000
,
00020000
00032000
00003200
00000320
,
00002030
00000000
00003000
00000000
00000001
00000010
00000001
00000010
,
00000002
00000000
00000003
00000000
00001000
00000100
00001000
00000100
,
00002000
00000000
00003000
00000000
00000100
00010000
00000100
00010000
,
00002000
00023000
00230000
02300000
,
03020000
00000000
00000000
10030000
,
10000000
00000000
10000000
00010000
10000000
00000000
10000000
00000000
,
01000000
00000000
01000000
00010000
01000000
00000000
01000000
00000000
,
00100000
00000000
00100000
00010000
00100000
00000000
00100000
00000000
,
00001000
00000000
00001000
00010000
00001000
00000000
00001000
00000000
,
00011000
00000010
00000110
00000001
,
00000010
00000100
00001000
00000000
00000001
00000100
00000010
00000000
,
00001000
00000100
00000010
00000001
00001000
00000100
00000010
00000001
,
00000200
00000320
00001030
00001001
,
00000001
00000000
00000100
00000000
00000010
00010000
00001000
00000000
,
00100000
00000000
01000000
00000000
10000000
01000000
00100000
00000000
,
00010000
00000000
00000000
01000000
00000000
00000000
00100000
00000000
00000000
00010000
00000000
00000000
00001000
00000000
00010000
00000000
,
00000010
00000000
00000000
00000100
00000000
00000000
00001000
00000000
00000000
00010000
00000000
00000000
00001000
00000000
00000000
00000000
,
01000000
00000000
00010000
00000000
00100000
01000000
10000000
00000000
,
00100000
00000000
00010000
00000000
00001000
00010000
00000100
00000000
,
00010000
00000000
00000000
00010000
00000000
00000000
00000010
00000000
00001000
00000000
00000100
00000000
00000010
00000000
00000001
00000000
,
00000000
00000000
00000100
00000000
00000000
00000010
00000000
00000000
00010000
00000000
00000000
00011000
00000000
00000000
00000000
00000000
,
00001000
00010000
00001000
00010000
00100000
01000000
00010000
00000000
,
10000000
01000000
10000000
01000000
00010000
00001000
00010000
00000000
,
00001000
00000000
00000000
01000000
00000000
00000000
00010000
00000000
00000000
00100000
00000000
00000000
00001000
00000000
00001000
00000000
,
00010000
00000000
00000000
00000100
00000000
00000000
00001000
00000000
00000000
00000010
00000000
00000000
00010000
00000000
00000000
00000000
,
00010000
00001000
00010000
00001000
00000010
00000100
00001000
00000000
,
00000001
00000100
00000001
00000100
00001000
00010000
00001000
00000000
,
00010000
00000000
00000000
00010000
00000000
00000000
00010000
00000000
00001000
00000000
00100000
00000000
01000000
00000000
10000000
00000000
,
00100000
00000000
00000000
01100000
00000000
00000000
00010000
00000000
00000000
00110000
00000000
00000000
00001000
00000000
00000000
00000000
,
00020000
00000000
00000000
00000000
,
00000000
00000000
00000000
00000000
,
00030000
00000000
00000000
00000000
,
00000000
00000000
00000000
00000000
;
#NOTES:
     dance-double:
     :
     Hard:
     15:
     :
00000000
00000000
00000000
00000000
,
00000000
00000000
00000000
00000000
,
00000000
00000000
00000000
00000000
,
00000000
00000000
00000000
00000000
,
00000000
00000000
00000000
00000000
,
00000000
00000000
00000000
00000000
00001000
00010000
00100000
10000000
,
01000000
00000000
00100000
00000000
01000000
10000000
00100000
00010000
,
00001000
00000000
00010000
00000000
00001000
00000100
00000001
00000010
,
00001000
00000000
00000010
00000000
00000001
00000000
00000100
00000000
00001000
00000000
00010000
00000000
00100000
00000000
01000000
00010000
,
20000000
00000000
32000000
00000000
13000000
00100000
00010000
00001000
,
00010000
00000000
00000000
01000000
00000000
00000000
00010000
00000000
00001000
00000000
00000010
00000000
00000001
00000000
00000100
00000000
,
00001000
00000000
00000000
00010000
00000000
00000000
00001000
00000000
00000100
00000000
00000001
00000000
00000010
00000000
00000100
00000000
,
00000001
00000000
00000000
00000100
00000000
00000000
00010000
00000000
00001000
00000000
00000100
00000000
00001000
00000000
00010000
00000000
,
01000000
00000000
00000000
10000000
00000000
00000000
00100000
00000000
01000000
00000000
00100000
00000000
00010000
00000000
00100000
00000000
,
10000000
00000000
00000000
01000000
00000000
00000000
00010000
00000000
00001000
00000000
00010000
00000000
01000000
00000000
10000000
00000000
,
00100000
00000000
00000000
00010000
00000000
00000000
00100000
00000000
10000000
00000000
01000000
00000000
00010000
00000000
00001000
00000000
,
00000100
00000000
00000000
00000110
00000000
00000000
00010000
00000000
00001000
00000000
00010000
00000000
01000000
00000000
10000000
00000000
,
00000000
00000000
01100000
00000000
00000000
00101000
00000000
00000000
00022000
00000000
00030000
00000000
00003000
00000000
00000000
00000000
,
00010000
00000000
00001000
00000010
00000000
00000010
00000001
00000000
00001000
00000000
00000010
00000000
00000100
00000000
00001000
00000000
,
00010000
00000000
01000000
10000000
00000000
10000000
00100000
00000000
00010000
00000000
00001000
00000000
00010000
00000000
01000000
00000000
,
00100000
00000000
00001000
00010000
00000000
00010000
00100000
00000000
00010000
00000000
00001000
00000000
00000100
00000000
00000010
00000000
,
00010000
00000000
00001000
00000010
00000000
00000010
00000100
00000000
00010000
00000000
00001000
00000000
00001000
00000000
01000000
00000000
,
00100000
00000000
10000000
01000000
00000000
10000000
00100000
00000000
00010000
00000000
00100000
00000000
10000000
00000000
01000000
00000000
,
00010000
00000000
00001000
00000010
00000000
00001000
00010000
00000000
00001000
00000000
00000100
00000000
00000001
00000000
00000010
00000000
,
00000100
00000000
00001000
00000100
00000000
00001000
00000010
00000000
00010000
00001000
00010000
00001000
00010000
00001000
00010000
00000000
,
00000000
00000000
00011000
00000000
00000000
01100000
00000000
00000000
20020000
00000000
30000000
00000000
00030000
00000000
00000000
00000000
,
10000000
00000000
00000000
01000000
00000000
00000000
00100000
00000000
00000000
00000000
00001000
00000000
00001000
00000000
00001000
00000000
,
00010000
00000000
00000000
00000000
00000000
00000000
00000000
00000000
00000000
00100000
00000000
00000000
00000000
00000000
00000000
00000000
00000000
00000000
01000000
00000000
00000000
00000000
00000000
00000000
00010000
00000000
00000000
00000000
00100000
00000000
00000000
00000000
00001000
00000000
00000000
00000000
00010000
00000000
00000000
00000000
00000000
00000000
00000000
00000000
00000100
00000000
00000000
00000000
,
00000010
00000000
00000000
00001000
00000000
00000000
00000010
00000000
00000000
00000000
00000100
00000000
00000100
00000000
00000100
00000000
,
00000001
00000000
00000000
00000100
00000000
00000000
00010000
00000000
00001000
00000000
00010000
00000000
00001000
00010000
00001000
00010000
,
00001000
00100000
00010000
00100000
01000000
10000000
00010000
01000000
,
01100000
00100000
00010000
00001000
00000100
00000010
00001000
00000000
,
00001100
00001000
00000010
00000100
00000101
00000001
00000010
00000100
,
00001100
00000000
00001000
00000000
00000010
00000000
00010000
00000000
00001000
00010000
00001000
00010000
00001000
00010000
00001000
00010000
,
00001000
00000000
00000000
00000000
,
00010000
01000000
10000000
00100000
02200000
00000000
03300000
00000000
,
10000000
01000000
00100000
00010000
01000000
00100000
00010000
00001000
,
00000100
00000010
00001000
00000200
00000010
00000000
00010300
00001000
,
02000000
00000000
00000000
03200000
00010000
00000000
20300000
00000000
,
31000000
00010000
00001000
00000010
00000001
00000010
00001000
00000000
,
00010000
00001000
00010000
00001000
00010000
00000000
00010000
00000000
00000100
00000000
00000010
00000000
00001000
00000000
00010000
00000000
,
01000000
00100000
00010000
02000000
00100000
00000000
03001000
00010000
,
00000200
00000000
00000000
00000320
00001000
00000000
00000032
00000000
,
00000103
00001000
00010000
00100000
10000000
00100000
00010000
00001000
,
00000100
00000000
00000010
00000000
00001000
00000000
00000001
00000000
00000010
00000000
00000100
00000000
00001000
00000000
00000001
00000100
,
00000010
00000000
00010000
00000000
00001000
00000000
00010000
00000000
00100000
00000000
10000000
00000000
00010000
00000000
00100000
01000000
,
10000000
00000000
01000000
00000000
00010000
00000000
00001000
00000000
00000010
00000000
00000100
00000000
00010000
00000000
00001000
00010000
,
00000010
00000000
00001000
00000000
00000001
00000000
00000010
00000000
00000100
00000000
00001000
00000000
00000001
00001000
00000001
00001000
,
00000001
00000100
00000010
00001000
00001100
00000100
00010000
00001000
,
00101000
00100000
00010000
01000000
01100000
00100000
10000000
01000000
,
01100000
00000000
00000000
00110000
00000000
00000000
00001000
00000000
00011000
00000000
00000000
00010010
00000000
00000000
00000010
00000000
,
00001000
00000000
00000100
00000000
00000010
00000000
00000001
00000000
00000100
00000001
00000100
00000001
00001000
00000010
00001000
00000010
,
00000100
00000000
00000000
00000000
,
00000000
00000000
00000000
00000000
00000001
00000100
00001000
00010000
,
00200000
00000000
00300000
00000000
10000000
00100000
00010000
00001000
,
00000200
00000000
00000300
00000000
00000001
00000010
00000100
00010000
,
00001000
00010000
00100000
00010000
00001000
00010000
00000100
00010000
,
02000000
00000000
03000000
00000000
10000000
01000000
00010000
00001000
,
00000020
00000000
00000030
00000000
00000001
00000010
00001000
00010000
,
02000000
00000000
03000000
00000000
10000000
01000000
00100000
00001000
,
00010000
00001000
00000010
00001000
00010000
00001000
01000000
00001000
,
00000200
00000000
00000000
00000310
,
00000010
00000100
00000010
00000000
00001000
00000000
00000001
00000010
00000000
00000000
00000100
00000000
00001000
00000000
00000010
00000000
,
00010000
00001000
00010000
00000000
00001000
00000000
01000000
00010000
00000000
00000000
00100000
00000000
01000000
00000000
10000000
00000000
,
00100000
00000000
00000000
01000000
00000000
00000000
00001000
00000000
00000000
00010000
00000000
00000000
00000100
00000000
00000010
00000000
,
00000001
00000000
00000000
00000100
00000000
00000000
00000010
00000000
00000000
00010000
00000000
00000000
00001000
00000000
00001000
00000000
,
00010000
00001000
00010000
00000000
00000100
00000000
00010000
00000000
00001000
00010000
00001000
00000000
00100000
00000000
00001000
00000000
,
00010000
00001000
00010000
00000000
00000010
00000000
00010000
00000000
00001000
00010000
00001000
00000000
01000000
00000000
00001000
00000000
,
00010000
00001000
00010000
00001000
00010000
00001000
00010000
00001000
00010000
00001000
00010000
00001000
00010000
00001000
00010000
00001000
,
00020000
00000000
00032000
00000000
00013000
00001000
00011000
00000000
,
00001000
00010000
00001000
00000000
01000000
00000000
00010000
00100000
00000000
00000000
00010000
00000000
00100000
00000000
01000000
00000000
,
10000000
01000000
10000000
00000000
01000000
00000000
00010000
00001000
00000000
00000000
00010000
00000000
00000010
00000000
00001000
00000000
,
00000001
00000000
00000000
00000100
00000000
00000000
00001000
00000000
00000000
00010000
00000000
00000000
00100000
00000000
00100000
00000000
,
10000000
00000000
00000000
01000000
00000000
00000000
00010000
00000000
00000000
00001000
00000000
00000000
00010000
00000000
00010000
00000000
,
00000100
00001000
00000100
00000000
00001000
00000000
00000001
00000100
00000000
00000000
00000010
00000000
00001000
00000000
00000010
00000000
,
00010000
00001000
00010000
00000000
00001000
00000000
00010000
00000100
00000000
00000000
00000010
00000000
00000001
00000000
00000010
00000000
,
00000100
00000000
00000000
00010000
00000000
00000000
01000000
00000000
10000000
01000000
10000000
00000000
01000000
00000000
00100000
00000000
,
00000000
00000000
01100000
00000000
00000000
10010000
00000000
00000000
00011000
00000000
00000000
00001001
00000000
00000000
00000000
00000000
,
00000001
00000100
00000010
00000000
00001000
00000000
00000100
00010000
00000000
00000000
00001000
00000000
00100000
00000000
01000000
00000000
,
10000000
00010000
10000000
00000000
00100000
00000000
00010000
00001000
00000000
00000000
00010000
00000000
00000010
00000000
00001000
00000000
,
00000100
00000000
00000100
00010000
00000000
00010000
00001000
00000000
00001000
00010000
00000000
00010000
01000000
00000000
01000000
00000000
,
10000000
00000000
10000000
00100000
00000000
00100000
00010000
00000000
00010000
00001000
00000000
00001000
00000010
00000000
00000010
00000000
,
00000001
00000010
00000100
00000000
00001000
00000000
00000010
00000000
00010000
00000000
00001000
00000000
00100000
00010000
00100000
00000000
,
00001000
00010000
00001000
00000000
01000000
00000000
00010000
00000000
00100000
00000000
01000000
00000000
10000000
01000000
00100000
00000000
,
00001000
00000000
00000000
00010000
00000000
00000000
00001000
00000000
00010000
00001000
00010000
00001000
00010000
00001000
00010000
00000000
,
00000100
00000000
00000000
00000011
00000000
00000000
00001100
00000000
00000000
00010010
00000000
00000000
00011000
00000000
00000000
00000000
,
02000000
00000000
00000000
00000000
,
00000000
00000000
00000000
00000000
,
03000000
00000000
00000000
00000000
,
00000000
00000000
00000000
00000000
;
#NOTES:
     dance-double:
     :
     Challenge:
     18:
     :
00000000
00000000
00000000
00000000
,
00000000
00000000
00000000
00000000
,
00000000
00000000
00000000
00000000
,
00000000
00000000
00000000
00000000
,
00000000
00000000
00000000
00000000
,
00000000
00000000
00000000
00000000
00010000
00001000
00000100
00000010
,
00000001
00000000
00000010
00000000
00010000
00001000
00000010
00000100
,
00000001
00000000
00000100
00000000
00010000
00001000
00000100
00000010
,
00000001
00000000
00000010
00000000
00000100
00000000
00000001
00000000
00001000
00000100
00000010
00000001
00001000
00000001
00000100
00000010
,
00001000
00000000
00000001
00000000
00000100
00001000
00010000
00100000
,
10000000
00000000
00010000
00100000
00000000
01000000
10000000
00000000
00100000
00000000
00010000
00000000
00001000
00000000
00000100
00000000
,
00000001
00000000
00001000
00000100
00000000
00000010
00000001
00000000
00000100
00000000
00001000
00000000
00010000
00000000
00100000
00000000
,
10000000
00000000
01000000
00100000
00000000
00001000
00010000
00000000
00000010
00000000
00000100
00000000
00001000
00000000
00010000
00000000
,
01000000
00000000
10000000
00100000
00000000
01000000
00010000
00000000
10000000
00000000
11000000
00000000
01010000
00000000
00000000
00000000
,
10000000
00000000
00010000
01000000
00000000
00100000
10000000
00000000
01000000
00000000
00010000
00000000
00001000
00000000
00000010
00000000
,
00000001
00000000
00001000
00000010
00000000
00000100
00000001
00000000
00000010
00000000
00001000
00000000
00010000
00000000
01000000
00000000
,
10000000
00000000
00100000
01000000
00000000
00001000
00010000
00000000
00010100
00000000
00001100
00000000
00000011
00000000
00001001
00000000
,
00000000
00000000
00000110
00000000
00000000
00011000
00000000
00000000
02100000
00000000
00100000
00000000
03100000
00000000
00000000
00000000
,
10000000
00000000
01000000
00010000
00000000
00001000
00000010
00000000
00000001
00000000
00000100
00000000
00001000
00000000
00000100
00000000
,
00000001
00000000
00000010
00001000
00000000
00010000
01000000
00000000
10000000
00000000
00100000
00000000
00010000
00000000
00100000
00000000
,
10000000
00000000
01000000
00010000
00000000
00001000
00000010
00000000
00000001
00000000
00000100
00000000
00001000
00000000
00010000
00000000
,
00001000
00000000
00000010
00000001
00000000
00000100
00001000
00000000
00010000
00000000
00100000
00000000
01100000
00000000
00000000
00000000
,
10000000
00000000
00010000
00100000
01000000
00000000
10000000
00000000
00100000
00000000
00010000
00000000
00001000
00000000
00000100
00000000
,
00000001
00000000
00000010
00000100
00001000
00000000
00000001
00000000
00000100
00000000
00001000
00000000
00010000
00000000
00100000
00000000
,
10000000
00000000
01000000
00100000
00000000
00001000
00010000
00000000
00000100
00001000
00000010
00000100
00000001
00001000
00000100
00000000
,
00000000
00000000
00000110
00000000
00000000
00001001
00000000
00000000
00000210
00000000
00000010
00000000
00000310
00000000
00000000
00000000
,
00010000
00000000
00000000
00001000
00010000
00000000
00000010
00000000
00010000
00000000
00001000
00000000
00010000
00000000
00000100
00000000
,
00010000
00000000
00000000
00000000
00000000
00000000
00000000
00000000
00000000
00001000
00000000
00000000
00010000
00000000
00000000
00000000
00000000
00000000
00000010
00000000
00000000
00000000
00000000
00000000
00000100
00000000
00000000
00000000
00001000
00000000
00000000
00000000
00010000
00000000
00000000
00000000
01000000
00000000
00000000
00000000
00000000
00000000
00000000
00000000
00100000
00000000
00000000
00000000
,
00001000
00000000
00000000
00010000
00001000
00000000
01000000
00000000
00001000
00000000
00010000
00000000
00001000
00000000
00100000
00000000
,
00001000
00000000
00000000
00010000
00001000
00000000
01000000
00000000
00001000
00000000
00010000
00000000
00001000
00010000
00001000
00010000
,
00001000
00000000
00001000
00000000
01000000
00000000
01000000
00000000
00100000
00000000
00100000
00000000
10000000
00000000
01000000
00100000
,
00010000
00000000
00000000
00000000
00000000
00000000
00100000
00000000
00000000
00000000
00000000
00000000
00001000
00000000
00000000
00000000
00000000
00000000
00100000
00000000
00000000
00000000
00000000
00000000
01000000
00000000
00000000
00000000
00010000
00000000
00000000
00000000
00001000
00000000
00000000
00000000
00000100
00000000
00000000
00000000
00000000
00000000
00000010
00000000
00000000
00001000
00000000
00000000
,
00000001
00000000
00000010
00000000
00000100
00000000
00001000
00000010
00010000
00000000
00001000
00000000
00100000
00000000
00010000
01000000
,
00100000
00000000
10000000
01000000
00100000
00000000
00010000
00100000
00001000
00010000
00000100
00001000
00000010
00000100
00000001
00000010
,
00000001
00000000
00000000
00000000
,
00000001
00001000
00010000
10000000
20020000
00000000
30030000
00000000
,
10000000
00000000
01000000
00000000
00100000
01000000
00100000
01000000
00100000
00010000
00100000
00010000
00100000
00001000
00100000
00001000
,
00100000
00010000
00100000
00010000
00100000
01000000
00100000
01000000
10000000
00000000
00100000
01000000
00010000
00000000
00100000
00000000
,
00001000
00000000
00010000
00000000
00001000
01000000
00001000
01000000
00010000
01000000
00010000
01000000
00100000
01000000
00100000
01000000
,
00010000
01000000
00010000
01000000
00001000
01000000
00001000
00000000
00010000
00000000
00001000
00000000
00001000
00000000
00010000
00000000
,
00000100
00001000
00000100
00001000
00000010
00000100
00000010
00000100
00000010
00001000
00000010
00001000
00000010
00010000
00000010
00010000
,
00000010
00001000
00000010
00001000
00000010
00000100
00000010
00000100
00000001
00000000
00000010
00000100
00001000
00000000
00000010
00000000
,
00010000
00000000
00001000
00000000
00010000
00000100
00010000
00000100
00001000
00000100
00001000
00000100
00000010
00000100
00000010
00000100
,
00001000
00000100
00001000
00000100
00010000
00000100
00010000
00000000
00010000
00000000
00010000
00001000
00010000
00000000
00000000
00000000
,
00001000
00000000
00010000
00100000
01000000
00000000
00010000
10000000
00100000
00000000
01000000
00010000
00100000
00000000
00001000
00010000
,
00000100
00000000
00000000
00000000
00000000
00000000
00000010
00000000
00000000
00000001
00000000
00000000
00001000
00000000
00000000
00000000
00000000
00000000
00000001
00000000
00000000
00000100
00000000
00000000
00001000
00000000
00000000
00000000
00010000
00000000
00000000
00000000
00100000
00000000
00000000
00000000
01000000
00000000
00000000
00000000
00000000
00000000
00010000
00000000
00000000
00100000
00000000
00000000
,
01000000
00000000
10000000
00100000
00010000
00000000
00001000
00100000
00010000
00000000
00100000
01000000
00010000
00000000
00001000
00000010
,
00000100
00000000
00001000
00000001
00000100
00000000
00000010
00010000
00001000
00000000
01000000
00100000
10000000
00010000
00100000
01000000
,
10000000
00000000
01000000
00000000
00010000
00000000
00001000
00010000
00000100
00000000
00000010
00000000
00000001
00000000
00000100
00001000
,
00010000
00000000
00000000
00000000
00000000
00000000
00001000
00000000
00000000
00000000
00000000
00000000
01000000
00000000
00000000
00000000
00000000
00000000
00100000
00000000
00000000
00000000
00000000
00000000
10000000
00000000
00000000
00000000
01000000
00000000
00000000
00000000
00010000
00000000
00000000
00000000
00001000
00000000
00000000
00000000
00000000
00000000
00010000
00000000
00000000
00000100
00000000
00000000
,
00000010
00000000
00000001
00001000
00000000
00000001
00000010
00000100
00001000
00000000
00000010
00001000
00000000
00000001
00000010
00000100
,
00001000
00000000
00000010
00001000
00000001
00000000
00000010
00000100
00001000
00000010
00010000
00001000
00010000
00001000
00010000
00001000
,
00010000
00000000
00000000
00000000
,
00000000
00000000
00000000
00000000
00010000
00100000
01000000
10000000
,
02000000
00000000
03000000
00000000
00010000
00100000
01000000
10000000
,
02000000
00000000
03000000
00000000
00010000
00001000
00010000
00100000
,
01000000
00100000
00010000
00001000
00000100
00000010
00010000
00001000
,
00020000
00000000
00030000
00000000
00001000
00000100
00000010
00000001
,
00000020
00000000
00000030
00000000
00001000
00000100
00000010
00000001
,
00000020
00000000
00000030
00000000
00001000
00010000
00001000
00000100
,
00000010
00000100
00001000
00010000
00100000
01000000
00001000
00010000
,
00002000
00000000
00000000
00003000
,
00001000
00010000
00001000
00000000
00100000
00000000
00010000
01000000
00000000
00100000
10000000
00000000
01000000
00100000
00010000
00000000
,
01000000
00100000
10000000
00000000
00100000
00000000
01000000
00010000
00000000
00100000
00001000
00000000
00010000
00001000
00010000
00000000
,
00000200
00000000
00000000
00001000
00000000
00000000
00000010
00000000
00000000
00000001
00000000
00000000
00001000
00000000
00010300
00000000
,
00000020
00000000
00000000
00001000
00000000
00000000
00000001
00000000
00000000
00000100
00000000
00000000
00001000
00000000
00010030
00000000
,
00001000
00010000
00000100
00000000
00000100
00000000
00001000
00000001
00000100
00000010
00001000
00000000
00001000
00000000
00000100
00010000
,
00001000
00100000
00010000
00000000
00010000
00000000
00100000
01000000
10000000
00010000
01000000
00000000
01000000
00000000
00010000
10000000
,
01000000
10000000
00100000
01000000
00010000
00100000
00001000
00010000
00001000
00010000
00000100
00001000
00000010
00000100
00000001
00000010
,
00000001
00000000
00000000
00000000
00001000
00000000
00000000
00000000
00001001
00000000
00000001
00001000
00000010
00000000
00000000
00000000
,
00000010
00001000
00000001
00000000
00000010
00000000
00000100
00001000
00000000
00000100
00010000
00000100
00001000
00000100
00000010
00000000
,
00000100
00001000
00000010
00000000
00010000
00000000
00001000
00010000
00000000
00001000
01000000
00010000
01000000
00100000
01000000
00000000
,
10000000
00000000
01000000
00010000
00000000
00100000
00001000
00000000
00010000
00000100
00000000
00000010
00001000
00000000
00000010
00000000
,
00000001
00000000
00000001
00000100
00000000
00001000
00010000
00000000
00000100
00010000
00000000
00001000
01000000
00000000
00100000
00000000
,
01000000
00010000
10000000
00000000
01000000
00000000
00100000
00010000
00000000
00100000
00001000
00100000
00010000
00100000
01000000
00000000
,
00100000
00010000
01000000
00000000
00001000
00000000
00010000
00001000
00000000
00010000
00000010
00001000
00000010
00000100
00000010
00000000
,
00000001
00000000
00000010
00001000
00000000
00001000
00000100
00000000
00010000
00001000
00100000
00010000
10000000
01000000
00100000
00010000
,
00000000
00000000
00101000
00000000
00000000
00011000
00000000
00000000
00010010
00000000
00000000
00001010
00000000
00000000
00000000
00000000
,
00000001
00001000
00000001
00000010
00000100
00000000
00001000
00000100
00000000
00001000
00000010
00010000
00000010
00001000
00000010
00000100
,
00000010
00001000
00000010
00010000
00000010
00000000
00010000
00001000
00000000
01000000
00001000
01000000
00010000
01000000
00100000
01000000
,
00010000
00000000
01000000
00001000
00000000
00010000
00100000
00000000
10000000
01000000
00000000
00010000
00001000
00000000
00001000
00000000
,
00010000
00000000
00000100
00001000
00000000
00000010
00000001
00000000
00000010
00001000
00000000
00000100
00010000
00000000
00001000
00000000
,
00100000
00001000
00100000
00010000
00100000
01000000
00100000
10000000
00100000
01000000
00100000
00010000
00100000
00001000
00010000
00000000
,
00000010
00010000
00000010
00001000
00000010
00000100
00000010
00000001
00000010
00000100
00000010
00001000
00000010
00010000
00001000
00000000
,
01000000
00000000
00100000
10000000
00000000
01000000
00100000
00000000
00001000
00010000
00000010
00001000
00000001
00000010
00000100
00001000
,
00000001
00000000
00000000
00000101
00000000
00000000
00010010
00000000
00000000
00101000
00000000
00000000
11000000
00000000
00000000
00000000
,
20020000
00000000
00000000
00000000
,
00000000
00000000
00000000
00000000
,
30030000
00000000
00000000
00000000
,
00000000
00000000
00000000
00000000
;
