
//----- song ID: gany2 -----//
#TITLE:Ganymede -re\:born-;
#ARTIST:BEMANI Sound Team "玄武 feat.二代目朱雀";
#TITLETRANSLIT:Ganymede -reborn-;
#ARTISTTRANSLIT:BEMANI Sound Team "Genbu feat. Nidaime Suzaku";
#BANNER:Ganymede -reborn-.png;
#BACKGROUND:Ganymede -reborn--bg.png;
#CDTITLE:./CDTitles/DDR GRAND PRIX.png;
#MUSIC:Ganymede -reborn-.ogg;
#SAMPLESTART:75.303;
#SAMPLELENGTH:15;
#BPMS:0=82,136=164,168=82,176=78,178=75,179=72,180=78;
#BGSTAGE:28;
#NOTES:
     dance-single:
     :
     Beginner:
     2:
     :
0000
0000
0000
0000
,
0000
0000
0000
0000
,
0000
0000
0000
0000
,
0000
0000
0000
0000
,
0000
0000
0000
0000
,
0001
0000
0000
0000
,
0001
0000
0000
0000
,
0001
0000
0000
0000
,
0000
0000
0000
0000
,
1000
0000
0000
0000
,
1000
0000
0000
0000
,
1000
0000
0000
0000
,
0000
0000
0000
0000
,
1001
0000
0000
0000
,
1001
0000
0000
0000
,
1001
0000
0000
0000
,
1001
0000
0000
0000
,
1000
1000
0001
0000
,
1000
0000
0000
0000
,
0001
0001
1000
0000
,
0001
0000
0000
0000
,
1001
0000
0000
0000
,
0000
0000
0000
0000
,
1001
0000
0000
0000
,
0000
0000
0000
0000
,
1001
0000
0000
0000
,
0001
0001
1000
0000
,
1000
1000
0001
0000
,
0001
0000
1000
0000
,
0001
1000
0001
0000
,
0001
1000
1000
0000
,
1000
0001
0001
0000
,
1000
0000
0001
0000
,
1000
0001
1000
0000
,
2000
0000
0000
0000
,
3000
0000
0000
0000
,
2000
0000
0000
0000
,
3000
0000
0000
0000
,
0002
0000
0000
0000
,
0003
0000
0000
0000
,
0002
0000
0000
0000
,
0003
0000
0000
0000
,
1001
0000
0000
0000
,
0000
0000
0000
0000
,
1000
0000
0001
0000
,
1001
0000
0000
0000
,
0001
1000
0001
1000
,
0000
0000
0000
0000
;
#NOTES:
     dance-single:
     :
     Easy:
     5:
     :
0000
0000
0000
0000
,
0000
0000
0000
0000
,
0000
0000
0000
0000
,
0000
0000
0000
0000
,
0000
0000
0000
0000
,
0001
0001
0010
0000
,
0001
0010
0100
0000
,
1000
1000
0010
0000
,
1000
0100
0010
0000
,
0001
0100
0010
1000
,
0001
0001
1000
0001
,
1000
0100
0010
0001
,
0010
0010
0100
0100
,
0110
0000
0000
0000
,
0110
0000
0000
0000
,
0110
0000
0000
0000
,
0110
0000
0000
0000
,
1000
1000
0010
0010
,
0001
0010
1000
0000
,
0001
0001
0010
0010
,
1000
0010
0001
0000
,
2000
0000
3000
0000
,
0002
0000
0003
0000
,
0200
0000
0300
0000
,
0020
0000
0030
0000
,
0110
0000
0000
0000
,
1000
1000
1000
0000
,
0100
0100
0100
0000
,
0010
0010
0010
0000
,
0001
0001
0001
0000
,
1000
0100
1000
0000
0100
0000
0000
0000
,
1000
0010
1000
0000
0010
0000
0000
0000
,
1000
0001
1000
0000
0001
0000
1000
0000
,
0001
0010
0001
0000
0010
0000
0000
0000
,
0001
0000
0001
0000
,
0100
0000
0010
0000
,
0110
0000
0000
0000
,
1001
0000
0000
0000
,
1000
0100
0010
0000
,
0100
0010
0001
0000
,
1000
0001
1000
0000
,
0001
1000
0001
1000
,
0002
0000
0003
0000
,
0200
0000
0300
0000
,
0020
0000
0030
0000
,
1000
0001
1000
0000
,
0001
1000
0001
1000
,
0000
0000
0000
0000
;
#NOTES:
     dance-single:
     :
     Medium:
     11:
     :
0000
0000
0000
0000
,
0000
0000
0000
0000
,
0000
0000
0000
0000
,
0000
0000
0000
0000
,
0000
0000
0000
0000
,
0001
0010
0001
0000
0001
1000
0001
0000
,
0001
0100
0001
0000
0001
1000
0001
0000
,
1000
0010
1000
0000
1000
0001
1000
0000
,
1000
0100
1000
0000
1000
0001
1000
0000
,
1001
2000
3200
0320
,
0032
1000
0203
0320
,
2030
3000
0002
0003
,
2002
3003
0220
0330
,
0100
0100
0000
0000
0000
0000
0000
0000
,
0100
0100
0000
0000
0000
0000
0000
0000
,
0100
0100
0000
0000
0000
0000
0000
0000
,
0100
0100
0000
0000
2002
0000
3003
0000
,
1000
0100
0010
0100
1000
0100
0010
0100
,
1000
0010
0100
0010
1000
0010
0100
0000
,
0001
0010
0100
0010
0001
0010
0100
0010
,
0001
0100
0010
0100
0001
0100
0010
0100
,
0002
0003
2000
3000
,
2002
0000
0000
3003
,
0200
0300
0020
0030
,
0220
0000
0330
0000
,
2000
0002
0000
3003
,
1000
1010
1000
1100
1000
1010
0010
0100
,
0001
0011
0001
0101
0001
0011
0010
0100
,
1000
1100
0001
0101
1000
1100
0001
0101
,
1000
0000
0000
0010
0000
0000
0001
0000
0000
0010
0000
0000
1000
0000
1000
0010
0000
0010
0100
0000
0100
0001
0000
0000
,
0001
0101
0001
0011
0001
0101
0100
0010
,
1000
1100
1000
1010
1000
1100
0100
0010
,
0001
0011
1000
1010
0001
0011
1000
1010
,
0001
0000
0000
0100
0000
0000
1000
0000
0000
0100
0000
0000
0001
0000
0001
0100
0000
0100
0010
0000
0010
1000
0000
0000
,
0002
0100
0203
0010
,
0320
1000
2030
0001
,
3001
0000
0001
0010
0001
0000
1000
0000
1000
0010
1000
0000
,
0100
0000
0000
0110
0000
0000
0001
1000
0001
1000
0001
0000
,
1000
0000
1000
0100
0000
0100
0010
0000
0000
1001
0000
0000
,
0001
0000
0001
0100
0000
0100
0010
0000
0010
1000
0000
0000
,
0001
0100
0001
0100
0001
0000
1000
0100
1000
0100
1000
0000
,
0002
0000
0000
0023
0000
0000
0130
0010
0100
0010
0100
0010
,
0200
0000
0300
0000
,
0020
0000
0030
0000
,
1001
0000
0001
1000
,
0001
1000
0001
1000
,
0001
1000
0001
1000
,
0000
0000
0000
0000
;
#NOTES:
     dance-single:
     :
     Hard:
     14:
     :
0000
0000
0000
0000
,
0000
0000
0000
0000
,
0000
0000
0000
0000
,
0000
0000
0000
0000
,
0000
0000
0000
0000
,
0001
0100
0001
0000
0100
0010
0100
0000
0010
1000
0010
0000
1000
0001
1000
0000
,
0001
0010
0001
0000
0010
0100
0010
0000
0100
1000
0100
0000
1000
0001
1000
0000
,
1000
0100
1000
0000
0100
0010
0100
0000
0010
0001
0010
0000
0001
1000
0001
0000
,
1000
0010
1000
0000
0010
0100
0010
0000
0100
0001
0100
0000
0001
1000
0001
0000
,
1001
0000
0000
0000
0100
0010
0110
0000
0000
0001
1000
0000
1001
0000
1000
0100
,
0110
0000
0000
0001
0100
0001
1001
0000
0000
1000
0100
0000
0100
0010
0001
0000
,
0011
0000
0000
0001
1000
0010
1010
0000
0000
1000
0100
0000
0001
0000
0100
0000
,
1100
0000
0000
1000
0100
0010
0011
0000
0000
0001
1000
0010
0100
0010
0100
0000
,
0110
0110
0000
0000
0000
0000
0000
0000
,
0110
0110
0000
0000
0000
0000
0000
0000
,
0110
0110
0000
0000
0000
0000
0000
0000
,
0110
0000
0000
0000
0110
0000
0000
0000
0000
0000
0000
0000
1000
0000
0001
0000
0000
0000
0001
0000
0000
0000
0001
0010
0100
0000
1000
0000
1000
0000
0000
0000
,
0002
0010
0203
1000
0320
0001
2030
0001
,
3200
0001
0320
1000
0032
0100
2003
0100
,
3001
0010
0100
0000
1000
0010
0100
0000
0001
0100
0010
0000
1000
0100
0010
0000
,
0001
0100
1000
0000
1000
0100
0001
0000
1000
0100
0001
0000
0001
0100
1000
0000
,
0002
0000
0003
0000
0200
0000
0300
0100
,
0010
0220
0000
0330
,
2000
0000
3000
0000
0200
0000
0300
0100
,
0020
0000
0000
0000
0000
0000
0030
0000
0000
0001
1000
0001
,
2000
0002
0000
3003
,
0001
0100
0010
1000
0000
0000
0001
0100
0010
1000
0000
0000
0001
0100
0010
1000
0000
0000
0001
0000
0001
0010
0000
0010
,
0100
1000
0001
0010
0000
0000
0100
1000
0001
0010
0000
0000
0001
0000
0001
1000
0000
1000
0010
0100
0010
1000
0001
1000
,
0100
0010
0001
1000
0000
0000
0001
0010
0100
1000
0000
0000
0010
0100
0001
1000
0000
0000
0100
0010
0100
0010
0001
0010
,
0001
0000
0001
0100
0000
0100
1000
0000
1000
0010
0000
0010
0001
0100
0001
0100
0010
0100
0010
1000
0010
1000
0000
0000
,
1000
0100
0010
0001
0000
0000
1000
0100
0010
0001
0000
0000
1000
0100
0010
0001
0000
0000
1000
0000
1000
0010
0000
0010
,
0100
0001
1000
0010
0000
0000
0100
0001
1000
0010
0000
0000
1000
0000
1000
0001
0000
0001
0010
0100
0010
0001
1000
0001
,
0100
0010
1000
0001
0000
0000
1000
0010
0100
0001
0000
0000
0010
0100
1000
0001
0000
0000
0100
0010
0100
0010
1000
0010
,
1000
0000
1000
0100
0000
0100
0001
0000
0001
0010
0000
0010
1000
0100
1000
0100
0010
0100
0010
0001
0010
0001
0000
0000
,
2000
0010
3002
0010
,
2003
0100
3002
0100
,
1003
0100
0010
0001
1000
0000
0001
0100
0010
1000
0001
0000
,
1000
0100
0010
0001
0100
0010
1000
0100
0010
0001
1000
0001
,
0100
0010
1000
0010
0100
0010
1000
0000
0000
1000
0100
0010
,
0001
1000
0001
0100
0010
0100
0001
1000
0001
0010
0100
1000
,
0001
0010
0001
0100
0001
0100
0010
1000
0010
1000
0100
1000
,
0001
0010
0100
1000
0100
0010
0001
0100
0010
1000
0010
0100
,
0002
0000
0103
0000
,
2000
0100
3100
0000
,
0020
0100
0230
0310
,
0110
1000
0001
1000
,
0001
1000
0001
1000
,
0000
0000
0000
0000
;
#NOTES:
     dance-single:
     :
     Challenge:
     17:
     :
0000
0000
0000
0000
,
0000
0000
0000
0000
,
0000
0000
0000
0000
0000
0000
0000
0000
0000
0000
0000
0000
0000
0000
0000
1000
,
2000
0000
3002
0000
0023
0000
2030
0000
3200
0000
2300
0000
3020
0000
0000
0100
,
0230
0000
2300
3010
0020
0000
0032
0003
0200
0300
0001
0000
0020
0030
1000
0000
,
0021
0000
0130
0001
1000
0010
0100
1000
0001
0100
0010
0001
1000
0100
0010
1000
,
0001
0010
0100
0001
1000
0010
0100
1000
0001
0100
0010
1000
0001
0010
0100
1000
,
0020
0000
0130
1000
0001
0010
0100
0001
1000
0100
0010
1000
0001
0100
0010
0001
,
1000
0010
0100
1000
0001
0010
0100
0001
1000
0100
0010
0001
0101
0100
0020
0030
,
1001
0000
1200
0000
0301
0100
1200
0000
0300
1000
0201
0000
1300
0000
0210
0000
,
0301
0000
0021
0000
1030
0010
0021
0000
0030
0001
1020
0000
0031
0010
0120
0000
,
1030
0000
0201
0000
1300
0100
0201
0000
0300
0001
1200
0000
0301
0000
0210
0000
,
1300
0000
1020
0000
0031
0010
1020
0000
0030
1000
0021
0031
0010
0100
0120
0030
,
1100
0000
0000
0000
1100
0000
0100
0100
0001
0000
0100
0100
1000
0000
0010
0000
0000
0000
0100
0001
1000
0000
0100
0100
0001
0000
0100
0100
1000
0000
0010
0000
,
0101
0000
0000
0000
0101
0000
0100
0100
1000
0000
0100
0100
0001
0000
0010
0000
0000
0000
0100
1000
0001
0000
0100
0100
2000
0000
0000
0000
0002
0000
3003
0000
,
0011
0000
0011
0000
0001
0100
0010
0110
0000
1000
1100
0100
0010
0001
1000
1000
,
1010
0000
0000
0000
1010
0000
0000
0000
1000
0000
0100
0000
0010
0000
0110
0000
0000
0000
0100
0000
1100
0000
0001
0100
0010
0000
2000
0000
0001
0000
0000
0000
,
3020
0130
0200
0000
0302
0100
0200
0003
0320
0100
0200
0030
2300
0100
0200
3000
,
0320
1000
2000
0000
3000
1000
2000
0030
3002
1000
2000
0003
3200
1000
2300
3200
,
0302
0100
0200
0000
0300
0100
0200
0003
0320
0100
0200
0000
0300
0100
0200
0030
,
2300
0000
0001
0000
0002
0000
0000
0000
0003
0000
0001
0000
0002
0000
3000
0000
0103
0000
0000
0110
0000
0000
0100
0001
1000
0000
0100
0000
0020
0000
0000
0000
,
0002
0000
0000
0030
0203
0000
0000
2300
,
3020
0000
0100
0000
0002
0000
0000
0000
0000
0000
0030
0000
0013
0000
0001
1000
,
0020
0100
0001
0000
2030
0010
0001
0000
,
3200
0000
0000
0010
0000
0000
0001
0000
0000
0000
0000
0000
0000
0000
0000
1000
0000
0000
0302
0000
0023
0000
2030
0000
,
3002
0000
0020
0000
0000
0033
0220
0330
,
1000
0100
0010
0001
0010
0100
0001
0100
0010
0001
0010
0100
1000
0100
0010
0001
0010
0100
0001
0100
0010
0100
0010
0001
,
1000
0010
0100
0001
0100
0010
0001
0010
0100
0001
0100
0010
1000
0001
0010
0100
0010
0100
0001
0100
0010
0001
1000
0010
,
0100
0001
1000
0010
1000
0001
0010
0001
1000
0100
1000
0001
0010
0100
0010
0001
0010
0100
0001
0100
0010
0001
1000
0010
,
0100
0000
0001
0000
0100
0000
0010
0000
1000
0000
0010
0000
0001
0000
1000
0000
0100
0000
0010
0000
1000
0000
0100
0000
0001
0000
1000
0000
0010
0000
0100
0000
1000
0000
0001
0000
0100
0000
0010
0000
1000
0000
2002
0000
0000
3003
0000
0000
,
0001
0000
0000
0000
0100
0000
0000
0000
0010
0000
0000
0000
1000
0000
0000
0000
0010
0000
0000
0000
0100
0000
0000
0000
2000
0000
0000
3000
0100
0000
0000
0000
0010
0000
0000
0000
1000
0000
0000
0000
0010
0000
0000
0000
0100
0000
0000
0000
0002
0000
0000
0003
0100
0000
0000
0000
0010
0000
0000
0000
1000
0000
0000
0000
0010
0000
0000
0000
0100
0000
0000
0000
1000
0000
0000
0000
0100
0000
0000
0000
0010
0000
0000
0000
0200
0000
0000
0300
0010
0000
0000
0000
1000
0000
0000
0000
,
0002
0000
0000
0003
0010
0000
0000
0000
0100
0000
0000
0000
1000
0000
0000
0000
0100
0000
0000
0000
0010
0000
0000
0000
1000
0000
0000
0000
0010
0000
0000
0000
0100
0000
0000
0000
1000
0000
0000
0000
0100
0000
0000
0000
0010
0000
0000
0000
0002
0000
0000
0003
1000
0000
0000
0000
0010
0000
0000
0000
0100
0000
0000
0000
0010
0000
0000
0000
0100
0000
0000
0000
2000
0000
0000
3000
0100
0000
0000
0000
0010
0000
0000
0000
1000
0000
0000
0000
0001
0000
0000
0000
0010
0000
0000
0000
,
0200
0000
0000
0300
1000
0000
0000
0000
0001
0000
0000
0000
0010
0000
0000
0000
0001
0000
0000
0000
1000
0000
0000
0000
0010
0000
0000
0000
1000
0000
0000
0000
0001
0000
0000
0000
0100
0000
0000
0000
0001
0000
0000
0000
1000
0000
0000
0000
0010
0000
0000
0000
0100
0000
0000
0000
0010
0000
0000
0000
2000
0000
0000
3000
0010
0000
0000
0000
0100
0000
0000
0000
2000
0000
0000
3000
0100
0000
0000
0000
0010
0000
0000
0000
1000
0000
0000
0000
0001
0000
0000
0000
0010
0000
0000
0000
,
0200
0000
0000
0300
1000
0000
0000
0000
0100
0000
0000
0000
0010
0000
0000
0000
0001
0000
0000
0000
0010
0000
0000
0000
1000
0000
0000
0000
0001
0000
0000
0000
0100
0000
0000
0000
0010
0000
0000
0000
0001
0000
0000
0000
0100
0000
0000
0000
2000
0000
0000
0000
0000
0000
0000
0000
0000
3002
0000
0000
0000
0000
0000
0000
0000
0000
0023
0000
0000
0000
0000
0000
1030
0000
0000
0000
0000
0000
0001
0000
0000
0000
0000
0000
2002
0000
0000
0000
0000
0000
3003
0000
0000
0000
0000
0000
,
1000
0000
0000
0000
0100
0000
0000
0000
0010
0000
0000
0000
0100
0000
0000
0000
0001
0000
0000
0000
0000
0000
0000
0000
2000
0000
0000
3000
0010
0000
0000
0000
0100
0000
0000
0000
0010
0000
0000
0000
0001
0000
0000
0000
0000
0000
0000
0000
,
2000
0000
0000
3000
0010
0000
0000
0000
0100
0000
0000
0000
1000
0000
0000
0000
0100
0000
0000
0000
0010
0000
0000
0000
1000
0000
0010
0000
1000
0000
0000
0000
0001
0000
0000
0000
0020
0000
0000
0030
0100
0000
0000
0000
1000
0000
0000
0000
,
0002
0000
0000
0003
0100
0000
0000
0000
0010
0000
0000
0000
0100
0000
0000
0000
1000
0000
0000
0000
0000
0000
0000
0000
0002
0000
0000
0003
0010
0000
0000
0000
0100
0000
0000
0000
0010
0000
0000
0000
1000
0000
0000
0000
0000
0000
0000
0000
,
0002
0000
0000
0003
0010
0000
0000
0000
0100
0000
0000
0000
0001
0000
0000
0000
0100
0000
0000
0000
0010
0000
0000
0000
0001
0000
0010
0000
0001
0000
0000
0000
1000
0000
0000
0000
0020
0000
0000
0030
0000
0000
0200
0000
0000
0300
0000
0000
,
0002
0000
0000
0003
1000
0000
0100
0000
1000
0000
0100
0000
1000
0000
0000
0000
0001
0000
0000
0000
0100
0000
0000
0000
0020
0000
0000
0030
0000
0000
1010
0000
0000
0000
0000
0000
1000
0000
0000
0000
0100
0000
0000
0000
0010
0000
0000
0000
,
2000
0000
0000
3000
0001
0000
0000
0000
1000
0000
0000
0000
0010
0000
0000
0000
0100
0000
0000
0000
0010
0000
0000
0000
0001
0000
0000
0000
1000
0000
0000
0000
0001
0000
0000
0000
0100
0000
0000
0000
0010
0000
0000
0000
1000
0000
0000
0000
,
0002
0000
0000
0003
0100
0000
0001
0000
0100
0000
0001
0000
0100
0000
0000
0000
0010
0000
0000
0000
0100
0000
0000
0000
2000
0000
0000
3000
0100
0000
0000
0000
0010
0000
0000
0000
1000
0000
0000
0000
0001
0000
0000
0000
0010
0000
0000
0000
,
0200
0000
0000
0300
0001
0000
0000
0000
1000
0000
0000
0000
0010
0000
0000
0000
0001
0000
0000
0000
0100
0000
0000
0000
1000
0000
0000
0000
0001
0000
0000
0000
0010
0000
0000
0000
1000
0000
0000
0000
0001
0000
0000
0000
0010
0000
0000
0000
,
0200
0000
2300
0000
3020
0000
0032
0000
0203
0000
0302
0000
0023
0000
2030
0001
,
3002
0000
2003
3000
1200
0000
0302
0003
0021
0000
0032
0003
0200
0000
2300
3001
,
0020
0000
0032
0003
0201
0000
2300
3000
1020
0000
2030
3000
1200
0000
0302
0023
,
0200
0300
1000
0000
0200
0300
0001
0030
0020
0030
1000
0000
0020
0030
0001
0000
,
0200
0300
1000
0000
0200
0000
0001
0000
0020
0030
1000
0000
0020
0030
0001
0000
,
0000
0000
0300
0000
;
#NOTES:
     dance-double:
     :
     Easy:
     5:
     :
00000000
00000000
00000000
00000000
,
00000000
00000000
00000000
00000000
,
00000000
00000000
00000000
00000000
,
00000000
00000000
00000000
00000000
,
00000000
00000000
00000000
00000000
,
00001000
00001000
00010000
00000000
,
00001000
00010000
00100000
00000000
,
00100000
00100000
01000000
00000000
,
01000000
00010000
01000000
00000000
,
01000000
00010000
01000000
00001000
,
00010000
00010000
00011000
00000000
,
00001000
00010000
00001000
00010000
,
00000100
00000100
00000010
00000000
,
00000110
00000000
00000000
00000000
,
00000110
00000000
00000000
00000000
,
00000110
00000000
00000000
00000000
,
00000110
00000000
00000000
00000000
,
00001001
00000001
00000100
00000010
,
00001000
00000010
00010000
00000000
,
00011000
00001000
00010000
00001000
,
01000000
00010000
10000000
00000000
,
20000000
00000000
30000000
00000000
,
02000000
00000000
03000000
00000000
,
00200000
00000000
00300000
00000000
,
00002000
00000000
00003000
00000000
,
00011000
00000000
00000000
00000000
,
00001000
00001000
00010000
00000000
,
00010000
00010000
00000010
00000000
,
00000010
00000010
00000100
00000000
,
00000100
00001000
00010000
00000000
,
00010000
00001000
00010000
00000000
00001000
00000000
00100000
00000000
,
00010000
01000000
00010000
00000000
00100000
00000000
00000000
00000000
,
00100000
01000000
00100000
00000000
00010000
00000000
01000000
00000000
,
00010000
01000000
00001000
00000000
,
00011000
00000000
00010000
00000000
,
00001000
00000000
00000010
00000000
,
00000001
00000000
00000000
00000000
,
00001001
00000000
00000000
00000000
,
00000001
00000100
00000010
00000000
,
00000010
00000100
00001000
00000000
,
00010000
00001000
00010000
00000000
,
00001000
00010000
00001000
00100000
,
00020000
00000000
00030000
00000000
,
20000000
00000000
30000000
00000000
,
02000000
00000000
03000000
00000000
,
00010000
00001000
00010000
00000000
,
00001000
00010000
00001000
00010000
,
00000000
00000000
00000000
00000000
;
#NOTES:
     dance-double:
     :
     Medium:
     11:
     :
00000000
00000000
00000000
00000000
,
00000000
00000000
00000000
00000000
,
00000000
00000000
00000000
00000000
,
00000000
00000000
00000000
00000000
,
00000000
00000000
00000000
00000000
,
00001000
00010000
00001000
00000000
00001000
00100000
00001000
00000000
,
00001000
01000000
00001000
00000000
00001000
00010000
00001000
00000000
,
00010000
00001000
00010000
00000000
00010000
00000010
00010000
00000000
,
00010000
00000100
00010000
00000000
00010000
00001000
00010000
00000000
,
00002000
00023000
00032000
00003200
,
00000320
00001000
00020030
00032000
,
00023000
02030000
03200000
02300000
,
03020000
00030000
00002000
00003000
,
00001000
00001000
00000000
00000000
00000000
00000000
00000000
00000000
,
00010000
00010000
00000000
00000000
00000000
00000000
00000000
00000000
,
00001000
00001000
00000000
00000000
00000000
00000000
00000000
00000000
,
00010000
00010000
00000000
00000000
00022000
00000000
00033000
00000000
,
00001000
00010000
00001000
00010000
00000100
00001000
00000010
00001000
,
00000100
00000010
00000001
00000100
00000001
00000010
00000001
00000000
,
00001000
00000001
00000100
00000001
00000100
00001000
00000100
00001000
,
00010000
00100000
00010000
00100000
01000000
00100000
01000000
00100000
,
20000000
30000000
00020000
00030000
,
20020000
00000000
00000000
30030000
,
20000000
30000000
02000000
03000000
,
00020000
00002000
00033000
00000000
,
00022000
00000000
00000000
00033000
,
00001000
00011000
00001000
00011000
00010000
00010100
00000100
00001100
,
00001000
00001010
00001000
00001100
00000100
00000110
00000010
00000011
,
00000001
00001001
00000001
00000101
00000100
00000110
00000010
00001010
,
00001000
00000000
00000000
00000010
00000000
00000000
00010000
00000000
00000000
00001000
00000000
00000000
00100000
00000000
00010000
00100000
00000000
00001000
01000000
00000000
00001000
00010000
00000000
00000000
,
00010000
00011000
00010000
00011000
00001000
01001000
01000000
01010000
,
00010000
00110000
00010000
01010000
01000000
01100000
00100000
10100000
,
10000000
10010000
10000000
11000000
01000000
01100000
00100000
00110000
,
00010000
00000000
00000000
00100000
00000000
00000000
00001000
00000000
00000000
00010000
00000000
00000000
00000010
00000000
00001000
00000010
00000000
00010000
00000100
00000000
00010000
00001000
00000000
00000000
,
00020000
00032000
00203000
00320000
,
02030000
00000000
00000000
03200000
00000000
00000000
10300000
00000000
01000000
10000000
01000000
00000000
,
20000000
32000000
03200000
00320000
,
00230000
00000000
00000000
00302000
00000000
00000000
00013000
00000000
00001000
00010000
00001000
00000000
,
00010000
00000000
00010000
00000100
00000000
00000100
00000010
00000000
00000000
00001001
00000000
00000000
,
00000001
00000000
00000001
00000100
00000000
00000100
00000010
00000000
00000010
00000100
00000000
00000000
,
00000010
00001000
00000010
00001000
00000010
00000000
00010000
00001000
00010000
00001000
00010000
00000000
,
00002000
00000000
00000000
02003000
00000000
00000000
03010000
01000000
00010000
01000000
00100000
01000000
,
00200000
00000000
00300000
00000000
,
20000000
00000000
30000000
00000000
,
10010000
00000000
10000000
01000000
,
00010000
00001000
00010000
00001000
,
00010000
00001000
00010000
00001000
,
00000000
00000000
00000000
00000000
;
#NOTES:
     dance-double:
     :
     Hard:
     14:
     :
00000000
00000000
00000000
00000000
,
00000000
00000000
00000000
00000000
,
00000000
00000000
00000000
00000000
,
00000000
00000000
00000000
00000000
,
00000000
00000000
00000000
00000000
,
00001000
00010000
00001000
00000000
00010000
00100000
00010000
00000000
00100000
01000000
00100000
00000000
00010000
00100000
00010000
00000000
,
00001000
00010000
00001000
00000000
00000010
00001000
00000010
00000000
00000100
00000010
00000100
00000000
00000010
00001000
00000010
00000000
,
00001000
00010000
00001000
00000000
00010000
01000000
00010000
00000000
01000000
00100000
01000000
00000000
00010000
01000000
00010000
00000000
,
00001000
00010000
00001000
00000000
00000100
00001000
00000100
00000000
00000010
00000100
00000010
00000000
00000100
00001000
00000100
00000000
,
00001000
00000000
00010000
00000000
00100000
01000000
00100000
00000000
10000000
00010000
10000000
00000000
10000000
01000000
00010000
00001000
,
00010000
00000000
00010000
00001000
00010000
00001000
00000010
00000000
00000001
00001000
00000001
00000000
00000100
00000010
00000100
00000001
,
00001000
00000000
00001000
00000100
00000010
00000100
00001000
00000000
00000100
00010000
00001000
00000000
00010000
00001000
00100000
00010000
,
01000000
00000000
01000000
00010000
00100000
01000000
00100000
00000000
00010000
10000000
01000000
00000000
00010000
00001000
00010000
00001000
,
00010000
00011000
00000000
00000000
00000000
00000000
00000000
00000000
,
00011000
00011000
00000000
00000000
00000000
00000000
00000000
00000000
,
00011000
00011000
00000000
00000000
00000000
00000000
00000000
00000000
,
00011000
00000000
00000000
00000000
00011000
00000000
00000000
00000000
00000000
00000000
00000000
00000000
00010000
00000000
00001000
00000000
00000000
00000000
00001000
00000000
00000000
00000000
00010000
00000100
00010000
00000000
00000100
00000000
00001000
00000000
00000000
00000000
,
00000200
00001000
00000320
00000001
00000230
00020300
00032000
02003000
,
03200000
10000000
02300000
00010000
03200000
00320000
00032000
00003020
,
00000032
00000000
00001003
00000100
00000002
00000000
00000103
00010000
00002000
00000000
01003000
00010000
00200000
00000000
00310000
00000000
,
20000000
00000000
30010000
01000000
20000000
00000000
31000000
00001000
00020000
00000000
00030100
00001000
00000020
00000000
00001030
00000000
,
00000200
00000000
00000300
00000000
00000020
00000000
00000030
00000010
,
00000110
00002002
00000000
00003003
,
00000002
00000000
00000003
00000000
00000020
00000000
00001030
00010000
,
02000000
00000000
00000000
00000000
00000000
00000000
03000000
00000000
00000000
10000000
00010000
10000000
,
00020000
20000000
00000000
30030000
,
10000000
01000000
00100000
00010000
00000000
00000000
10000000
01000000
00100000
00010000
00000000
00000000
10000000
01000000
00100000
00010000
00000000
00000000
00100000
00000000
00100000
00001000
00000000
00001000
,
00010000
00000100
00001000
00000010
00000000
00000000
00010000
00000100
00001000
00000010
00000000
00000000
00010000
00000000
00010000
00001000
00000000
00001000
00000010
00000001
00000010
00000100
00001000
00000100
,
00001000
00000010
00000100
00000001
00000000
00000000
00000010
00000100
00001000
00000010
00000000
00000000
00000100
00001000
00010000
00001000
00000000
00000000
00010000
00001000
00010000
00000010
00010000
00001000
,
00010000
00000000
00010000
00100000
00000000
00100000
10000000
00000000
10000000
00010000
00000000
00010000
00100000
01000000
00010000
00001000
00010000
01000000
00100000
00010000
00100000
00010000
00000000
00000000
,
10000000
00100000
01000000
00010000
00000000
00000000
10000000
00100000
01000000
00010000
00000000
00000000
10000000
00100000
01000000
00010000
00000000
00000000
01000000
00000000
01000000
00001000
00000000
00001000
,
00010000
00000010
00001000
00000100
00000000
00000000
00010000
00000010
00001000
00000100
00000000
00000000
00010000
00000000
00010000
00001000
00000000
00001000
00000100
00000001
00000100
00000010
00001000
00000010
,
00001000
00000100
00000010
00000001
00000000
00000000
00000100
00000010
00001000
00000100
00000000
00000000
00000010
00001000
00010000
00001000
00000000
00000000
00010000
00001000
00010000
00000100
00010000
00001000
,
00010000
00000000
00010000
01000000
00000000
01000000
10000000
00000000
10000000
00010000
00000000
00010000
01000000
00100000
00010000
00001000
00010000
00100000
01000000
00010000
01000000
00010000
00000000
00000000
,
20000000
32000000
03020000
00032000
,
00003010
00000001
00000100
00000001
00000010
00000100
00001000
00000010
00000100
00000010
00000000
00001000
,
00000002
00000203
00002300
00023000
,
00130000
10000000
01000000
10000000
00100000
01000000
00010000
10000000
01000000
00100000
00000000
00100000
,
00001000
00010000
00001000
00010000
00000100
00010000
00000100
00000000
00000000
00000100
00001000
00000010
,
00000100
00000001
00000100
00000010
00001000
00000010
00001000
00000001
00001000
00000001
00000000
00000000
,
00001000
00000010
00001000
00000010
00001000
00000000
00000100
00010000
00000100
00010000
00000100
00000000
,
00010000
00001000
00100000
00010000
01000000
00100000
10000000
00100000
00010000
00100000
10000000
00010000
,
20000000
00000000
30010000
00000000
,
00020000
00001000
00031000
00000000
,
00002000
00000000
00003001
00000001
,
00001001
00000001
00000100
00001000
,
00010000
00001000
00010000
00001000
,
00000000
00000000
00000000
00000000
;
#NOTES:
     dance-double:
     :
     Challenge:
     17:
     :
00000000
00000000
00000000
00000000
,
00000000
00000000
00000000
00000000
,
00000000
00000000
00000000
00000000
00000000
00000000
00000000
00000000
00000000
00000000
00000000
00000000
00000000
00000000
00000000
10000000
,
20000000
00000000
30200000
00000000
00320000
00000000
00032000
00000000
00003020
00000000
00000032
00000000
00000203
00000000
00000000
00000010
,
00000320
00000000
00000032
00001003
00002000
00000000
00023000
00030000
00200000
00300000
10000000
00000000
02000000
03000000
00010000
00000000
,
00012000
00000000
00003010
00000100
00001000
00000001
00000100
00001000
00010000
00001000
00010000
01000000
10000000
00010000
01000000
00100000
,
00010000
10000000
01000000
00100000
00010000
00001000
00000100
00000010
00000001
00000010
00000100
00001000
00010000
00100000
01000000
10000000
,
00020000
00000000
00130000
01000000
00010000
10000000
01000000
00010000
00001000
00010000
00001000
00000100
00000001
00001000
00000010
00000100
,
00001000
00000001
00000010
00000100
00001000
00010000
00100000
01000000
10000000
01000000
00100000
00010000
00011000
00001000
00000020
00000030
,
00000011
00000000
00000201
00000000
00001300
00000100
00000201
00000000
00000300
00002001
00003200
00000000
00010300
00000000
00001200
00000000
,
00010300
00000000
02001000
00000000
03010000
01000000
02001000
00000000
03000000
20010000
32000000
00000000
03010000
01000000
02100000
00000000
,
13000000
00000000
10200000
00000000
00310000
00100000
10200000
00000000
00300000
10020000
00230000
00000000
00301000
00000000
00210000
00000000
,
00301000
00000000
00010020
00000000
00001030
00000010
00010020
00000000
00000030
00001002
00000023
00000031
00000010
00000100
00000120
00000030
,
00001100
00000000
00000000
00000000
00001100
00000000
00000100
00000100
00000001
00000000
00000100
00000100
00001000
00000000
00000010
00000000
00000000
00000000
00010000
00001000
00100000
00000000
01000000
01000000
00010000
00000000
01000000
01000000
10000000
00000000
00100000
00000000
,
01010000
00000000
00000000
00000000
01010000
00000000
01000000
01000000
10000000
00000000
01000000
01000000
00010000
00000000
00100000
00000000
00000000
00000000
00001000
00010000
00000010
00000000
00000100
00000100
00002000
00000000
00000000
00000000
00000002
00000000
00003003
00000000
,
00000011
00000000
00000011
00000000
00000010
00001000
00010000
00011000
00000000
00001000
01001000
01000000
00001000
00010000
00100000
10000000
,
10100000
00000000
00000000
00000000
10100000
00000000
00000000
00000000
00100000
00000000
00010000
00000000
00001000
00000000
00011000
00000000
00000000
00000000
00010000
00000000
00010100
00000000
00000100
00001000
00000001
00000000
00000002
00000000
00000010
00000000
00000000
00000000
,
00002003
00003100
00000200
00000000
00000320
00000100
00000200
00000030
00020300
00000100
00000200
00030000
00002300
00000100
00000200
00003000
,
00020300
00001000
00002000
00000000
00003000
00001000
00002000
00030000
00203000
00001000
00002000
00300000
02003000
00001000
03002000
00023000
,
00030020
00010000
00020000
00000000
00030000
00010000
00020000
00000030
00032000
00010000
00020000
00000000
00030000
00010000
00020000
00003000
,
00230000
00000000
01000000
00000000
02000000
00000000
00000000
00000000
03000000
00000000
01000000
00000000
02000000
00000000
00300000
00000000
13000000
00000000
00000000
01100000
00000000
00000000
00100000
10000000
00010000
00000000
00100000
00000000
00002000
00000000
00000000
00000000
,
00020000
00000000
00000000
00003000
00030200
00000000
00000000
00000302
,
00000023
00000000
00001000
00000000
00020000
00000000
00000000
00000000
00000000
00000000
00000030
00000000
00031000
00000000
00100000
00010000
,
02000000
00100000
00001000
00000000
03020000
10000000
00100000
00000000
,
00032000
00000000
00000000
00000100
00000000
00000000
00000001
00000000
00000000
00000000
00000000
00000000
00000000
00000000
00000000
00000010
00000000
00000000
00023000
00000000
02030000
00000000
23000000
00000000
,
30200000
00000000
00002000
00000000
00000000
00303000
02200000
03300000
,
10000000
01000000
00100000
00010000
00100000
01000000
00010000
00001000
00010000
00000010
00001000
00000001
00001000
00000100
00000010
00000001
00000010
00000100
00000001
00000100
00001000
00000100
00010000
00001000
,
01000000
00001000
00010000
00000010
00010000
00001000
00100000
00001000
00010000
00000100
00010000
00001000
01000000
00001000
00010000
00000010
00001000
00000010
00000001
00000010
00000100
00001000
00010000
00100000
,
01000000
00010000
10000000
00100000
01000000
00100000
00010000
00001000
00010000
00000010
00001000
00000001
00000010
00000100
00000010
00000001
00000010
00000100
00000001
00000100
00001000
00000100
00010000
00001000
,
00100000
00000000
00001000
00000000
00010000
00000000
00000100
00000000
00010000
00000000
00001000
00000000
01000000
00000000
00001000
00000000
00010000
00000000
00000010
00000000
00001000
00000000
00000001
00000000
00000100
00000000
00001000
00000000
00010000
00000000
00100000
00000000
10000000
00000000
01000000
00000000
00010000
00000000
00001000
00000000
00000010
00000000
00000002
00000000
00000000
00000003
00000000
00000000
,
00000001
00000000
00000000
00000000
00000100
00000000
00000000
00000000
00000010
00000000
00000000
00000000
00001000
00000000
00000000
00000000
00000010
00000000
00000000
00000000
00000100
00000000
00000000
00000000
00002000
00000000
00000000
00003000
00010000
00000000
00000000
00000000
00001000
00000000
00000000
00000000
00100000
00000000
00000000
00000000
00010000
00000000
00000000
00000000
10000000
00000000
00000000
00000000
00020000
00000000
00000000
00030000
01000000
00000000
00000000
00000000
00100000
00000000
00000000
00000000
10000000
00000000
00000000
00000000
00100000
00000000
00000000
00000000
01000000
00000000
00000000
00000000
10000000
00000000
00000000
00000000
01000000
00000000
00000000
00000000
00010000
00000000
00000000
00000000
02000000
00000000
00000000
03000000
00001000
00000000
00000000
00000000
00010000
00000000
00000000
00000000
,
00000200
00000000
00000000
00000300
00010000
00000000
00000000
00000000
00001000
00000000
00000000
00000000
00100000
00000000
00000000
00000000
00001000
00000000
00000000
00000000
00010000
00000000
00000000
00000000
00000010
00000000
00000000
00000000
00010000
00000000
00000000
00000000
00001000
00000000
00000000
00000000
01000000
00000000
00000000
00000000
00001000
00000000
00000000
00000000
00010000
00000000
00000000
00000000
00000200
00000000
00000000
00000300
00010000
00000000
00000000
00000000
00001000
00000000
00000000
00000000
00100000
00000000
00000000
00000000
00010000
00000000
00000000
00000000
00100000
00000000
00000000
00000000
20000000
00000000
00000000
30000000
00100000
00000000
00000000
00000000
01000000
00000000
00000000
00000000
00010000
00000000
00000000
00000000
00001000
00000000
00000000
00000000
00000010
00000000
00000000
00000000
,
00000200
00000000
00000000
00000300
00001000
00000000
00000000
00000000
00000001
00000000
00000000
00000000
00000010
00000000
00000000
00000000
00000100
00000000
00000000
00000000
00000010
00000000
00000000
00000000
00001000
00000000
00000000
00000000
00010000
00000000
00000000
00000000
00001000
00000000
00000000
00000000
00100000
00000000
00000000
00000000
00010000
00000000
00000000
00000000
10000000
00000000
00000000
00000000
00100000
00000000
00000000
00000000
01000000
00000000
00000000
00000000
00100000
00000000
00000000
00000000
20000000
00000000
00000000
30000000
00100000
00000000
00000000
00000000
01000000
00000000
00000000
00000000
20000000
00000000
00000000
30000000
01000000
00000000
00000000
00000000
00010000
00000000
00000000
00000000
01000000
00000000
00000000
00000000
00001000
00000000
00000000
00000000
00010000
00000000
00000000
00000000
,
00000020
00000000
00000000
00000030
00010000
00000000
00000000
00000000
00001000
00000000
00000000
00000000
01000000
00000000
00000000
00000000
00001000
00000000
00000000
00000000
00010000
00000000
00000000
00000000
00000100
00000000
00000000
00000000
00010000
00000000
00000000
00000000
00001000
00000000
00000000
00000000
00100000
00000000
00000000
00000000
00010000
00000000
00000000
00000000
10000000
00000000
00000000
00000000
00200000
00000000
00000000
00000000
00000000
00000000
00000000
00000000
00000000
00320000
00000000
00000000
00000000
00000000
00000000
00000000
00000000
00000000
00032000
00000000
00000000
00000000
00000000
00000000
01003000
00000000
00000000
00000000
00000000
00000000
00001000
00000000
00000000
00000000
00000000
00000000
02010000
00000000
00000000
00000000
00000000
00000000
00000000
00000000
00000000
00000000
00000000
00000000
,
13000000
00000000
00000000
00000000
01000000
00000000
00000000
00000000
00100000
00000000
00000000
00000000
00010000
00000000
00000000
00000000
00001000
00000000
00000000
00000000
00000000
00000000
00000000
00000000
00200000
00000000
00000000
00300000
00010000
00000000
00000000
00000000
00001000
00000000
00000000
00000000
00000100
00000000
00000000
00000000
00000010
00000000
00000000
00000000
00000000
00000000
00000000
00000000
,
00000002
00000000
00000000
00000003
00000100
00000000
00000000
00000000
00001000
00000000
00000000
00000000
00010000
00000000
00000000
00000000
00001000
00000000
00000000
00000000
00100000
00000000
00000000
00000000
00001000
00000000
00010000
00000000
00001000
00000000
00000000
00000000
00010000
00000000
00000000
00000000
00000200
00000000
00000000
00000300
00001000
00000000
00000000
00000000
00000010
00000000
00000000
00000000
,
00000002
00000000
00000000
00000003
00000010
00000000
00000000
00000000
00000100
00000000
00000000
00000000
00001000
00000000
00000000
00000000
00010000
00000000
00000000
00000000
00000000
00000000
00000000
00000000
00000200
00000000
00000000
00000300
00001000
00000000
00000000
00000000
00010000
00000000
00000000
00000000
00100000
00000000
00000000
00000000
01000000
00000000
00000000
00000000
00000000
00000000
00000000
00000000
,
20000000
00000000
00000000
30000000
00100000
00000000
00000000
00000000
00010000
00000000
00000000
00000000
00001000
00000000
00000000
00000000
00010000
00000000
00000000
00000000
00000100
00000000
00000000
00000000
00010000
00000000
00001000
00000000
00010000
00000000
00000000
00000000
00001000
00000000
00000000
00000000
00200000
00000000
00000000
00300000
00000000
00000000
02000000
00000000
00000000
03000000
00000000
00000000
,
20000000
00000000
00000000
30000000
00010000
00000000
01000000
00000000
00010000
00000000
01000000
00000000
00010000
00000000
00000000
00000000
10000000
00000000
00000000
00000000
01000000
00000000
00000000
00000000
00020000
00000000
00000000
00030000
00000000
00000000
00011000
00000000
00000000
00000000
00000000
00000000
00001000
00000000
00000000
00000000
00010000
00000000
00000000
00000000
00001000
00000000
00000000
00000000
,
00000020
00000000
00000000
00000030
00000001
00000000
00000000
00000000
00000010
00000000
00000000
00000000
00001000
00000000
00000000
00000000
00010000
00000000
00000000
00000000
00001000
00000000
00000000
00000000
01000000
00000000
00000000
00000000
00010000
00000000
00000000
00000000
10000000
00000000
00000000
00000000
01000000
00000000
00000000
00000000
00010000
00000000
00000000
00000000
00001000
00000000
00000000
00000000
,
00020000
00000000
00000000
00030000
00000100
00000000
00001000
00000000
00000100
00000000
00001000
00000000
00000100
00000000
00000000
00000000
00000010
00000000
00000000
00000000
00000001
00000000
00000000
00000000
00000200
00000000
00000000
00000300
00001000
00000000
00000000
00000000
00010000
00000000
00000000
00000000
00001000
00000000
00000000
00000000
00100000
00000000
00000000
00000000
00010000
00000000
00000000
00000000
,
20000000
00000000
00000000
30000000
00100000
00000000
00000000
00000000
00010000
00000000
00000000
00000000
00001000
00000000
00000000
00000000
00000100
00000000
00000000
00000000
00000001
00000000
00000000
00000000
00000010
00000000
00000000
00000000
00001000
00000000
00000000
00000000
00010000
00000000
00000000
00000000
01000000
00000000
00000000
00000000
10000000
00000000
00000000
00000000
00010000
00000000
00000000
00000000
,
02000000
00000000
23000000
00000000
30020000
00000000
00032000
00000000
00003020
00000000
00000032
00000000
00002003
00000000
00003200
00000001
,
00000302
00000000
00002003
00003000
00021000
00000000
02030000
03000000
21000000
00000000
30200000
00300000
00020000
00000000
00032000
00003100
,
00000020
00000000
00000032
00000003
00002001
00000000
00023000
00030000
00210000
00000000
20300000
30000000
12000000
00000000
03200000
00320000
,
20000000
30000000
01000000
00000000
00032000
00000000
00000010
00000000
00000002
00000003
00000100
00000000
00023000
00000000
00100000
00000000
,
20030000
30000000
01000000
00000000
00002000
00000000
00000100
00000000
00000002
00000003
00000010
00000000
00020000
00030000
00000010
00000000
,
00000000
00000000
00003000
00000000
;
