
//----- song ID: gale -----//
#TITLE:Gale Rider;
#ARTIST:P*Light;
#BANNER:Gale Rider.png;
#BACKGROUND:Gale Rider-bg.png;
#CDTITLE:./CDTitles/RB groovin'!!.png;
#MUSIC:Gale Rider.ogg;
#SAMPLESTART:83.317;
#SAMPLELENGTH:15;
#BPMS:0=193;
#NOTES:
     dance-single:
     :
     Beginner:
     4:
     :
0000
0000
0000
0000
,
0000
0000
0000
0000
,
0000
0000
0000
0000
,
1000
0000
0000
0000
,
0001
0000
0000
0000
,
1000
0000
0001
0000
,
1001
0000
0000
0000
,
1000
0000
0000
0000
,
0001
0000
0000
0000
,
0010
0000
0000
0000
,
0100
0000
0100
0000
,
2000
0000
3000
0000
,
0002
0000
0003
0000
,
0200
0000
0300
0000
,
0010
0010
0000
0000
,
2000
0000
3000
0000
,
0200
0000
0300
0000
,
0020
0000
0030
0000
,
0001
0000
0001
0000
,
0002
0000
0003
0000
,
2000
0000
3000
0000
,
0200
0000
0300
0000
,
0010
0000
0010
0000
,
1001
0000
0000
0000
,
1001
0000
0000
0000
,
2002
0000
0000
0000
,
0000
0000
3003
0000
,
0002
0000
0003
0000
,
0020
0000
0030
0000
,
0200
0000
0300
0000
,
1000
0000
0001
0000
,
1000
0000
0000
0000
,
0001
0000
0000
0000
,
0010
0000
0010
0000
,
0100
0000
0100
0000
,
2000
0000
3000
0000
,
0200
0000
0300
0000
,
0020
0000
0030
0000
,
0001
0000
0001
0000
,
0002
0000
0003
0000
,
0020
0000
0030
0000
,
0200
0000
0300
0000
,
1000
0000
1000
0000
,
0001
0000
0001
0000
,
0010
0000
0010
0000
,
0100
0000
0100
0000
,
0010
0000
0010
0000
,
0200
0000
0000
0000
,
0000
0000
0300
0000
,
0000
0000
0000
0000
,
0000
0000
0000
0000
,
0010
0000
0000
0000
,
0000
0000
0000
0000
,
0200
0000
0000
0000
,
0000
0000
0300
0000
,
0000
0200
0000
0000
,
0000
0000
0300
0000
,
1000
0000
0000
0000
,
0001
0000
0000
0000
,
0010
0000
0010
0000
,
0100
0000
0001
0000
,
2000
0000
3000
0000
,
0002
0000
0003
0000
,
0020
0000
0030
0000
,
1001
0000
0000
0000
,
1000
0000
0001
0000
,
1000
1000
1000
0000
,
0001
0000
0001
0000
,
0010
0000
0010
0000
,
0100
0000
0100
0000
,
1000
0000
1000
0000
,
0010
0000
0010
0000
,
0100
0000
0100
0000
,
0001
0000
0001
0000
,
0020
0000
0030
0000
,
0010
0000
0010
0000
,
0001
0000
0100
0000
,
0010
0000
0010
0000
,
1000
0000
0100
0000
,
0010
0000
1000
0000
,
0001
0000
1000
0000
,
0010
0000
1000
0000
,
0002
0000
0003
0000
,
1000
0000
0001
0000
,
0100
0000
0010
0000
,
1000
0000
0001
0000
,
0010
0000
0000
0000
,
1001
0000
0000
0000
,
1001
0000
0000
0000
,
1000
0000
0000
0000
,
0001
0000
0000
0000
,
2002
0000
0000
0000
,
0000
0000
0000
0000
,
0000
0000
0000
0000
,
3003
0000
0000
0000
,
0000
0000
0000
0000
;
#NOTES:
     dance-single:
     :
     Easy:
     8:
     :
0000
0000
0000
0000
,
0000
0000
0000
0000
,
0000
0000
0000
0000
,
1001
0000
0000
0000
,
0110
0000
0000
0000
,
0001
0001
0001
0001
,
1000
1000
1000
1000
,
0010
1000
0010
0000
,
0100
0001
0100
0000
,
0001
0010
0100
1000
,
0002
0000
1000
1003
,
0001
0000
0100
0100
,
0010
0000
1000
1000
,
0001
0000
0100
0100
,
0001
0000
1000
0000
0001
1000
0001
0000
,
1000
0000
0100
0100
,
0010
0000
0100
0100
,
1000
0000
0100
0100
,
1000
0000
0001
0000
1000
0001
1000
0000
,
0010
0000
1000
1000
,
0010
0000
0100
0100
,
0001
0000
0010
0010
,
0001
0000
1000
0000
0001
1000
0001
0000
,
1001
0000
0110
0000
,
0110
0000
1001
0000
,
2002
0000
0000
0000
,
0000
0000
3003
0000
,
2000
0000
0000
3000
,
0002
0000
0000
0003
,
0100
0010
1000
0001
,
0200
0000
0000
0300
0000
0010
0010
0000
,
0000
1000
0000
0010
0000
0100
0000
0001
,
0000
0100
0000
0010
0000
2000
0000
0000
,
3000
0001
0000
0010
0000
0100
0000
1000
,
0001
0000
0000
0000
,
0010
0000
0001
0001
,
0100
0000
0001
0001
,
0010
0000
0100
0100
,
1000
0000
0010
0000
1000
0001
1000
0000
,
0010
0000
1000
1000
,
0010
0000
1000
1000
,
0100
0000
0010
0010
,
0001
0000
1000
0000
0001
1000
0001
0000
,
0010
0010
0010
0010
,
0100
0100
0100
0100
,
0020
0030
0200
0300
,
2000
3000
0002
0003
,
2002
0000
0000
0000
,
0000
0000
0000
3003
,
1000
0000
0000
0010
,
0000
0000
0100
0000
,
0000
0001
0000
0000
,
1000
0000
0001
0000
,
0010
0000
0000
0100
,
0000
0000
1000
0000
,
0000
0001
0000
0000
,
1000
0000
0010
0000
,
0010
0010
0100
0001
,
1000
1000
0100
0100
,
0010
0010
0100
1000
,
0001
0001
0010
0010
,
0100
1000
0100
1000
,
0001
0100
0001
0100
,
0010
1000
0001
0100
,
0000
0010
0000
0000
0100
0000
0100
0000
,
1001
0000
0110
0000
,
0100
0100
1001
0000
,
1000
0001
0010
0010
,
0001
1000
0100
0100
,
1000
0001
0100
0100
,
0001
1000
0001
1001
,
0001
0001
1000
1000
,
0010
0010
0100
0100
,
0010
0100
0001
1000
,
0001
0010
0100
0000
,
1000
1000
0001
0010
,
0100
0100
1000
0100
,
0010
0010
0001
0100
,
0010
0010
1000
0100
,
1000
1000
0010
0100
,
0001
0001
0010
0100
,
1000
0001
0100
0010
,
0100
0100
0100
0000
,
0001
1000
0001
1000
,
0010
0100
0010
0100
,
0002
0003
2000
3000
,
0010
0010
0010
1001
,
0002
0003
2000
3000
,
0010
1000
0001
0100
,
0020
0000
0200
0330
,
0000
0100
0000
0010
0100
0010
0100
0000
,
2002
0000
0000
0000
,
0000
0000
0000
0000
,
0000
0000
0000
0000
,
3003
0000
0000
0000
,
0000
0000
0000
0000
;
#NOTES:
     dance-single:
     :
     Medium:
     13:
     :
0000
0000
0000
0000
,
0000
0000
0000
0000
,
0000
0000
0000
0000
,
1001
0000
0000
0001
0000
0000
1000
0000
0000
0000
0001
0000
0100
0000
1000
0000
,
0100
0000
0000
0010
0000
0000
0100
0000
0000
0000
0110
0000
0000
0000
1001
0000
,
1000
1000
0010
0100
0001
0001
0010
0100
,
1000
1000
0000
0001
0000
0100
0100
0000
,
0010
0000
0000
1000
0000
0000
0010
0000
0000
0000
0001
0000
0010
0000
1000
0000
,
0100
0000
0000
0010
0000
0000
0001
0000
0000
0000
0011
0000
0000
0000
0001
0000
,
0010
0000
0110
0000
1000
0100
0001
0000
,
0100
0001
0100
0010
0100
1000
0100
0000
,
0020
0000
0000
0032
0000
0000
2003
0000
0000
3002
0000
0000
0103
0000
0000
0000
,
0020
0000
0000
0230
0000
0000
2300
0000
0000
3200
0000
0000
0301
0000
0000
0000
,
2000
0000
0000
3002
0000
0000
0023
0000
0000
0032
0000
0000
1003
0000
0000
0000
,
0110
0000
1001
0000
0001
0100
1000
0000
,
0002
0000
0000
0023
0000
0000
2030
0000
0000
3200
0000
0000
0301
0000
0000
0000
,
2000
0000
0000
3020
0000
0000
0032
0000
0000
0203
0000
0000
1300
0000
0000
0000
,
0002
0000
0000
0023
0000
0000
2030
0000
0000
3200
0000
0000
0310
0000
0000
0000
,
0110
0000
1001
0000
0001
0100
1000
0100
,
0002
0000
0000
0023
0000
0000
2030
0000
0000
3020
0000
0000
0031
0000
0000
0000
,
2000
0000
0000
3200
0000
0000
0320
0000
0000
0230
0000
0000
1300
0000
0000
0000
,
0020
0000
0000
0032
0000
0000
0023
0000
0000
0230
0000
0000
0310
0000
0000
0000
,
1010
0000
0101
0000
0001
1000
0010
0000
,
0001
0000
0000
0010
0000
0000
1000
0000
0001
0000
0000
0100
0000
0000
1000
0000
,
0100
0000
0000
0001
0000
0000
0010
0000
0100
0000
0000
1000
0000
0000
0010
0000
,
0000
0000
1000
0000
0001
0000
0000
0010
0000
0000
0100
0000
0010
0000
0100
0000
,
0110
1001
0011
1100
,
0011
0000
0000
0001
0000
0000
0010
0000
0000
0000
0001
0000
0100
0000
1000
0000
,
0100
0000
0000
0010
0000
0000
1000
0000
0000
0000
1010
0000
0000
0000
0101
0000
,
0001
0001
0010
0100
0010
0010
0100
1000
,
0001
0001
0000
1000
0000
0100
0100
0000
,
0010
0001
0000
0001
0010
1000
0000
1000
,
0010
0001
0000
0001
0010
0100
0100
0000
,
1000
0001
0000
0001
0100
1000
0000
1000
,
0100
0001
0100
0010
0100
1000
0100
0000
,
2000
0000
0000
3200
0000
0000
0302
0000
0000
0023
0000
0000
1030
0000
0000
0000
,
2000
0000
0000
3020
0000
0000
0032
0000
0000
0203
0000
0000
1300
0000
0000
0000
,
0002
0000
0000
0023
0000
0000
2030
0000
0000
3200
0000
0000
0301
0000
0000
0000
,
0110
0000
1001
0000
1000
0100
0001
0000
,
0002
0000
0000
0203
0000
0000
2300
0000
0000
3020
0000
0000
0031
0000
0000
0000
,
0002
0000
0000
0023
0000
0000
2030
0000
0000
3200
0000
0000
0301
0000
0000
0000
,
2000
0000
0000
3020
0000
0000
0032
0000
0000
0203
0000
0000
1300
0000
0000
0000
,
0110
0000
1001
0000
1000
0001
1000
0000
,
1100
0000
0011
0000
0001
0010
1000
0000
,
1010
0000
0110
0000
0100
0010
0001
0000
,
0010
0001
0010
0001
1000
0100
1000
0100
,
0010
0001
1000
0100
0010
0001
0100
0010
,
2000
0000
0000
0000
,
0000
0000
0000
0000
,
3020
0000
0000
0001
0000
0000
0100
0000
,
0000
2030
0000
0000
0100
0000
0000
0010
,
0000
0000
3002
0000
0000
0100
0000
0000
,
1000
0000
0000
1003
0000
0000
0000
0000
,
2000
0000
0000
0010
0000
0000
0001
0000
,
0000
3200
0000
0000
0001
0000
0000
1000
,
0000
0000
0320
0000
0000
1000
0000
0000
,
0001
0000
0000
0031
0000
0000
0000
0000
,
0010
0001
0010
0001
0100
1000
0100
0010
,
1000
0010
0001
0010
1000
0100
0001
0000
,
0100
1000
0100
1000
0010
0001
0010
0100
,
0001
1000
0001
0010
0001
0100
1000
0000
,
0210
0000
1300
0100
0001
0010
0100
0000
,
0210
0000
0301
0100
1000
0010
0100
0000
,
0101
0000
0001
0100
1000
0100
0010
1000
,
0000
1001
0000
1000
0100
0010
0001
0000
,
1000
0100
1000
0100
0010
0001
0010
0001
,
1000
0100
0010
0001
0010
0100
1000
0000
,
1000
0010
1000
0010
0100
0001
0010
1000
,
0010
0000
0001
0000
0010
0000
0001
0000
1000
0001
1000
0000
0010
0000
0000
0000
,
0100
0001
0100
0001
1000
0010
1000
0100
,
0001
0100
1000
0010
1010
0000
1001
0000
,
1000
0010
0001
0010
0001
0010
1000
0100
,
0010
0000
0001
0000
0010
0000
0001
0000
1000
0001
1000
0000
0100
0000
0000
0000
,
0001
0100
1000
0100
1000
0100
0010
0001
,
0100
0100
0100
0010
0100
0010
0110
0000
,
0010
1000
0100
1000
0100
1000
0010
0100
,
0001
0000
0010
0000
0001
0000
0010
0000
0001
1000
0001
0000
0010
0000
0000
0000
,
0100
1000
0010
1000
0010
1000
0100
0010
,
0001
0100
0001
0100
0101
0000
1001
0000
,
0001
0010
0001
0010
0001
0100
0010
1000
,
0100
0000
1000
0000
0100
0000
1000
0000
0001
1000
0001
0000
0100
0000
0000
0000
,
0010
1000
0010
1000
0010
0100
0001
0010
,
0100
0100
0100
0010
0100
0010
0110
0000
,
0010
0001
0010
0001
0100
0010
1000
0100
,
0010
1000
0001
0100
1000
0001
0100
1000
,
0002
0000
0000
0013
0002
0000
0000
0013
,
1000
0001
1000
0100
1000
0001
1000
0010
,
2000
0000
0000
3001
2000
0000
0000
3100
,
0100
0010
0100
0010
0010
0000
1001
0000
,
1000
0000
1000
0000
0001
0000
0001
0000
0100
0010
0100
0010
0200
0000
0300
0000
,
0000
1001
0000
1000
0001
1000
0001
0000
,
2002
0000
0000
0000
,
0000
0000
0000
0000
,
0000
0000
0000
0000
,
3003
0000
0000
0000
,
0000
0000
0000
0000
;
#NOTES:
     dance-single:
     :
     Hard:
     16:
     :
0000
0000
0000
0000
,
0000
0000
0000
0000
,
0000
0000
0000
0000
,
1001
0000
0000
1100
0000
0000
0011
0000
0000
0000
0001
0000
0100
0000
0010
0000
,
0110
0000
0000
1010
0000
0000
0101
0000
0000
0000
0001
0000
0100
0000
0010
0000
,
1000
0000
0100
1000
0100
0000
0010
0000
0001
0000
0010
0001
0010
0000
0100
0000
,
1100
1100
0000
0110
0000
0011
0011
0000
,
0010
0000
0001
0000
0010
0000
1000
0010
1000
0000
0010
0000
0001
0000
0010
0001
,
0010
0000
0000
1100
0000
0000
1001
0000
0000
0000
1000
0000
0000
0000
0001
0000
,
0100
0000
0100
0000
0010
0000
0100
1000
0100
0001
0100
0000
0010
0000
0100
0010
,
0100
0100
0100
0001
0100
0100
0110
0000
,
2001
0000
0000
0010
0000
0000
0001
0000
0000
0100
0000
0000
3001
0000
0000
0000
,
1002
0000
0000
0100
0000
0000
1000
0000
0000
0010
0000
0000
1003
0000
0000
0000
,
0210
0000
0000
0001
0000
0000
0010
0000
0000
1000
0000
0000
0310
0000
0000
0000
,
1001
0000
0110
0000
0010
0100
1001
0000
,
2001
0000
3010
0200
0000
0000
0320
0000
0000
0032
0000
0000
0013
0000
0000
0000
,
0120
0000
1030
0200
0000
0000
2300
0000
0000
3002
0000
0000
1003
0000
0000
0000
,
0021
0000
0031
0200
0000
0000
0320
0000
0000
0230
0000
0000
1300
0000
0000
0000
,
0001
0000
0010
0000
1000
0000
0100
0000
0010
0001
0010
0000
0100
1000
0100
0000
,
1100
0000
1000
0100
0000
0100
0010
0000
0010
0001
0000
0001
0010
0000
0000
0000
,
0011
0000
0001
0100
0000
0100
0010
0000
0010
0001
0000
0001
0010
0000
0000
0000
,
0011
0000
0001
0010
0000
0010
1000
0000
1000
0100
0000
0100
0001
0000
0000
0000
,
0001
0100
1000
0010
0001
0010
1010
0000
,
0101
0000
0000
1010
0000
0000
0101
0000
1100
0000
0000
0011
0000
0000
1100
0000
,
0101
0000
0000
1001
0000
0000
1010
0000
0011
0000
0000
1001
0000
0000
0101
0000
,
0000
0000
0001
0000
0100
0000
0001
0100
0000
0100
0010
0000
0100
0000
0010
0000
,
0100
0000
0100
0000
0010
0000
0010
0000
1000
0001
1000
0001
2000
0000
0000
0000
,
3100
0000
0000
0010
0000
0000
0100
0000
0000
0000
1000
0000
0001
0000
1000
0000
,
0011
0000
0000
1000
0000
0000
1100
0000
0000
0000
0110
0000
0000
0000
1001
0000
,
1000
0000
0100
0010
0001
0000
0001
0010
0100
0000
0010
0100
1000
0000
0001
0000
,
0101
0101
0000
1001
0000
1010
1010
0000
,
1000
0000
0010
1000
0100
0000
0100
1000
0010
0000
0100
0001
0010
0000
0010
0001
,
0100
0000
0001
1000
0100
0000
1000
0001
0010
0000
0010
0000
0010
0000
0000
0000
,
0001
0000
0010
0001
0100
0000
0100
0001
0100
0001
0010
0000
0100
1000
0010
0000
,
0100
0100
0100
0010
1000
0001
1001
0000
,
0210
0000
0000
0001
0000
0000
1000
0000
0000
0010
0000
0000
0301
0000
0000
0000
,
0120
0000
0000
1000
0000
0000
0001
0000
0000
0100
0000
0000
1030
0000
0000
0000
,
1002
0000
0000
0013
0000
0000
2001
0000
0000
3100
0000
0000
0110
0000
0000
0000
,
1100
0000
0011
0000
0010
0100
1001
0000
,
2010
0000
0000
0001
0000
0000
3200
0000
0000
0001
0000
0000
0310
0000
0000
0000
,
0012
0000
0000
1000
0000
0000
0203
0000
0000
1000
0000
0000
0310
0000
0000
0000
,
2001
0000
0000
3020
0000
0000
0230
0000
0000
0302
0000
0000
1003
0000
0000
0000
,
1000
0000
0100
0000
1000
0000
0100
0000
1000
0100
0010
0000
0011
0000
0000
0000
,
0001
0000
0100
0000
0001
0000
0100
0000
0001
0100
0010
0000
1010
0000
0000
0000
,
1000
0000
0001
0000
1000
0000
0001
0000
1000
0001
0010
0000
0110
0000
0000
0000
,
0010
0100
0010
0100
0010
0000
0001
0000
0100
0010
0100
0010
0100
0000
0001
0000
,
0010
0001
0200
0000
0310
1000
0200
0000
0310
0001
0200
0000
0310
1000
0200
0000
,
0320
0000
0000
0000
,
0000
0000
0000
0000
,
0031
0100
1000
0001
0010
1000
0010
1000
,
0100
0010
0001
0100
1000
0100
0001
1000
,
0010
0001
0010
1000
0100
0010
0001
0100
,
1000
0100
0001
0010
1000
0010
0001
0000
,
0100
0001
0010
0100
1000
0010
1000
0010
,
0001
1000
0100
0001
0010
1000
0001
0100
,
0010
0001
0100
1000
0001
0010
1000
0001
,
0010
1000
0001
0100
0010
0001
0100
0000
,
0010
1000
0010
0100
0001
0010
1000
0010
,
0001
0000
0010
0000
0001
0000
0100
0000
0010
1000
0010
0000
0100
0000
0000
0000
,
0001
0100
0001
0010
1000
0010
0001
0100
,
1000
0000
0100
0000
0010
0000
0001
0000
0010
0100
0010
0000
1000
0000
0000
0000
,
0001
0000
0100
0010
1000
0000
0001
0100
0010
0000
1000
0000
0100
0000
0010
0001
,
0010
0000
0100
0000
1000
0000
0100
0010
0001
0000
1000
0000
0100
0000
0010
0001
,
1000
0100
1000
0100
0010
0001
0010
0001
0020
0000
0000
0000
0130
1000
0100
1000
,
0000
1001
0000
0110
0001
1000
0001
0000
,
1001
0100
0010
0100
1001
0001
1000
0001
,
0011
0010
0110
0100
1001
1000
0001
0000
,
0001
0100
0001
0100
0010
1000
0100
0001
,
0100
0000
1000
0000
0100
0000
1000
0000
0010
0100
0010
0000
0110
0000
0000
0000
,
0010
0100
0010
0100
0001
1000
0100
0010
,
0001
0000
0010
0000
1000
0000
0010
0000
0001
0010
0001
0000
0100
0000
0000
0000
,
0001
0010
0001
0010
1000
0010
0001
0100
,
1000
0000
0100
0000
1000
0000
0100
0000
0010
0100
0010
0000
0110
0000
0000
0000
,
0100
0010
0100
0010
0001
0010
1000
0100
,
0010
0001
0010
0100
0010
0000
0010
0000
0010
1000
0010
0000
1001
0000
0000
0000
,
1000
0100
1000
0000
0001
0100
0001
0000
1000
0000
0010
0000
0100
0000
0001
0000
,
1000
0010
1000
0000
0001
0000
0010
0000
0100
1000
0100
0000
0010
0000
0000
0000
,
0001
0010
0001
0000
1000
0010
1000
0000
0001
0000
0010
0000
0100
0000
1000
0000
,
0001
1000
0010
1000
0001
0000
0100
0000
0010
0100
0010
0000
0110
0000
0000
0000
,
0100
0010
0100
0000
0010
0100
0010
0000
1000
0000
0001
0000
0100
0000
0010
0000
,
1000
0100
0010
0000
0001
0000
1000
0100
1000
0100
1000
0000
0001
0000
0000
0000
,
1000
0001
1000
0000
1000
0001
1000
0000
0001
0000
1000
0000
0010
0000
0100
0000
,
0010
1000
0001
0100
0010
1000
0010
0000
0010
0000
0100
0000
1001
0000
0000
0000
,
1000
0100
1000
0100
0010
0001
0100
1000
,
0100
0001
0010
1000
0010
0001
0100
1000
,
0200
0000
0000
0000
0000
0000
0310
0001
0020
0000
0000
0000
0000
0000
1030
0001
,
1000
0001
1000
0001
1000
0001
1000
0010
,
0100
0000
0010
1000
0100
0000
0010
0001
0100
0000
0010
0000
0010
0000
1000
0001
,
1000
0000
0010
0100
0010
0000
0010
0000
0110
0000
0000
0000
1001
0000
0000
0000
,
0001
1000
0010
1000
0001
0000
0001
0000
1000
0001
0100
0001
2000
0000
0000
0000
,
3000
1100
0000
0011
1000
0001
1000
0000
,
2002
0000
0000
0000
,
0000
0000
0000
0000
,
0000
0000
0000
0000
,
3003
0000
0000
0000
,
0000
0000
0000
0000
;
#NOTES:
     dance-double:
     :
     Easy:
     8:
     :
00000000
00000000
00000000
00000000
,
00000000
00000000
00000000
00000000
,
00000000
00000000
00000000
00000000
,
00001001
00000000
00000000
00000000
,
00000110
00000000
00000000
00000000
,
00000001
00000001
00001000
00001000
,
00000010
00000010
00000100
00000100
,
00001000
00010000
00001000
00000000
,
00010000
00001000
00010000
00000000
,
00001000
00100000
00010000
01000000
,
00200000
00000000
10000000
10300000
,
01000000
00000000
00100000
00100000
,
00001000
00000000
00010000
00010000
,
00000100
00000000
00001000
00001000
,
00000100
00000000
00000010
00000000
00000001
00001000
00000001
00000000
,
00000100
00000000
00000010
00000010
,
00001000
00000000
00000100
00000100
,
00010000
00000000
00001000
00001000
,
00100000
00000000
01000000
00000000
10000000
00010000
10000000
00000000
,
01000000
00000000
00100000
00100000
,
00001000
00000000
00010000
00010000
,
00000100
00000000
00000010
00000010
,
00000100
00000000
00000010
00000000
00000001
00001000
00000001
00000000
,
00000100
00000000
00001000
00000000
,
00010000
00000000
00100000
00000000
,
02200000
00000000
00000000
00000000
,
00000000
00000000
03300000
00000000
,
20000000
00000000
00000000
30000000
,
00020000
00000000
00000000
00030000
,
00100000
01000000
10000000
00010000
,
02000000
00000000
00000000
03000000
00000000
00100000
00100000
00000000
,
00000000
10000000
00000000
00100000
00000000
01000000
00000000
00010000
,
00000000
00100000
00000000
00001000
00000000
00010000
00010000
00000000
,
00000000
00001000
00000000
00010000
00000000
00000100
00000000
00000010
,
00000100
00000000
00000000
00000000
,
00000010
00000000
00000001
00000001
,
00000100
00000000
00000010
00000010
,
00001000
00000000
00000100
00000100
,
00010000
00000000
00001000
00000000
00010000
00001000
00010000
00000000
,
00001000
00000000
00100000
00100000
,
01000000
00000000
10000000
10000000
,
00010000
00000000
00100000
00100000
,
00001000
00000000
00010000
00000000
00001000
00010000
00001000
00000000
,
00000100
00000100
00000010
00000010
,
00001000
00001000
00000001
00000001
,
00000020
00000030
00000200
00000300
,
00002000
00003000
00000002
00000003
,
00000220
00000000
00000000
00000000
,
00000000
00000000
00000000
00000330
,
00001000
00000000
00000000
00000100
,
00000000
00000000
00000001
00000000
,
00000000
00000100
00000000
00000000
,
00001000
00000000
00000010
00000000
,
00000100
00000000
00000000
00001000
,
00000000
00000000
00010000
00000000
,
00000000
01000000
00000000
00000000
,
10000000
00000000
00100000
00000000
,
10000000
10000000
00100000
00010000
,
00001000
00001000
00010000
00010000
,
00001000
00001000
00000010
00000001
,
00000010
00000010
00000001
00001000
,
00000001
00000010
00000100
00001000
,
00000001
00000100
00001000
00010000
,
00100000
01000000
00010000
10000000
,
00000000
00100000
00000000
00000000
01000000
00000000
01000000
00000000
,
01100000
00000000
10010000
00000000
,
10000000
00010000
10010000
00000000
,
10000000
00010000
00100000
00100000
,
00001000
00010000
00000100
00000100
,
00000010
00000001
00001000
00001000
,
00000100
00010000
00001000
00001000
,
00100000
00010000
10000000
10000000
,
00100000
01000000
00010000
00010000
,
00100000
00001000
00010000
00010000
,
00000100
00000010
00000001
00000000
,
00000001
00000001
00000100
00001000
,
00010000
00010000
00100000
10000000
,
00010000
00010000
00100000
01000000
,
10000000
10000000
00010000
00010000
,
10000000
10000000
01000000
00010000
,
00001000
00001000
00000100
00000001
,
00001000
00001000
00000001
00000010
,
00000100
00000100
00000100
00000000
,
00001000
00000100
00010000
00001000
,
00100000
00010000
01000000
00100000
,
20000000
30000000
00020000
00030000
,
00100000
01000000
10000000
00010000
,
20000000
30000000
00020000
00030000
,
00100000
00001000
00010000
00000010
,
00000200
00000000
00000020
00000330
,
00000000
00000100
00000000
00000010
00000100
00000010
00000100
00000000
,
00002002
00000000
00000000
00000000
,
00000000
00000000
00000000
00000000
,
00000000
00000000
00000000
00000000
,
00003003
00000000
00000000
00000000
,
00000000
00000000
00000000
00000000
;
#NOTES:
     dance-double:
     :
     Medium:
     13:
     :
00000000
00000000
00000000
00000000
,
00000000
00000000
00000000
00000000
,
00000000
00000000
00000000
00000000
,
00010000
00000000
00000000
00001000
00000000
00000000
00010000
00000000
00000000
00000000
00001000
00000000
00010000
00000000
01000000
00000000
,
00100000
00000000
00000000
00010000
00000000
00000000
10000000
00000000
00000000
00000000
10010000
00000000
00000000
00000000
10000000
00000000
,
00100000
00000000
00000000
10000000
00000000
00000000
01000000
00000000
00000000
00000000
00010000
00000000
00001000
00000000
00010000
00000000
,
00000100
00000100
00000000
00000010
00000000
00000001
00000001
00000000
,
00000010
00000000
00000000
00001000
00000000
00000000
00000010
00000000
00000000
00000000
00000001
00000000
00000100
00000000
00001000
00000000
,
00000100
00000000
00000000
00001000
00000000
00000000
00010000
00000000
00000000
00000000
00011000
00000000
00000000
00000000
00010000
00000000
,
00100000
00000000
01100000
00000000
00100000
10000000
01000000
00000000
,
00100000
00010000
00100000
00001000
00100000
00010000
00100000
00000000
,
00200000
00000000
00000000
00320000
00000000
00000000
00230000
00000000
00000000
02300000
00000000
00000000
03010000
00000000
00000000
00000000
,
02000000
00000000
00000000
03020000
00000000
00000000
00032000
00000000
00000000
00023000
00000000
00000000
00031000
00000000
00000000
00000000
,
00020000
00000000
00000000
00032000
00000000
00000000
00023000
00000000
00000000
00030020
00000000
00000000
00000130
00000000
00000000
00000000
,
00000110
00000000
00001001
00000000
00001000
00000100
00000001
00000000
,
00002000
00000000
00000000
00003020
00000000
00000000
00000032
00000000
00000000
00000203
00000000
00000000
00001300
00000000
00000000
00000000
,
00020000
00000000
00000000
00230000
00000000
00000000
20300000
00000000
00000000
32000000
00000000
00000000
03010000
00000000
00000000
00000000
,
20000000
00000000
00000000
30200000
00000000
00000000
00320000
00000000
00000000
00032000
00000000
00000000
00003100
00000000
00000000
00000000
,
00000110
00000000
00001001
00000000
00000001
00000100
00000001
00000100
,
00000002
00000000
00000000
00000203
00000000
00000000
00002300
00000000
00000000
00023000
00000000
00000000
00130000
00000000
00000000
00000000
,
00020000
00000000
00000000
00230000
00000000
00000000
20300000
00000000
00000000
32000000
00000000
00000000
03010000
00000000
00000000
00000000
,
02000000
00000000
00000000
03020000
00000000
00000000
00032000
00000000
00000000
00003020
00000000
00000000
00000031
00000000
00000000
00000000
,
00000011
00000000
00001100
00000000
00000100
00001000
00000001
00000000
,
00000010
00000000
00000000
00001000
00000000
00000000
00010000
00000000
00001000
00000000
00000000
00010000
00000000
00000000
00100000
00000000
,
00010000
00000000
00000000
00001000
00000000
00000000
00010000
00000000
00001000
00000000
00000000
00000010
00000000
00000000
00001000
00000000
,
00000000
00000000
00010000
00000000
00001000
00000000
00000000
00000100
00000000
00000000
00001000
00000000
00010000
00000000
00001000
00000000
,
00011000
00101000
00011000
00010100
,
00000100
00000000
00000000
00000010
00000000
00000000
00000001
00000000
00000000
00000000
00000010
00000000
00000100
00000000
00001000
00000000
,
00000001
00000000
00000000
00000100
00000000
00000000
00001000
00000000
00000000
00000000
00001100
00000000
00000000
00000000
00001000
00000000
,
00010000
00010000
00001000
00010000
00001000
00100000
00010000
00000000
,
10000000
10000000
00000000
00010000
00000000
00100000
00100000
00000000
,
00001000
00010000
00000000
00001000
00000010
00000100
00000000
00010000
,
00001000
00100000
00000000
00010000
00100000
01000000
01000000
00000000
,
00010000
00001000
00000000
00000100
00000010
00001000
00000000
00010000
,
01000000
00100000
01000000
00010000
01000000
00100000
01000000
00000000
,
20000000
00000000
00000000
32000000
00000000
00000000
03020000
00000000
00000000
00230000
00000000
00000000
10300000
00000000
00000000
00000000
,
00200000
00000000
00000000
00320000
00000000
00000000
00032000
00000000
00000000
00003200
00000000
00000000
00000301
00000000
00000000
00000000
,
00000002
00000000
00000000
00000203
00000000
00000000
00002300
00000000
00000000
00003020
00000000
00000000
00000031
00000000
00000000
00000000
,
00000110
00000000
00001001
00000000
00001000
00000100
00000001
00000000
,
00000002
00000000
00000000
00000203
00000000
00000000
00002300
00000000
00000000
00003020
00000000
00000000
00000031
00000000
00000000
00000000
,
00000020
00000000
00000000
00002030
00000000
00000000
00023000
00000000
00000000
02030000
00000000
00000000
13000000
00000000
00000000
00000000
,
20000000
00000000
00000000
32000000
00000000
00000000
03020000
00000000
00000000
00230000
00000000
00000000
10300000
00000000
00000000
00000000
,
01100000
00000000
10010000
00000000
10000000
01000000
00010000
00000000
,
00011000
00000000
00010100
00000000
00000100
00001000
00000010
00000000
,
00001010
00000000
00010010
00000000
00010000
00001000
00100000
00000000
,
00010000
00100000
00010000
00100000
00001000
00010000
00001000
00010000
,
00000100
00001000
00000100
00001000
00000010
00000100
00000010
00000100
,
00000002
00000000
00000000
00000000
,
00000000
00000000
00000000
00000000
,
00000023
00000000
00000000
00000001
00000000
00000000
00000100
00000000
,
00000000
00002030
00000000
00000000
00010000
00000000
00000000
00000100
,
00000000
00000000
00023000
00000000
00000000
00001000
00000000
00000000
,
01000000
00000000
00000000
01030000
00000000
00000000
00000000
00000000
,
00200000
00000000
00000000
10000000
00000000
00000000
00010000
00000000
,
00000000
00302000
00000000
00000000
00010000
00000000
00000000
00000010
,
00000000
00000000
00023000
00000000
00000000
00001000
00000000
00000000
,
00000100
00000000
00000000
00030100
00000000
00000000
00000000
00000000
,
00000010
00000001
00000010
00000000
00000001
00000100
00001000
00000000
,
00001000
00000100
00000001
00000000
00001000
00000010
00001000
00000000
,
00000100
00010000
00000100
00000000
00010000
00001000
00100000
00000000
,
00010000
01000000
10000000
01000000
00010000
00100000
10000000
00000000
,
00100000
00010000
00100000
00000000
00001000
00010000
00001000
00000000
,
00000010
00000100
00000010
00000000
00000001
00000010
00000001
00000000
,
00000001
00000100
00001000
00010000
01000000
10000000
00100000
00010000
,
00000000
00011000
00000000
00001000
00000010
00000001
00000100
00000000
,
00000001
00001000
00000001
00001000
00000010
00000100
00001000
00000100
,
00001000
00010000
00001000
00010000
00100000
00010000
00100000
00000000
,
10000000
00010000
10000000
00000000
00100000
01000000
00100000
00000000
,
00010000
00001000
00010000
01000000
00010000
00001000
00010000
00000000
,
00001000
00010000
00001000
00000000
00000100
00000010
00000100
00000000
,
00001000
00000100
00001000
00010000
00001000
00000000
00011000
00000000
,
00001000
00010000
00100000
00000000
00100000
00010000
00001000
00000000
,
00000100
00000010
00000001
00000010
00000100
00000010
00000001
00000000
,
00000010
00001000
00010000
00000000
00001000
00010000
01000000
00000000
,
00100000
00010000
00001000
00000100
00000001
00000000
00001001
00000000
,
00000001
00000010
00000001
00000010
00000001
00000100
00001000
00000000
,
00010000
00001000
00010000
00001000
00010000
00100000
10000000
00000000
,
10000000
01000000
10000000
00000000
00100000
00010000
00100000
00000000
,
10000000
00100000
00010000
00100000
01000000
00000000
01100000
00000000
,
00010000
10000000
00010000
00000000
01000000
00001000
00010000
00000000
,
00001000
00010000
00001000
00000000
00010000
00000100
00000010
00000000
,
00000001
00000010
00000001
00000000
00001000
00000100
00001000
00000000
,
00000100
00010000
00001000
00010000
00000100
00000000
00011000
00000000
,
00010000
00001000
00010000
00001000
00000010
00000001
00000100
00001000
,
00010000
01000000
10000000
00100000
00010000
00001000
00000010
00001000
,
00020000
00000000
00000000
00031000
00020000
00000000
00000000
00031000
,
00010000
00001000
00100000
00001000
00010000
00001000
01000000
00001000
,
00020000
00000000
00000000
00031000
00020000
00000000
00000000
00130000
,
00100000
00000000
00000000
01000000
01000000
00000000
10010000
00000000
,
10000000
01000000
00010000
00001000
00000010
00000001
00000100
00000000
,
00000000
00011000
00000000
00010000
00001000
00010000
00001000
00000000
,
00022000
00000000
00000000
00000000
,
00000000
00000000
00000000
00000000
,
00000000
00000000
00000000
00000000
,
00033000
00000000
00000000
00000000
,
00000000
00000000
00000000
00000000
;
#NOTES:
     dance-double:
     :
     Hard:
     17:
     :
00000000
00000000
00000000
00000000
,
00000000
00000000
00000000
00000000
,
00000000
00000000
00000000
00000000
,
00011000
00000000
00000000
00010000
00000000
00000000
00001000
00000000
00000000
00000000
00010000
00000000
00001000
00000000
00000010
00000000
,
00000011
00000000
00000000
00000001
00000000
00000000
00000100
00000000
00000000
00000000
00001000
00000000
00000000
00000000
00010000
00000000
,
00011000
00000000
00000000
00001000
00000000
00000000
00010000
00000000
00000000
00000000
00001000
00000000
00010000
00000000
01000000
00000000
,
11000000
11000000
00000000
01100000
00000000
00110000
00110000
00000000
,
00100000
00000000
00010000
00000000
00100000
00000000
00001000
00010000
00001000
00000000
00010000
00000000
00001000
00000000
00000100
00000001
,
00000100
00000000
00000000
00000010
00000000
00000000
00001000
00000000
00000000
00000000
00001000
00000000
00000000
00000000
00000100
00000000
,
00001000
00000000
00001000
00000000
00000100
00000000
00001000
00000100
00010000
00000100
00001000
00000000
00000010
00000000
00010000
00001000
,
00010000
00010000
00001000
00001000
00010000
00001000
00011000
00000000
,
00021000
00000000
00000000
00230000
00000000
00000000
20300000
00000000
00000000
30020000
00000000
00000000
01030000
00000000
00000000
00000000
,
01200000
00000000
00000000
00320000
00000000
00000000
00032000
00000000
00000000
00023000
00000000
00000000
00030100
00000000
00000000
00000000
,
00000120
00000000
00000000
00002030
00000000
00000000
00023000
00000000
00000000
00032000
00000000
00000000
00003001
00000000
00000000
00000000
,
00000110
00000000
00001001
00000000
00000001
00000010
00000001
00000000
,
00001002
00000000
00000103
00000020
00000000
00000000
00020030
00000000
00000000
00032000
00000000
00000000
00013000
00000000
00000000
00000000
,
00021000
00000000
00031000
00200000
00000000
00000000
20300000
00000000
00000000
00200000
30000000
00000000
01300000
00000000
00000000
00000000
,
02100000
00000000
03100000
00002000
00000000
00000000
00023000
00000000
00000000
00030200
00000000
00000000
00000310
00000000
00000000
00000000
,
00000110
00000000
00001001
00000000
00000001
00000100
00001000
00010000
,
00100000
00000000
00010000
00001000
00000000
00001000
00010000
00000000
00000000
00000010
00000000
00000000
00000100
00000000
00000000
00000000
,
00000010
00000000
00010000
00001000
00000000
00001000
00010000
00000000
00000000
00001000
00000000
00000000
00100000
00000000
00000000
00000000
,
00001000
00000000
00001000
00010000
00000000
00010000
00001000
00000000
00000000
01000000
00000000
00000000
00100000
00000000
00000000
00000000
,
00010000
00000000
00010000
00000000
10000000
01000000
00010000
00000000
,
10000000
00000000
00000000
00100000
00000000
00000000
00010000
00000000
10000000
00000000
00000000
01000000
00000000
00000000
00010000
00000000
,
00001000
00000000
00000000
00000010
00000000
00000000
00000001
00000000
00001000
00000000
00000000
00000100
00000000
00000000
00000001
00000000
,
00000000
00000000
00000010
00000000
00001000
00000000
00000000
00000010
00000000
00000000
00000001
00000000
00000100
00000000
00001000
00000000
,
00010000
00000000
00010000
00000000
00001000
00000000
00001000
00000000
00010000
00001000
00010000
00001000
00020000
00000000
00000000
00000000
,
00031000
00000000
00000000
00000100
00000000
00000000
00000010
00000000
00000000
00000000
00000001
00000000
00000010
00000000
00001000
00000000
,
00010000
00000000
00000000
01000000
00000000
00000000
00100000
00000000
00000000
00000000
00010000
00000000
00100000
00000000
10000000
00000000
,
01000000
00000000
00010000
00001000
00010000
00000000
00001000
00000000
01000000
00000000
00001000
00010000
00001000
00000000
00000010
00000000
,
00000011
00000011
00000000
00001001
00000000
00001100
00001100
00000000
,
00000100
00001000
00000010
00001000
00000100
00010000
00001000
00100000
,
00001000
00010000
00100000
10000000
01000000
10000000
10100000
00000000
,
00100000
10000000
01000000
10000000
00100000
00010000
00001000
00000010
,
00001000
00010000
00000100
00001000
00000010
00001000
00001100
00000000
,
00000021
00000000
00000000
00000100
00000000
00000000
00001000
00000000
00000000
00000100
00000000
00000000
00000031
00000000
00000000
00000000
,
00010200
00000000
00000000
00001000
00000000
00000000
00000010
00000000
00000000
00001000
00000000
00000000
00010300
00000000
00000000
00000000
,
00201000
00000000
00000000
01000000
00000000
00000000
10000000
00000000
00000000
01000000
00000000
00000000
00301000
00000000
00000000
00000000
,
00010100
00000000
00101000
00000000
01000000
00100000
10010000
00000000
,
10020000
00000000
00000000
00100000
00000000
00000000
00001000
00000000
00000000
00100000
00000000
00000000
01030000
00000000
00000000
00000000
,
00012000
00000000
00000000
00000010
00000000
00000000
00000001
00000000
00000000
00000010
00000000
00000000
00013000
00000000
00000000
00000000
,
00021000
00000000
00000000
01000000
00000000
00000000
10000000
00000000
00000000
01000000
00000000
00000000
00031000
00000000
00000000
00000000
,
00010000
00000000
00001000
00000000
00010000
00000000
00001000
00000000
00000100
00000001
00000010
00000000
00000110
00000000
00000000
00000000
,
00000010
00000000
00000100
00000000
00000010
00000000
00000100
00000000
00010000
00001000
00010000
00000000
00011000
00000000
00000000
00000000
,
00001000
00000000
00010000
00000000
00001000
00000000
00010000
00000000
00100000
10000000
01000000
00000000
01100000
00000000
00000000
00000000
,
00100000
01000000
00100000
00000000
01000000
00000000
00100000
00000000
00010000
00100000
00010000
00000000
00100000
00000000
00010000
00000000
,
00001000
00000100
00002000
00000000
00003100
00000010
00000200
00000000
00000310
00000001
00000020
00000000
00000031
00000000
00000010
00000000
,
00000002
00000000
00000000
00000000
,
00000000
00000000
00000000
00000000
,
00000013
00000001
00000100
00000010
00001000
00000100
00000010
00001000
,
00010000
00000010
00000001
00001000
00010000
00100000
01000000
00001000
,
00010000
01000000
10000000
00100000
00010000
00001000
00100000
10000000
,
00100000
00010000
00001000
01000000
10000000
00100000
01000000
00000000
,
00100000
10000000
01000000
00100000
00010000
01000000
00100000
00010000
,
00001000
00100000
10000000
00010000
00001000
00000010
00000100
00010000
,
00001000
00000100
00000001
00000010
00001000
00010000
00000010
00000001
,
00000010
00001000
00010000
00000100
00000001
00000010
00000100
00000000
,
00000010
00000001
00000010
00000001
00000100
00000010
00010000
00001000
,
00100000
00000000
00001000
00000000
00100000
00000000
00001000
00000000
01000000
00010000
01000000
00000000
00100000
00000000
00000000
00000000
,
10000000
00100000
10000000
00100000
10000000
01000000
00010000
00001000
,
00010000
00000000
00000100
00000000
00010000
00000000
00001000
00000000
00000010
00001000
00000010
00000000
00000100
00000000
00000000
00000000
,
00000001
00000000
00000100
00000000
00000010
00000000
00000001
00000010
00000001
00000000
00000100
00000000
00001000
00000000
00010000
00001000
,
00010000
00000000
00100000
00000000
01000000
00000000
00001000
00010000
00001000
00000000
01000000
00000000
10000000
00000000
01000000
00010000
,
00100000
00010000
00100000
00010000
10000000
01000000
10000000
01000000
20000000
00000000
00000000
30000000
00010000
10000000
00010000
10000000
,
00000000
10010000
00000000
11000000
01000000
00010000
00001000
00000000
,
00010000
00000100
00000010
00000100
00000010
00001000
00010000
00001000
,
00010000
00100000
10000000
01000000
00010000
01000000
10000000
00000000
,
10000000
00010000
10000000
00010000
00100000
00001000
00010000
00000100
,
00000010
00000000
00000100
00000000
00000010
00000000
00000100
00000000
00001000
00000001
00001000
00000000
00001001
00000000
00000000
00000000
,
00000001
00001000
00000001
00001000
00000010
00001000
00010000
01000000
,
00100000
00000000
10000000
00000000
01000000
00000000
00100000
00000000
01000000
00100000
01000000
00000000
10010000
00000000
00000000
00000000
,
10000000
01000000
10000000
01000000
00100000
00001000
00010000
00000100
,
00001000
00000000
00000100
00000000
00001000
00000000
00000100
00000000
00000010
00000001
00000010
00000000
00000011
00000000
00000000
00000000
,
00000001
00000100
00000001
00000100
00000010
00001000
00010000
01000000
,
00100000
00010000
00100000
00000000
00100000
10000000
00100000
00000000
00100000
00000000
00100000
00000000
10010000
00000000
00000000
00000000
,
10000000
01000000
10000000
00000000
00010000
01000000
00010000
00000000
00100000
00000000
00010000
00000000
00001000
00000000
00000100
00000000
,
00000010
00000001
00000010
00000000
00001000
00000000
00000001
00000000
00000100
00000010
00000100
00000000
00000010
00000000
00000000
00000000
,
00000001
00000100
00000001
00000000
00001000
00000100
00001000
00000000
00000100
00000000
00010000
00000000
00001000
00000000
00100000
00000000
,
10000000
00000000
00100000
01000000
00100000
00000000
00010000
00000000
01000000
00100000
01000000
00000000
00010000
00000000
00000000
00000000
,
10000000
00100000
10000000
00000000
00010000
00100000
00010000
00000000
01000000
00000000
00001000
00000000
00000010
00000000
00000001
00000000
,
00001000
00000010
00001000
00000000
00000001
00000000
00000010
00000000
00001000
00000010
00001000
00000000
00000010
00000000
00000000
00000000
,
00000001
00000010
00000001
00000000
00000010
00000100
00000010
00000000
00001000
00000000
00010000
00000000
01000000
00000000
10000000
00000000
,
00100000
10000000
00100000
10000000
00100000
00000000
00100000
00000000
00100000
00000000
01000000
00000000
10010000
00000000
00000000
00000000
,
10000000
01000000
10000000
01000000
10000000
00010000
00001000
00000001
,
00001000
00010000
00000010
00000001
00000100
00010000
10000000
00100000
,
00002000
00000000
00000000
00000000
00000000
00000000
00103000
00010000
00200000
00000000
00000000
00000000
00000000
00000000
10300000
00010000
,
10000000
00010000
10000000
00010000
10000000
00010000
10000000
00100000
,
01000000
00000000
00100000
10000000
00100000
00000000
01000000
00001000
01000000
00000000
01000000
00000000
01000000
00000000
00001000
00010000
,
00001000
00000000
00000010
00000100
00000010
00000000
00000010
00000000
00000110
00000000
00000000
00000000
00001001
00000000
00000000
00000000
,
00000001
00000000
00000001
00000000
00001000
00000000
00001000
00000000
00001000
00000100
00010000
00000100
00002000
00000000
00000000
00000000
,
00003000
00001100
00000000
00000011
00000010
00001000
00010000
00000000
,
00022000
00000000
00000000
00000000
,
00000000
00000000
00000000
00000000
,
00000000
00000000
00000000
00000000
,
00033000
00000000
00000000
00000000
,
00000000
00000000
00000000
00000000
;
