
//----- song ID: gaga -----//
#TITLE:ギャ・ギャ・ギャ・ギャラクシー!;
#ARTIST:つきみぐー、;
#TITLETRANSLIT:Ga-ga-ga-galaxy!;
#ARTISTTRANSLIT:tsukimizzz;
#BANNER:Ga-ga-ga-galaxy!.png;
#BACKGROUND:Ga-ga-ga-galaxy!-bg.png;
#CDTITLE:./CDTitles/bm IIDX 32 Pinky Crush.png;
#MUSIC:Ga-ga-ga-galaxy!.ogg;
#SAMPLESTART:49.918;
#SAMPLELENGTH:15;
#BPMS:0=140;
#NOTES:
     dance-single:
     :
     Beginner:
     2:
     :
0000
0000
0000
0000
,
0000
0000
0000
0000
,
0000
0000
0000
0000
,
0000
0000
0000
0000
,
0000
0000
0000
0000
,
0010
0000
0010
0000
,
0000
0000
0000
0000
,
0010
0000
0010
0000
,
0000
0000
0000
0000
,
0010
0000
0010
0000
,
0000
0000
0000
0000
,
0010
0000
0010
0000
,
1001
0000
0000
0000
,
1000
0000
0000
0000
,
1000
0000
0000
0000
,
0100
0000
0000
0000
,
0010
0000
0000
0000
,
0001
0000
0000
0000
,
0001
0000
0000
0000
,
1000
0000
0000
0000
,
0010
0000
0010
0000
,
0010
0000
0000
0000
,
1000
0000
0000
0000
,
0001
0000
0001
0000
,
0001
0000
0001
0000
,
0001
0000
0000
0000
,
1000
0000
0000
0000
,
0100
0000
0000
0000
,
0010
0000
0000
0000
,
0110
0000
0000
0000
,
0000
0000
0000
0000
,
0001
0000
0000
0000
,
0001
0000
1000
0000
,
0001
0000
0000
0000
,
1000
0000
0000
0000
,
0010
0000
0000
0000
,
0010
0000
0000
0000
,
0100
0000
0000
0000
,
0100
0000
0000
0000
,
0002
0000
0003
0000
,
0001
0000
0000
0000
,
2000
0000
3000
0000
,
2000
0000
3000
0000
,
1000
0000
0000
0000
,
0001
0000
1000
0000
,
0001
0000
0000
0000
,
0010
0000
0010
0000
,
0010
0000
0000
0000
,
0001
0000
0000
0000
,
1000
0000
0000
0000
,
0010
0000
0000
0000
,
0100
0000
0000
0000
,
0001
0000
0000
0000
,
1000
0000
0000
0000
,
0002
0000
0003
0000
,
0010
0000
0010
0000
,
0010
0000
0000
0000
,
0001
0000
0000
0000
,
0010
0000
0000
0000
,
0100
0000
0000
0000
,
2000
0000
3000
0000
,
1000
0000
0000
0000
,
0001
0000
0000
0000
,
0010
0000
0020
0000
,
0030
0000
0000
0000
,
0001
0000
0000
0000
,
1000
0000
0000
0000
,
0010
0000
0010
0000
,
0010
0000
0000
0000
,
1000
0000
0000
0000
,
0001
0000
0000
0000
,
0010
0000
0010
0000
,
0010
0000
0010
0000
,
0000
0020
0000
0000
,
0030
0000
0000
0000
,
0000
0000
0000
0000
;
#NOTES:
     dance-single:
     :
     Easy:
     5:
     :
0000
0000
0000
0000
,
0000
0000
0000
0000
,
0000
0000
0000
0000
,
0000
0000
0000
0000
,
0000
0000
0000
0000
,
0001
0100
0001
0100
,
0001
0000
0001
0000
,
1000
0100
1000
0100
,
1000
0000
1000
0000
,
0001
0010
0001
0010
,
0001
0000
0001
0000
,
1000
0010
1000
0010
,
2000
0000
3001
0000
,
0001
0000
1000
0000
,
0001
0100
0020
0000
,
1030
0000
1000
0000
,
0001
1000
0001
0000
,
1000
0000
0001
0000
,
1000
0100
0020
0000
,
0031
0000
0001
0000
,
0110
0000
1001
0000
,
0110
0000
0000
0000
,
0001
0000
0100
0000
,
0001
0100
0010
1000
,
0001
1000
0002
0000
,
2003
0000
3000
0000
,
0001
0010
0001
0010
,
0001
0000
1000
0000
,
0002
0003
2000
3000
,
1001
0000
0000
0000
,
0001
1000
1000
0001
,
0010
0100
1000
0000
,
0001
0100
1000
0100
,
0001
0001
1000
1000
,
0200
0010
0310
0000
,
0220
0000
0330
0000
,
0001
1000
0001
0000
,
1000
0010
0001
0010
,
1000
0000
1000
0000
,
0010
0100
0002
0000
,
1003
0000
0001
0000
,
0010
0100
2000
0000
,
3002
0000
1003
0000
,
0001
0000
0100
0000
,
0020
0030
0200
0300
,
0220
0000
0330
0000
,
1000
0000
1000
0000
,
1000
0010
0100
0001
,
1000
0001
1000
0100
,
0020
0000
0031
0000
,
0002
0000
1003
0000
,
2000
0000
3002
0000
,
0203
0000
0320
0000
,
2030
0000
3002
0000
,
1003
0000
0000
0000
,
1001
0000
0110
0000
,
2002
0000
3003
0000
,
0001
0100
0010
0000
,
0100
0100
0010
0100
,
0010
1000
0001
1000
,
0200
0010
0310
0000
,
0110
0000
1001
0000
,
1000
0001
0100
0001
,
1000
0100
0010
0100
,
1000
0000
1000
0000
,
0001
0010
0001
1000
,
0002
0203
0320
2030
,
3200
0320
0032
2003
,
3001
0000
0001
0000
,
1000
0010
1000
0001
,
2000
3200
0320
0032
,
0203
0320
2030
3002
,
1003
0000
0001
0000
,
0000
2002
0000
0000
,
3003
0000
0000
0000
,
0000
0000
0000
0000
;
#NOTES:
     dance-single:
     :
     Medium:
     10:
     :
0000
0000
0000
0000
,
0000
0000
0000
0000
,
0000
0000
0000
0000
,
0000
0000
0000
0000
,
0000
0000
0000
0000
,
0001
0010
0001
0010
0002
0000
0003
0000
,
1000
1000
0001
0001
,
1000
0010
1000
0010
2000
0000
3000
0000
,
0001
1000
0100
0010
0001
1000
0001
0000
,
1000
0100
1000
0100
2000
0000
3000
0000
,
0001
0001
1000
1000
,
0001
0100
0001
0100
0002
0000
0003
0000
,
2002
0000
3003
0000
,
0000
1000
0100
0010
0001
0000
0001
0000
,
1000
0001
0100
0010
2000
0000
3000
0000
,
0000
0001
0010
0001
1000
0000
0010
0000
,
2000
0000
3010
0000
2000
0000
3001
0000
1000
0000
0000
0001
0000
0000
2000
0000
,
3000
0001
0100
0010
1000
0000
1000
0000
,
0001
1000
0100
0010
0002
0000
0003
1000
,
0002
0203
0320
2030
,
3001
1000
0001
0000
0010
0000
0110
0000
,
1001
0000
0220
0000
0330
0001
0001
0001
,
1000
0010
1000
0000
0001
0010
0002
0000
,
2003
3200
2300
3200
2300
0000
0000
3000
,
0002
0203
0320
2030
3002
0000
0000
0003
,
2002
0000
0000
3003
0000
1000
0100
0010
,
0100
0010
0001
0000
1000
0001
0200
0000
,
0310
1000
0100
0000
0010
0001
0100
0000
,
0020
0030
0200
0300
,
0110
0000
0010
0000
0010
0000
0010
0100
,
0010
2000
3002
0003
,
1000
0100
0010
0001
1000
0002
0003
1000
,
0001
0000
0100
0000
1000
0000
0100
0000
0002
0000
0003
1000
0000
0000
0002
0000
,
0003
0010
0000
0000
0100
0000
0010
0000
0001
0000
1000
0000
0010
0000
0100
0000
,
0020
0000
0200
0300
0230
0300
0010
0100
,
0001
1000
0100
0010
0001
2000
3000
0001
,
0010
0001
1000
0000
0010
1000
0001
0000
,
1000
0100
0010
0001
2000
0000
3002
0000
,
0103
0001
0100
0001
1000
0100
1000
0000
,
2100
0001
0100
3000
,
0100
1000
0100
1000
0001
0100
0001
0000
,
0102
1000
0100
0003
,
0220
0000
0000
0000
0330
0000
0010
2000
,
0000
3001
1000
0100
0010
0100
0010
0001
,
2000
0000
3000
0001
0200
0000
0300
0001
,
1000
0010
1000
0001
0010
0000
0100
0000
,
0010
0000
0000
0000
0001
0000
0000
0000
1000
0000
0000
0001
0000
0000
1000
0000
,
0001
0100
0010
0000
0100
0010
1000
0000
,
0010
1000
0100
0010
,
0200
0000
0320
0000
,
0032
0000
2003
0000
,
3000
0000
0002
0000
1003
0001
0100
0010
,
1000
0001
0010
0100
1000
0001
1000
0001
,
0000
1000
0010
0100
0001
1000
0001
0010
,
0200
0000
0300
0110
,
0010
0000
0010
0000
0010
0000
0010
0100
,
0010
0002
2003
3000
,
0001
0100
0010
1000
0001
2000
3000
0001
,
1000
0000
0100
0000
1000
0000
0001
0000
0200
0000
0300
0001
0000
0000
2000
0000
,
3000
0010
0000
0000
1000
0000
0001
0000
1000
0000
0000
0000
0100
0000
0000
0000
,
0210
0000
0020
0030
0320
0030
0100
0010
,
0001
1000
0010
0100
0001
0200
0300
0010
,
0100
0010
1000
0010
0100
0001
1000
0000
,
0001
0010
1000
0010
0002
0000
2003
0000
,
3000
0000
0000
0000
0001
0000
0000
0000
0001
0000
0000
1000
0000
0000
0001
0000
,
0000
0000
0100
0000
0001
0000
0100
0000
0001
0000
0000
1000
0000
0000
0001
0000
,
0000
0000
2000
0000
3200
0000
0000
0000
0320
0000
0000
0032
0000
0000
2003
0000
,
3000
0000
0002
0003
0002
0003
0002
0003
0002
0000
0000
0203
0000
0000
0320
0000
,
0030
0000
0000
0000
1000
0000
0000
0000
1000
0000
0000
0001
0000
0000
1000
0000
,
0000
0000
0100
0000
1000
0000
0100
0000
1000
0000
0000
0001
0000
0000
1000
0000
,
0000
0000
0002
0000
0203
0000
0000
0000
0320
0000
0000
2030
0000
0000
3002
0000
,
0003
0000
2000
3000
2000
3000
2000
3000
2000
0000
0000
3200
0000
0000
0320
0000
,
0030
0000
0001
0000
0001
0000
0001
0000
0002
0000
0000
2003
0000
0000
3001
0000
,
0000
2002
0000
0000
,
3003
0000
0000
0000
,
0000
0000
0000
0000
;
#NOTES:
     dance-single:
     :
     Hard:
     13:
     :
0000
0000
0000
0000
,
0000
0000
0000
0000
,
0000
0000
0000
0000
,
0000
0000
0000
0000
,
0000
0000
0000
0000
,
0000
0000
0001
0000
0001
0000
0001
0000
0001
0100
0000
0020
0000
0030
1000
0000
,
0010
0000
0010
0000
0100
0000
0100
0000
0001
1000
0000
0002
0000
0003
1000
0000
,
0000
0000
0001
0000
0001
0000
0001
0000
0001
0010
0000
0200
0000
0300
1000
0000
,
0001
1000
0001
1000
0001
1000
0001
0000
1000
0000
0010
0200
0000
0300
0001
0000
,
0000
0000
1000
0000
1000
0000
1000
0000
1000
0100
0000
0020
0000
0030
0001
0000
,
0010
0000
0010
0000
0100
0000
0100
0000
1000
0001
0000
2000
0000
3000
0001
0000
,
0000
0000
1000
0000
1000
0000
1000
0000
1000
0010
0000
0200
0000
0300
0001
0000
,
2002
3003
0000
0220
0330
0000
2002
0000
0000
0000
3003
0000
0000
0000
0000
0000
,
0000
0000
0001
0100
0001
0000
0100
0000
0010
0100
0000
0010
0000
1000
0000
0001
,
0000
1000
0001
1000
0001
1000
0000
0200
0000
0000
0000
0000
0000
0300
0000
0000
,
0000
0000
1000
0000
0100
0000
0010
0000
0001
0000
0010
0001
0000
1000
0000
0002
,
0000
0003
0100
0000
2000
0000
3100
0000
0110
0000
0000
0110
0000
0000
1001
0000
,
0000
0000
1000
0100
1000
0000
0100
0000
0010
0100
0000
0010
0000
0001
0000
1000
,
0000
0001
1000
0001
1000
0001
0000
0200
0000
0000
0000
0300
0000
0000
0010
0000
,
0200
0000
0000
0000
0320
0000
0000
0000
1030
0000
0000
1000
0000
0000
1000
0000
,
0001
0000
0010
0100
0000
0000
1000
0001
1000
0001
0000
0000
0220
0000
0330
0000
,
2002
3003
0000
0000
0220
0000
0000
0000
0330
0000
0001
0000
0001
0000
0001
0000
,
1000
0100
0000
0010
0000
0100
1000
0000
0001
0000
0100
0000
0020
0000
0030
0000
,
2010
0000
3010
0000
0010
0000
0010
0000
2000
0000
3000
0001
0000
0000
1000
0000
,
0000
0100
0000
1000
0001
0000
0100
0000
0002
0000
0003
0000
2000
0000
3000
0000
,
2002
0000
0000
3003
0000
1000
1000
1000
,
0001
0100
0000
0010
0000
0100
0001
0000
1000
0000
0100
0000
0020
0000
0030
0000
,
0001
0010
0000
0001
0000
0010
0000
0001
0000
0000
1000
0000
0010
0000
1000
0000
,
0002
0000
2003
0000
,
3000
0000
0001
0000
0010
0001
0000
0010
0000
0100
0000
0010
0001
0000
1000
0000
,
0001
0000
0000
0000
1001
0000
0000
0000
1001
0000
0000
0000
0001
1000
0001
1000
,
0001
0000
0100
0000
0010
0000
1000
0001
0000
0000
0001
0000
0000
0000
1000
0000
,
0001
0000
0100
0000
1000
0000
0100
0000
0001
0000
1000
0001
0000
0000
2000
0000
,
3000
0100
0000
0010
0100
0010
0100
0000
0010
0000
0001
0000
1000
0000
0001
0000
,
1000
0000
0000
0000
2000
0000
3000
0000
2200
0000
3300
0000
0010
0001
0000
0010
,
0001
0000
1000
0000
0010
0000
1000
0010
0000
0000
0010
0000
0000
0000
1000
0000
,
0020
0000
0230
0000
0301
0100
0001
0100
0001
0000
1000
0001
0000
1000
0000
0100
,
0000
0010
0001
0010
0002
0000
0003
0000
2000
0000
3000
0000
1001
0000
0000
0000
,
0001
0000
0100
0000
0001
0000
0100
0010
0000
0100
0000
0010
0100
0000
0001
0000
,
0020
0000
0000
0000
0032
0000
0000
2003
0000
3000
0010
0000
1000
0000
0000
0000
,
0001
0000
1000
0000
0002
0000
0003
1000
0000
0100
0000
0010
0100
0000
0010
0000
,
0200
0000
0000
0000
2300
0000
0000
3002
0000
0003
0100
0000
0001
0000
0000
0000
,
0200
0000
0000
0300
0100
0000
0001
0200
,
0000
0000
0310
0000
1000
0000
0100
0000
0010
0000
0100
0010
0000
0000
0001
0000
,
2000
3000
1000
0010
0200
0300
0100
0001
,
0010
0000
0100
1000
0000
0001
0000
1000
0000
0001
0000
0100
0010
0000
0100
0000
,
0020
0000
0030
0000
0020
0000
0030
0000
0020
0000
0030
1000
0000
0000
0001
0000
,
1000
0000
0100
0000
0010
0000
0001
0000
0010
0000
0001
1000
0000
0010
0000
2000
,
0000
3000
0001
0000
1000
0000
0100
1000
0000
0000
0001
0010
0000
0001
0000
0020
,
0000
0030
0000
0000
0002
0000
0003
0000
1000
0000
0001
0100
0000
0001
0100
0000
,
0000
0000
0010
0000
2000
0000
3000
0000
0001
0000
1000
0100
0000
1000
0100
0000
,
0000
0000
0000
0000
2002
0000
3003
0000
0001
0000
0001
0100
0000
0100
0010
0000
,
0010
1000
0000
1000
0001
0000
0001
0020
0000
0000
0000
0030
0001
0000
0001
0000
,
0000
0000
1000
0100
1000
0000
0100
0010
0000
0001
0000
0010
0001
0000
1000
0000
,
0002
0000
0003
1001
,
0000
0000
1000
0000
0010
1000
0000
0010
0000
0100
0000
0010
1000
0000
0001
0000
,
1000
0000
0000
0000
1001
0000
0000
0000
1001
0000
0000
0000
1000
0001
1000
0001
,
1000
0000
0100
0000
0010
0000
0001
1000
0000
0000
1000
0000
0000
0000
0001
0000
,
1000
0000
0010
0000
1000
0000
0001
0000
0010
0000
0001
1000
0000
0000
0002
0000
,
0003
0100
0000
0010
0100
0010
0100
0000
0010
0000
1000
0000
0001
0000
1000
0000
,
0001
0000
0000
0000
0001
0000
0000
0000
0100
0000
0000
0000
0010
1000
0000
0010
,
1000
0000
0001
0000
0010
0000
0001
0010
0000
0000
0010
0000
0000
0000
0001
0000
,
1000
0000
0010
0000
1000
0000
0001
1000
0001
0000
1000
0100
0000
0010
0000
0001
,
0000
1000
0001
1000
0002
0000
0003
0000
2000
0000
3000
0000
1001
0000
0000
0000
,
0000
0000
0000
0000
0002
0000
0003
0000
0002
0000
0003
0100
0000
0000
0002
0000
,
0003
0000
0100
0000
0002
0003
0100
0000
0010
0000
1000
0001
0000
1000
0001
0000
,
0000
0000
2000
0000
3200
0000
0300
0000
0010
0000
0000
0001
0000
0000
0001
0000
,
0000
0000
0010
0000
0010
0000
0010
0000
0010
0000
0000
0001
0000
0000
0001
0000
,
0000
0000
0000
0000
2000
0000
3000
0000
2000
0000
3000
0100
0000
0000
2000
0000
,
3000
0000
0100
0000
2000
3000
0100
0000
0010
0000
0001
1000
0000
0001
1000
0000
,
0000
0000
0002
0000
0203
0000
0300
0000
0010
0000
0000
1000
0000
0000
1000
0000
,
0000
0000
0010
0000
0010
0000
0010
0000
0010
0000
0000
1000
0000
0000
1000
0000
,
0000
0000
0010
0000
0010
0000
0010
0000
0010
1000
0000
0100
0000
0000
0010
0000
,
0000
0220
0000
0000
,
0330
0000
0000
0000
,
0000
0000
0000
0000
;
#NOTES:
     dance-double:
     :
     Easy:
     5:
     :
00000000
00000000
00000000
00000000
,
00000000
00000000
00000000
00000000
,
00000000
00000000
00000000
00000000
,
00000000
00000000
00000000
00000000
,
00000000
00000000
00000000
00000000
,
00001000
00010000
00001000
00010000
,
00001000
00000000
01000000
00000000
,
00010000
01000000
00010000
01000000
,
00010000
00000000
10000000
00000000
,
01000000
10000000
01000000
10000000
,
01000000
00000000
00100000
00000000
,
00010000
00100000
00010000
00100000
,
00002000
00000000
00013000
00000000
,
00001000
00000000
00010000
00000000
,
00001000
00010000
00000020
00000000
,
00001030
00000000
00001000
00000000
,
00000001
00000010
00000001
00000000
,
00000010
00000000
00000100
00000000
,
00001000
00000100
00020000
00000000
,
00031000
00000000
00001000
00000000
,
00011000
00000000
00101000
00000000
,
00110000
00000000
00000000
00000000
,
00010000
00000000
10000000
00000000
,
00010000
01000000
00010000
00000000
,
10000000
00100000
20000000
00000000
,
30020000
00000000
00030000
00000000
,
10000000
01000000
10000000
00000000
,
01000000
00000000
00100000
00000000
,
00020000
00030000
00200000
00300000
,
00101000
00000000
00000000
00000000
,
00001000
00010000
00000010
00000000
,
00001000
00000010
00000100
00000000
,
00000001
00000100
00001000
00000100
,
00000001
00000000
00002000
00000000
,
00003200
00000000
00000310
00000000
,
00000220
00000000
00000330
00000000
,
00000100
00001000
00000001
00000000
,
00001000
00000010
00010000
00001000
,
00010000
00000000
00010000
00000000
,
00001000
00010000
00100000
00000000
,
01000000
00000000
00100000
00000000
,
10000000
00010000
10000000
00000000
,
02000000
00000000
03100000
00000000
,
01000000
00000000
00100000
00000000
,
00020000
00030000
00200000
00300000
,
00220000
00000000
00330000
00000000
,
00100000
00000000
00100000
00000000
,
00010000
00100000
00001000
00010000
,
00000100
00000000
00001000
00000000
,
00000001
00000010
00000001
00000000
,
00001000
00000001
00001000
00000000
,
00000002
00000000
00000203
00000000
,
00002300
00000000
00023000
00000000
,
00230000
00000000
20300000
00000000
,
30010000
00000000
00000000
00000000
,
10010000
00000000
01100000
00000000
,
20020000
00000000
30030000
00000000
,
10000000
01000000
00100000
00000000
,
01000000
00100000
00010000
00100000
,
00002000
00000000
00023000
00000000
,
00030200
00000000
00001300
00000000
,
00001100
00000000
00000011
00000000
,
00000001
00001000
00000001
00000100
,
00000010
00001000
00000100
00001000
,
00000010
00000000
00000010
00000000
,
00001000
00000010
00010000
00001000
,
00020000
00032000
00203000
00320000
,
02030000
03200000
20300000
32000000
,
13000000
00000000
10000000
00000000
,
00010000
00100000
00001000
00010000
,
00002000
00023000
00030020
00002030
,
00003200
00000320
00000032
00000203
,
00000301
00000000
00000001
00000000
,
00000000
00002002
00000000
00000000
,
00003003
00000000
00000000
00000000
,
00000000
00000000
00000000
00000000
;
#NOTES:
     dance-double:
     :
     Medium:
     10:
     :
00000000
00000000
00000000
00000000
,
00000000
00000000
00000000
00000000
,
00000000
00000000
00000000
00000000
,
00000000
00000000
00000000
00000000
,
00000000
00000000
00000000
00000000
,
00001000
00010000
00001000
00010000
00002000
00000000
00003000
00000000
,
00010000
00001000
01000000
00010000
,
01000000
00100000
01000000
00100000
02000000
00000000
03000000
00000000
,
00100000
10000000
01000000
00100000
00010000
00100000
00001000
00000000
,
00010000
00001000
00010000
00001000
00020000
00000000
00030000
00000000
,
00001000
00010000
00000100
00001000
,
00000100
00000010
00000100
00000010
00000200
00000000
00000300
00000000
,
00000220
00000000
00000330
00000000
,
00000000
00000010
00000001
00000010
00000001
00000000
00001000
00000000
,
00000001
00000100
00000010
00001000
00000020
00000000
00000030
00000000
,
00000000
00001000
00000010
00010000
00001000
00000000
00010000
00000000
,
00002000
00000000
01003000
00000000
00002000
00000000
00103000
00000000
00001000
00000000
00000000
00010000
00000000
00000000
00002000
00000000
,
00003000
00010000
00001000
00100000
00010000
00000000
10000000
00000000
,
00010000
10000000
00100000
01000000
00020000
00000000
00030000
01000000
,
00200000
20300000
32000000
03020000
,
00031000
00010000
00001000
00000000
00010000
00000000
00011000
00000000
,
00010100
00000000
00002200
00000000
00003300
00000100
00000100
00000100
,
00001000
00000001
00001000
00000000
00000001
00000010
00000002
00000000
,
00002003
00003020
00002030
00003020
00020030
00000000
00000000
00030000
,
00002000
02003000
03002000
02003000
03020000
00000000
00000000
00030000
,
20020000
00000000
00000000
30030000
00000000
10000000
01000000
00100000
,
01000000
00100000
00010000
00000000
00100000
00010000
02000000
00000000
,
03001000
01000000
00001000
00000000
00010000
00000010
00010000
00000000
,
00000020
00000030
00002000
00003000
,
00001010
00000000
00000010
00000000
00000010
00000000
00000010
00001000
,
00000010
00002000
00003002
00000003
,
00001000
00000100
00000010
00000001
00001000
00000002
00000003
00001000
,
00000001
00000000
00000100
00000000
00001000
00000000
00000100
00000000
00002000
00000000
00003000
00010000
00000000
00000000
00002000
00000000
,
00003000
00100000
00000000
00000000
00001000
00000000
00100000
00000000
00010000
00000000
00000000
00000000
00100000
00000000
00010000
00000000
,
20000000
00000000
00020000
00030000
30020000
00030000
10000000
00010000
,
00100000
00001000
00010000
00000100
00001000
00000200
00000300
00000010
,
00000001
00000010
00000001
00000000
00001000
00000010
00001000
00000000
,
00000010
00010000
00000010
00000000
00020000
00000000
00032000
00000000
,
01003000
00001000
01000000
00000000
00010000
01000000
00010000
00000000
,
02000000
00000000
03020000
00000000
20030000
00000000
32000000
03000000
,
00100000
00010000
00100000
00000000
00001000
00010000
00001000
00000000
,
00020000
00000000
00030200
00000000
00002300
00000000
00003002
00000003
,
00002002
00000000
00000000
00000000
00003003
00000000
00001000
00000020
,
00000000
00001030
00000010
00001000
00000001
00000010
00000001
00000010
,
00000200
00000000
00000300
00001000
00000200
00000000
00000300
00001000
,
00000001
00001000
00000010
00010000
00001000
00000000
00010000
00000000
,
00001000
00000000
00000000
00000000
00001000
00000000
00000000
00000000
00001000
00000000
00000000
00010000
00000000
00000000
00001000
00000000
,
00100000
00010000
00100000
00000000
00010000
00100000
01000000
00000000
,
10000000
01000000
00010000
00001000
,
00020000
00000000
00032000
00000000
,
00003020
00000000
00000032
00000000
,
00000003
00000000
00002000
00000000
00003001
00001000
00000010
00001000
,
00000010
00010000
00001000
01000000
00001000
01000000
00010000
10000000
,
00000000
00010000
00100000
01000000
10000000
01000000
00010000
00001000
,
00020000
00000000
00030000
00011000
,
00001000
00000000
00001000
00000000
00001000
00000000
00001000
00010000
,
00001000
00020000
00030020
00001030
,
00000010
00001000
00000001
00000100
00000001
00002000
00003000
00000001
,
00000010
00000000
00000100
00000000
00001000
00000000
00000000
00000000
00000200
00000000
00000300
00010000
00000000
00000000
00002000
00000000
,
00003000
00100000
00000000
00000000
00010000
00000000
10000000
00000000
00100000
00000000
00000000
00000000
10000000
00000000
00000000
00000000
,
10020000
00000000
02000000
03000000
02030000
03000000
00010000
01000000
,
00001000
00010000
00000010
00001000
00000100
00002000
00003000
00000001
,
00001000
00000100
00000010
00000000
00000100
00000010
00000001
00000000
,
00000010
00000001
00000100
00001000
00020000
00000000
00032000
00000000
,
00003000
00000000
00000000
00000000
00010000
00000000
00000000
00000000
00010000
00000000
00000000
00001000
00000000
00000000
01000000
00000000
,
00000000
00000000
00010000
00000000
01000000
00000000
00010000
00000000
01000000
00000000
00000000
00010000
00000000
00000000
10000000
00000000
,
00000000
00000000
02000000
00000000
23000000
00000000
00000000
00000000
30020000
00000000
00000000
00230000
00000000
00000000
00302000
00000000
,
00003000
00000000
00020000
00030000
00020000
00030000
00020000
00030000
00020000
00000000
00000000
00032000
00000000
00000000
00023000
00000000
,
00030000
00000000
00000000
00000000
00001000
00000000
00000000
00000000
00001000
00000000
00000000
00010000
00000000
00000000
00000100
00000000
,
00000000
00000000
00001000
00000000
00000100
00000000
00001000
00000000
00000100
00000000
00000000
00001000
00000000
00000000
00000001
00000000
,
00000000
00000000
00000200
00000000
00000302
00000000
00000000
00000000
00002003
00000000
00000000
00003020
00000000
00000000
00020030
00000000
,
00030000
00000000
00002000
00003000
00002000
00003000
00002000
00003000
00002000
00000000
00000000
00023000
00000000
00000000
00032000
00000000
,
00003000
00000000
00100000
00000000
00100000
00000000
00100000
00000000
00200000
00000000
00000000
00320000
00000000
00000000
00130000
00000000
,
00000000
02200000
00000000
00000000
,
03300000
00000000
00000000
00000000
,
00000000
00000000
00000000
00000000
;
#NOTES:
     dance-double:
     :
     Hard:
     13:
     :
00000000
00000000
00000000
00000000
,
00000000
00000000
00000000
00000000
,
00000000
00000000
00000000
00000000
,
00000000
00000000
00000000
00000000
,
00000000
00000000
00000000
00000000
,
00000000
00000000
00001000
00000000
00001000
00000000
00001000
00000000
00001000
00010000
00000000
00002000
00000000
00003000
01000000
00000000
,
00001000
00000000
00001000
00000000
01000000
00000000
01000000
00000000
00010000
10000000
00000000
02000000
00000000
03000000
10000000
00000000
,
00000000
00000000
00010000
00000000
00010000
00000000
00010000
00000000
00010000
00100000
00000000
00002000
00000000
00003000
00010000
00000000
,
00000100
00001000
00000100
00000000
00000010
00000100
00000010
00000000
00000001
00000000
00001000
00000002
00000000
00000003
00000100
00000000
,
00000000
00000000
00000010
00000000
00000010
00000000
00000010
00000000
00000010
00001000
00000000
00000020
00000000
00000030
00010000
00000000
,
00001000
00000000
00001000
00000000
00100000
00000000
00100000
00000000
00010000
00100000
00000000
02000000
00000000
03000000
10000000
00000000
,
00000000
00000000
00010000
00000000
00010000
00000000
00010000
00000000
00010000
00100000
00000000
00002000
00000000
00003000
00010000
00000000
,
00000200
00000300
00000000
00002000
00003000
00000000
00000220
00000000
00000000
00000000
00000330
00000000
00000000
00000000
00000000
00000000
,
00000000
00000000
00000001
00000010
00000001
00000000
00001000
00000000
00000001
00000100
00000000
00000010
00000000
00001000
00000000
00000010
,
00000000
00010000
00001000
00010000
00001000
00010000
00000000
00002000
00000000
00000000
00000000
00000000
00000000
00003000
00000000
00000000
,
00000000
00000000
00010000
00000000
00001000
00000000
00100000
00000000
00010000
00000000
10000000
00010000
00000000
01000000
00000000
00020000
,
00000000
00030000
01000000
00000000
20000000
00000000
31000000
00000000
01100000
00000000
00000000
01100000
00000000
00000000
10010000
00000000
,
00000000
00000000
10000000
01000000
10000000
00000000
00010000
00000000
00100000
00010000
00000000
00100000
00000000
00001000
00000000
00010000
,
00000000
00001000
00010000
00001000
00010000
00001000
00000000
00020000
00000000
00000000
00000000
00030000
00000000
00000000
00000100
00000000
,
00002000
00000000
00000000
00000000
00003200
00000000
00000000
00000000
00000310
00000000
00000000
00000001
00000000
00000000
00001000
00000000
,
00000010
00000000
00001000
00000010
00000000
00000000
00010000
00001000
00010000
00001000
00000000
00000000
00022000
00000000
00033000
00000000
,
00202000
00303000
00000000
00000000
00220000
00000000
00000000
00000000
00330000
00000000
00100000
00000000
00100000
00000000
00100000
00000000
,
00010000
00100000
00000000
01000000
00000000
10000000
00010000
00000000
01000000
00000000
00100000
00000000
20000000
00000000
30000000
00000000
,
00100000
00000000
10000000
00000000
01000000
00000000
00010000
00000000
00002000
00000000
00003000
00010000
00000000
00000000
00000010
00000000
,
00000000
00001000
00000000
00000001
00000010
00000000
00000001
00000000
00002000
00000000
00003000
00000000
00000002
00000000
00000003
00000000
,
00002002
00000000
00000000
00003003
00000000
00001000
00001000
00001000
,
00000001
00000100
00000000
00000010
00000000
00000100
00001000
00000000
00000100
00000000
00001000
00000000
00020000
00000000
00030000
00000000
,
00001000
01000000
00000000
00010000
00000000
01000000
00000000
00100000
00000000
00000000
10000000
00000000
00100000
00000000
10000000
00000000
,
00020000
00000000
20030000
00000000
,
30000000
00000000
00010000
00000000
10000000
01000000
00000000
00100000
00000000
00010000
00000000
00100000
00001000
00000000
00010000
00000000
,
00001000
00000000
00000000
00000000
00011000
00000000
00000000
00000000
00011000
00000000
00000000
00000000
00010000
00001000
00010000
00001000
,
00010000
00000000
00000010
00000000
00001000
00000000
00000001
00000100
00000000
00000000
00000001
00000000
00000000
00000000
00000100
00000000
,
00000001
00000000
00000100
00000000
00001000
00000000
00010000
00000000
01000000
00000000
10000000
00010000
00000000
00000000
20000000
00000000
,
30000000
00100000
00000000
01000000
00100000
01000000
00100000
00000000
01000000
00000000
00010000
00000000
00100000
00000000
00001000
00000000
,
00010000
00000000
00000000
00000000
00002000
00000000
00003000
00000000
00022000
00000000
00033000
00000000
00001000
00010000
00000000
00000010
,
00001000
00000000
00000001
00000000
00000010
00000000
00000100
00001000
00000000
00000000
00000100
00000000
00000000
00000000
00000010
00000000
,
00000002
00000000
00000203
00000000
00000301
00000100
00000001
00000100
00000001
00000000
00000100
00000010
00000000
00001000
00000000
00000010
,
00000000
00010000
00001000
00010000
00002000
00000000
00003000
00000000
00020000
00000000
00030000
00000000
00011000
00000000
00000000
00000000
,
00001000
00000000
00010000
00000000
01000000
00000000
00100000
01000000
00000000
10000000
00000000
00010000
01000000
00000000
00010000
00000000
,
02000000
00000000
00000000
00000000
03200000
00000000
00000000
00320000
00000000
00030000
00001000
00000000
00001000
00000000
00000000
00000000
,
00010000
00000000
00001000
00000000
00000200
00000000
00000300
00000010
00000000
00000100
00000000
00000001
00000010
00000000
00000001
00000000
,
00000020
00000000
00000000
00000000
00002030
00000000
00000000
00023000
00000000
00030000
00001000
00000000
00001000
00000000
00000000
00000000
,
00020000
00000000
00000000
00030000
00010000
00000000
00001000
00200000
,
00000000
00000000
00310000
00000000
00100000
00000000
01000000
00000000
10000000
00000000
00010000
10000000
00000000
00000000
00100000
00000000
,
02000000
03000000
00010000
00100000
02000000
03000000
10000000
01000000
,
00010000
00000000
00001000
00010000
00000000
00001000
00000000
00010000
00000000
00000010
00000000
00001000
00000001
00000000
00000100
00000000
,
00000002
00000000
00000003
00000000
00000002
00000000
00000003
00000000
00000002
00000000
00000003
00000100
00000000
00000000
00000001
00000000
,
00000100
00000000
00001000
00000000
00010000
00000000
00100000
00000000
10000000
00000000
00010000
10000000
00000000
01000000
00000000
20000000
,
00000000
30000000
01000000
00000000
00100000
00000000
00010000
00100000
00000000
00000000
00001000
00010000
00000000
00001000
00000000
00020000
,
00000000
00030000
00000000
00000000
00000020
00000000
00000030
00000000
00001000
00000000
00000010
00001000
00000000
00000010
00001000
00000000
,
00000000
00000000
00000010
00000000
00020000
00000000
00030000
00000000
00001000
00000000
00100000
00010000
00000000
00100000
00010000
00000000
,
00000000
00000000
00000000
00000000
20020000
00000000
30030000
00000000
10000000
00000000
01000000
10000000
00000000
00010000
00100000
00000000
,
00001000
00010000
00000000
00000100
00001000
00000000
00000001
00000020
00000000
00000000
00000000
00000030
00000001
00000000
00000001
00000000
,
00000000
00000000
00001000
00000001
00001000
00000000
00000001
00000100
00000000
00001000
00000000
00010000
00001000
00000000
00010000
00000000
,
00002000
00000000
00003000
00011000
,
00000000
00000000
00010000
00000000
00001000
00100000
00000000
00010000
00000000
00100000
00000000
01000000
10000000
00000000
00010000
00000000
,
10000000
00000000
00000000
00000000
10010000
00000000
00000000
00000000
10010000
00000000
00000000
00000000
00010000
10000000
00010000
10000000
,
00010000
00000000
00100000
00000000
00001000
00000000
00010000
00001000
00000000
00000000
00010000
00000000
00000000
00000000
00001000
00000000
,
00010000
00000000
00001000
00000000
00000010
00000000
00000001
00000000
00001000
00000000
00000001
00001000
00000000
00000000
00000002
00000000
,
00000003
00000100
00000000
00000010
00000100
00000010
00000100
00000000
00000010
00000000
00000100
00000000
00001000
00000000
00010000
00000000
,
00001000
00000000
00000000
00000000
00100000
00000000
00000000
00000000
00010000
00000000
00000000
00000000
10000000
00100000
00000000
10000000
,
00100000
00000000
01000000
00000000
00010000
00000000
01000000
00001000
00000000
00000000
00010000
00000000
00000000
00000000
00001000
00000000
,
00010000
00000000
00000010
00000000
00001000
00000000
00000001
00001000
00000001
00000000
00000010
00000001
00000000
00000100
00000000
00001000
,
00000000
00010000
00001000
00010000
00002000
00000000
00003000
00000000
00020000
00000000
00030000
00000000
00011000
00000000
00000000
00000000
,
00000000
00000000
00000000
00000000
00002000
00000000
00003000
00000000
00002000
00000000
00003000
01000000
00000000
00000000
00002000
00000000
,
00003000
00000000
01000000
00000000
00002000
00003000
01000000
00000000
00010000
00000000
10000000
00100000
00000000
10000000
00100000
00000000
,
00000000
00000000
20000000
00000000
30020000
00000000
00030000
00000000
10000000
00000000
00000000
01000000
00000000
00000000
00100000
00000000
,
00000000
00000000
00010000
00000000
00010000
00000000
00010000
00000000
00010000
00000000
00000000
00100000
00000000
00000000
00001000
00000000
,
00000000
00000000
00000000
00000000
00020000
00000000
00030000
00000000
00020000
00000000
00030000
00000100
00000000
00000000
00020000
00000000
,
00030000
00000000
00000100
00000000
00020000
00030000
00000100
00000000
00001000
00000000
00000001
00000010
00000000
00000001
00000010
00000000
,
00000000
00000000
00000002
00000000
00002003
00000000
00003000
00000000
00000001
00000000
00000000
00000100
00000000
00000000
00000010
00000000
,
00000000
00000000
00001000
00000000
00001000
00000000
00001000
00000000
00001000
00000000
00000000
00000010
00000000
00000000
00010000
00000000
,
00000000
00000000
00001000
00000000
00001000
00000000
00001000
00000000
00001000
00010000
00000000
00001000
00000000
00000000
00010000
00000000
,
00000000
00022000
00000000
00000000
,
00033000
00000000
00000000
00000000
,
00000000
00000000
00000000
00000000
;
