
//----- song ID: gogg -----//
#VERSION:0.83;
#TITLE:GO!;
#ARTIST:Juggernaut.;
#BANNER:GO!.png;
#BACKGROUND:GO!-bg.png;
#CDTITLE:./CDTitles/bm IIDX 33 Sparkle Shower.png;
#MUSIC:GO!.ogg;
#SAMPLESTART:1.86;
#SAMPLELENGTH:15;
#BPMS:0=128;
#BGSTAGE:16;
#NOTEDATA:;
#STEPSTYPE:dance-single;
#DIFFICULTY:Beginner;
#METER:3;
#NOTES:
0000
0000
0000
0000
,
0000
0000
0000
0000
,
0000
0000
0000
0000
,
0000
0000
0000
0000
,
0000
0000
0000
0000
,
1000
0000
0001
0000
,
2000
0000
3000
0000
,
0001
0000
1000
0000
,
0002
0000
0003
0000
,
1000
0000
0010
0000
,
1000
0000
0001
0000
,
1000
0000
0100
0000
,
1000
0000
0001
0000
,
0010
0000
0010
0000
,
0100
0000
0100
0000
,
1000
0000
0001
0000
,
1001
0000
0000
0000
,
0001
0000
0100
0000
,
0001
0000
0000
0000
,
1000
0000
0010
0000
,
1000
0000
0000
0000
,
0001
0000
0010
0000
,
0001
0000
0000
0000
,
1000
0000
0100
0000
,
1000
0000
0000
0000
,
0100
0000
0010
0000
,
0100
0000
0010
0000
,
0001
0000
1000
0000
,
0001
0000
1000
0000
,
0001
0000
0001
0000
,
0010
0000
0010
0000
,
0100
0000
0100
0000
,
1000
0000
0001
0000
,
1000
0000
0100
0000
,
1000
0000
0100
0000
,
0010
0000
0001
0000
,
0010
0000
0001
0000
,
1000
0000
1000
0000
,
0001
0000
0001
0000
,
0010
0000
0100
0000
,
0110
0000
0000
0000
,
0010
0000
0001
0000
,
0010
0000
0001
0000
,
1000
0000
0010
0000
,
1000
0000
0010
0000
,
1000
0000
0001
0000
,
1000
0000
0001
0000
,
0100
0000
0010
0000
,
0110
0000
0000
0000
,
0100
0000
0001
0000
,
1000
0000
0010
0000
,
1000
0000
0001
0000
,
0010
0000
0100
0000
,
1000
0000
0001
0000
,
0100
0000
0010
0000
,
1000
0000
0001
0000
,
0010
0000
0100
0000
,
0010
0000
0000
0000
,
0001
0000
1000
0000
,
0010
0000
0000
0000
,
1000
0000
0001
0000
,
1000
0000
0000
0000
;
#NOTEDATA:;
#STEPSTYPE:dance-single;
#DIFFICULTY:Easy;
#METER:9;
#NOTES:
0000
0000
0000
0000
,
0000
0000
0000
0000
,
0000
0000
0000
0000
,
0000
0000
0000
0000
,
0000
0000
0000
0000
,
1000
0001
1000
0001
,
0200
0000
0000
0000
,
0301
1000
0001
1000
,
0200
0000
0000
0000
,
1300
0000
0100
0000
0010
0100
0010
0000
,
0100
0010
0001
1001
,
0001
0000
0100
0000
0010
0100
0010
0000
,
0100
0010
1010
1001
,
1000
0000
0010
0000
0100
0001
0100
0000
,
0001
0000
0010
0100
1000
0100
1000
0000
,
0001
0010
0001
0000
1000
0010
1000
0000
,
0001
0100
0010
1000
,
0001
0010
0001
0100
,
0010
1000
0010
0000
1000
0001
0010
0000
,
0100
1000
0010
1000
,
0001
0000
1000
0010
0100
0010
0100
0000
,
0010
1000
0100
0010
,
0001
1000
0001
0000
0010
0100
0010
0000
,
0100
1000
0001
0010
,
0100
0000
1000
0001
0100
0001
0100
0000
,
0001
0010
0001
0010
,
0001
0100
0010
1000
,
0001
1000
0100
1000
,
0100
0010
0001
1000
,
0010
1000
1010
0000
,
0001
0010
0011
0000
,
1000
0100
1100
0000
,
0001
0100
0010
1000
,
0001
0000
0010
0000
0100
1000
0100
0000
,
1000
0010
0100
0110
,
0010
0000
1000
0000
0001
0010
0001
0000
,
1000
0100
0110
1001
,
1000
0000
0100
0000
0010
0100
0010
0000
,
0100
0000
0010
0001
1000
0001
1000
0000
,
0001
0100
0001
0000
1000
0100
1000
0000
,
0100
0010
0001
1000
,
0001
0000
0100
0000
0001
0100
0001
0000
,
1000
0000
0010
0000
1000
0010
1000
0000
,
0010
0000
0100
0000
0001
1000
0001
0000
,
2002
0000
3003
0000
1000
0010
1000
0000
,
0010
1001
0100
1001
,
0001
0110
1000
0110
,
1000
0100
1000
0000
0001
0010
0001
0000
,
1000
0100
0010
0001
,
1000
0100
1000
0000
0001
0100
0001
0000
,
1000
0010
1000
0000
0001
0010
0001
0000
,
0010
0100
0010
0000
0001
1000
0001
0000
,
1000
0100
1000
0000
0001
0000
1001
0000
,
1000
0100
0010
0000
0100
0010
0001
0000
,
0010
0001
1000
0000
0001
1000
0010
0000
,
0100
0001
0010
0000
0100
1000
0001
0000
,
0100
0010
1000
0000
0001
0000
1001
0000
,
1000
0010
1000
0001
,
0100
0101
1000
1100
,
0001
0010
0001
1000
,
0010
1010
1000
0100
,
0010
0000
0000
0000
;
#NOTEDATA:;
#STEPSTYPE:dance-single;
#DIFFICULTY:Medium;
#METER:13;
#BPMS:0=128,164=256,196=128,212=256,276=128;
#NOTES:
0000
0000
0000
0000
,
0000
0000
0000
0000
,
0000
0000
0000
0000
,
0000
0000
0000
0000
,
0000
0000
0000
0000
,
1001
0000
0000
0000
1000
0000
0100
0000
1000
0000
0000
0001
0000
0000
0020
0000
,
0000
0000
0031
0010
0001
1000
0010
0100
,
0101
0000
0000
0000
0001
0000
0100
0000
0001
0000
0000
1000
0000
0000
0200
0000
,
0000
0000
0000
1300
0100
0010
0001
1000
,
0001
0000
0010
0000
0100
0010
0000
0010
0100
0000
1000
0000
1001
0000
0000
0000
,
1000
0000
0010
0000
0100
0010
0000
0010
0100
0000
0001
0000
0010
0000
0001
0000
,
0100
0000
0010
0000
1000
0001
0000
0001
1000
0000
0100
0000
0110
0000
0000
0000
,
0100
0000
0010
0000
0001
1000
0000
1000
0001
0000
0000
0000
0100
0000
0010
0000
,
1000
0100
1000
0100
0010
0001
0010
0000
,
0001
0100
0001
0100
0010
1000
0010
0000
,
1000
0100
0010
0001
1000
0100
0010
0001
,
0100
0000
0010
0000
1000
0001
0100
0000
,
0010
0000
0000
0000
1000
0000
0010
0000
0100
0000
0000
0001
0000
0000
0100
0000
,
0001
0010
0100
0010
0001
1000
0010
0000
,
1000
0000
0000
0000
0100
0000
0010
0000
0001
0000
0000
0100
0000
0000
0010
0000
,
1000
0010
1000
0001
0010
0100
1000
0001
,
0100
0000
0000
0000
0010
0000
1000
0000
0001
0000
0000
0010
0000
0000
0100
0000
,
0010
0001
1000
0010
0100
0001
0010
0000
,
0001
0000
0000
0000
0100
0000
0010
0000
1000
0000
0000
0001
0000
0000
1001
0000
,
0000
0000
0000
1000
0001
0010
0100
1000
,
0010
0000
0000
0000
0100
0001
0000
0000
0001
0010
0000
0000
0010
1000
0000
0000
,
1000
0100
0000
0000
0100
0010
0000
0000
0110
0000
0100
0000
0010
0000
0100
0000
,
1000
0000
0001
0000
1000
0010
0000
0000
0010
0001
0000
0000
0001
0100
0000
0000
,
0100
1000
0000
0000
1000
0010
0000
0000
0110
0000
0000
0000
0001
0000
1000
0000
,
0010
0000
0000
0100
0000
0001
0100
0001
0100
0000
0000
0000
,
0001
0000
0000
0010
0000
0100
0010
0000
0100
0000
0000
0000
,
1000
0000
0010
0100
0000
0001
1000
0001
1000
0000
0000
0000
,
0001
0100
0001
0010
0100
1000
0001
0100
,
0010
0000
0100
0000
0001
1000
0000
1000
0100
0000
1000
0000
0001
0000
0010
0000
,
0100
0000
0010
0000
0001
1000
0000
1000
0010
0000
0100
0000
0010
0000
0000
0000
,
0100
0000
0010
0000
1000
0001
0000
0001
0010
0000
0100
0000
1000
0000
0001
0000
,
0010
0000
0100
0000
1000
0001
0000
0001
0100
0000
0000
0000
0101
0000
1001
0000
,
1000
0100
0000
0010
0001
0000
0010
0000
0001
0000
0100
0000
0010
0000
1000
0000
,
0001
0010
0000
0100
1000
0000
0100
0000
1000
0001
0000
0100
0010
0000
0100
0000
,
0001
1000
0001
1000
0100
0010
0100
0010
,
0001
0100
0010
1001
,
1000
0100
1000
0001
,
0010
0001
0010
0000
0001
0000
0000
0000
,
0100
0010
0100
0001
,
1000
0100
1000
0000
0100
0000
0000
0000
,
0010
0001
1000
0100
,
1000
0001
1000
0000
0001
0000
0000
0000
,
0020
0000
0000
0000
0000
0000
0000
0000
0130
0000
0000
0100
0000
0000
0100
0000
,
0010
0100
0010
0000
0100
0000
0000
0000
,
0010
0000
1001
0000
1000
0010
0110
0000
,
0001
0010
0011
0001
1000
0100
1100
0000
,
1000
0010
0000
0100
0001
0000
0010
0000
0001
0000
1000
0000
0010
0000
0100
0000
,
0001
0010
0100
1000
,
0001
0000
0100
0000
0001
0000
1000
0010
,
1000
0000
0010
0000
0100
0000
0001
0010
,
0001
0000
0010
0100
0010
0000
0100
1000
,
0001
0000
0100
0010
1000
0000
0001
0000
,
1000
0000
0010
0000
0100
0000
0001
0100
,
0001
0000
1000
0100
1000
0000
0100
0010
,
0100
0000
0010
0000
0001
0000
0100
0010
,
0000
0100
0000
0001
0000
1000
0100
0000
,
1000
0000
0010
0000
1000
0000
0001
0100
,
0001
0000
0100
0000
0010
0000
1000
0100
,
1000
0000
0100
0010
0100
0000
0010
0001
,
1000
0000
0010
0100
0001
0000
1000
0000
,
0001
0010
0100
0000
0010
0000
0001
0000
,
0100
0010
0200
0000
0310
0000
1000
0200
,
0000
1300
0001
0200
0000
0301
1000
0100
,
0000
0010
0000
0002
0000
0103
0010
0000
,
1000
0000
1000
0000
0010
0000
0100
0000
0001
0000
0000
0010
0000
0000
0001
0000
,
1000
0000
0000
0001
0000
0100
0010
0000
1000
0000
0000
0001
0000
0000
0010
0000
,
0001
0000
0001
0000
0100
0000
0010
0000
1000
0000
0000
0100
0000
0000
1000
0000
,
0001
0000
0000
1000
0000
0010
0100
0000
0001
0000
0010
0000
0100
0000
1000
0000
,
1001
0000
0000
0000
;
#NOTEDATA:;
#STEPSTYPE:dance-single;
#DIFFICULTY:Hard;
#METER:15;
#BPMS:0=128,164=256,196=128,212=256,276=128;
#NOTES:
0000
0000
0000
0000
,
0000
0000
0000
0000
,
0000
0000
0000
0000
,
0000
0000
0000
0000
,
0000
0000
0000
0000
,
1001
0000
0000
0000
0001
0000
0100
0000
0101
0000
0000
0110
0000
0000
1010
0000
,
0000
0000
0000
0000
1000
0100
1000
0100
0010
0000
0001
0100
0010
1000
0100
0010
,
0001
0000
0000
0000
1000
0000
0010
0000
1010
0000
0000
0110
0000
0000
0101
0000
,
0000
0000
0000
0000
0000
0000
1000
0001
0010
0100
0010
0001
0000
1000
0010
0100
,
0001
0000
1000
0000
0010
0100
0000
0100
0001
0000
1000
0000
0010
0100
0100
0100
,
0010
0000
1000
0000
0001
0010
0000
0010
0100
0000
0010
0000
0001
1000
0001
1000
,
0001
0000
0100
0000
0010
1000
0000
1000
0001
0000
0010
0000
0100
0010
0010
0010
,
0100
0000
1000
0000
0001
0100
0000
0100
0010
1000
0000
1000
0001
0000
0100
0010
,
1000
0100
0000
0010
0001
0010
0001
0000
0100
0000
0010
0100
0001
1000
0001
1000
,
0001
0100
0000
0010
1000
0000
0100
0010
0001
1000
0000
0100
0010
0000
0110
0000
,
0010
0001
0010
0001
1000
0001
1000
0001
1000
0010
1000
0010
0100
0001
0100
0001
,
1000
0000
0000
0000
0100
0000
0000
0000
0010
0000
0001
0000
1000
0010
0100
0001
,
1000
0000
0000
0000
0001
0000
0010
0000
0001
0000
1000
0100
0000
0010
0100
0000
,
1000
0000
0001
0000
0100
0000
0010
0000
1000
0000
0001
0100
0000
0010
1000
0000
,
0001
0000
0000
0000
1000
0000
0100
0000
1000
0000
0001
0010
0000
0100
0010
0000
,
0001
0000
0100
0000
0010
0000
1000
0001
0010
0001
0100
0010
0000
0100
0001
0010
,
0100
0000
0000
0000
1000
0000
0010
0000
0100
0000
0001
0010
0000
1000
0010
0000
,
0001
0000
1000
0000
0100
0000
0010
0000
0001
0000
0100
0010
0000
1000
0100
0000
,
0010
0000
0000
0000
0001
0000
1000
0000
0100
0000
0000
0110
0000
0000
0011
0000
,
0000
0000
0000
0000
0000
0000
1000
0100
0010
0100
1000
0001
0000
0100
0010
1000
,
0001
0000
0000
0000
0010
0001
0000
0001
0100
0010
0000
0010
1000
0001
0000
0001
,
0010
0100
0000
0100
1000
0010
0000
0000
0110
0000
0100
0010
1000
0001
0100
0000
,
0001
0010
0001
0010
0100
1000
0000
1000
0001
0100
0000
0100
0010
1000
0000
1000
,
0100
0010
0000
0010
0001
0100
0000
0000
0110
0000
0000
0000
1000
0100
0010
0001
,
0100
0000
0000
1010
0000
1000
0100
0010
0100
0000
0000
0000
,
0010
0000
0000
0000
0000
0000
0000
0000
0000
0000
0000
0000
0011
0000
0000
0000
0000
0000
0000
0000
0001
0000
0000
0000
0100
0000
0000
0010
0000
0000
0100
0000
0000
0010
0000
0000
1000
0000
0000
0000
0000
0000
0000
0000
0000
0000
0000
0000
,
0100
0000
0010
0001
0000
1000
0001
1000
0010
0100
0001
0010
,
0100
0000
1000
0000
0001
0000
1000
0010
0100
0001
1000
0010
0100
0010
1000
0100
,
0010
0000
0001
0000
1000
0010
0000
0010
0100
0000
0001
0000
1000
0100
0100
0100
,
1000
0000
0001
0000
0010
0100
0000
0100
1000
0000
0001
0000
0100
0010
0100
0010
,
0100
0000
0001
0000
1000
0001
0000
0001
0010
0000
0100
0000
1000
0001
0001
0001
,
0100
0000
0010
0000
1000
0100
0000
0100
0010
0001
0000
0100
0010
0000
0100
0010
,
1000
0010
0000
0100
0001
0100
0010
0000
1000
0000
0100
0010
0001
0010
0001
0010
,
0001
0100
0000
0010
1000
0010
0100
0001
1000
0001
0000
0010
0100
0000
0110
0000
,
0010
0001
0010
0001
1000
0100
1000
0100
0010
0001
1000
0010
0100
0001
1000
0010
,
0100
0000
0001
0000
1000
0000
1001
1100
,
0110
0000
0011
0000
0101
0000
0100
0010
,
1000
0100
0010
0000
0110
0000
0100
0010
,
0100
1000
0001
0000
0101
0000
1001
0000
,
0001
0010
0100
0000
0110
0000
0000
0000
,
0011
0000
1010
0000
1100
0000
1000
0001
,
0100
0010
0100
0000
0110
0000
0010
1000
,
0001
0000
0000
0000
0010
0000
0000
0000
0100
0000
0000
0000
0010
0000
0000
0000
0100
0000
0000
0000
0010
0000
0000
0000
0001
0000
0000
0000
0000
0000
0000
0000
0000
0001
0000
0000
0000
0000
0000
0000
0000
0000
0001
0000
0000
0000
0000
0000
,
1000
0010
0100
0000
0110
0000
0000
0000
,
0100
0000
0000
0000
1001
0000
0000
0000
1000
0100
0010
0000
0011
0000
1000
0000
,
0001
0100
0010
0000
1010
0000
1000
0100
0010
0000
0001
0000
1001
0000
0000
0000
,
0001
0100
0000
0010
1000
0010
1000
0000
0001
0000
1000
0100
0010
0001
0010
0001
,
0010
0001
0100
0010
,
1000
0000
0100
0010
0001
0000
0010
0001
,
1000
0000
0010
0100
0001
0010
0100
1000
,
0001
1000
0100
0001
0100
1000
0001
0100
,
1000
0100
0010
1000
0100
0010
0001
1000
,
0010
0100
0001
1000
0100
0010
0001
0100
,
0001
1000
0010
0001
0010
1000
0100
0001
,
0100
0010
0001
0100
0010
1000
0001
0100
,
0000
0010
0000
0100
0001
1000
0010
0000
,
0200
0000
0310
1000
0001
0000
1000
0001
,
0010
0000
0100
1000
0010
0100
0001
0010
,
0100
0001
0100
1000
0010
0001
1000
0100
,
0001
0010
0100
1000
0010
0100
0001
0010
,
0100
1000
0001
0100
0010
0100
1000
0100
,
0010
0100
0002
0000
0013
0100
1000
0020
,
0000
1030
0001
0200
0000
0301
1000
0100
,
0000
0010
0000
0002
0000
1003
0001
0000
,
0100
0000
0100
0000
0010
0000
1000
0000
1100
0000
0000
0101
0000
0000
0011
0000
,
0010
0100
0000
0010
0000
0001
1000
0000
0010
0100
0000
0010
1000
0000
1010
0000
,
0010
0000
0010
0000
0100
0000
0001
0000
0011
0000
0000
0110
0000
0000
1100
0000
,
1000
0010
0000
0100
0000
0001
0100
0000
0001
0000
0010
0000
0100
0000
1000
0000
,
1001
0000
0000
0000
;
#NOTEDATA:;
#STEPSTYPE:dance-double;
#DIFFICULTY:Easy;
#METER:8;
#NOTES:
00000000
00000000
00000000
00000000
,
00000000
00000000
00000000
00000000
,
00000000
00000000
00000000
00000000
,
00000000
00000000
00000000
00000000
,
00000000
00000000
00000000
00000000
,
00000001
00001000
00000100
00010000
,
00002000
00000000
00000000
00000000
,
00013000
00001000
01000000
00010000
,
20000000
00000000
00000000
00000000
,
31000000
00000000
00100000
00000000
00010000
00100000
00010000
00000000
,
00100000
00001000
00010000
00011000
,
00010000
00000000
00000010
00000000
00001000
00000010
00001000
00000000
,
00000001
00001000
00001100
00010100
,
00010000
00000000
00001000
00000000
01000000
00010000
01000000
00000000
,
00010000
00000000
10000000
00000000
01000000
00100000
01000000
00000000
,
00100000
00010000
00100000
00000000
00001000
00010000
00001000
00000000
,
00010000
00000010
00001000
00000001
,
00000100
00001000
00010000
00100000
,
10000000
00000000
00010000
00000000
00100000
01000000
00100000
00000000
,
01000000
00010000
00001000
00000010
,
00000001
00000000
00001000
00000000
00000100
00001000
00000100
00000000
,
00000010
00001000
00010000
01000000
,
10000000
00000000
00100000
00000000
01000000
00010000
01000000
00000000
,
00010000
00100000
00001000
00010000
,
00000100
00000000
00001000
00000000
00000001
00001000
00000001
00000000
,
00000010
00000100
00001000
00000100
,
00010000
00001000
00100000
00010000
,
01000000
00100000
10000000
00100000
,
10000000
00010000
00100000
00001000
,
00010000
00000100
00010100
00000000
,
00001000
00000010
00001010
00000000
,
00000001
00000010
00000011
00000000
,
00000001
00000100
00001000
00010000
,
00001000
00000000
00100000
00000000
00010000
00100000
00010000
00000000
,
10000000
00010000
01000000
01010000
,
00010000
00000000
00100000
00000000
00001000
00010000
00001000
00000000
,
00010000
00000010
00001010
00001001
,
00001000
00000000
00000010
00000000
00010000
00001000
00010000
00000000
,
00001000
00000000
00100000
00000000
00010000
10000000
00010000
00000000
,
10000000
00100000
10000000
00000000
00010000
00100000
00010000
00000000
,
01000000
00001000
00010000
00001000
,
00010000
00000000
00000100
00000000
00001000
00000100
00001000
00000000
,
00000001
00000000
00000100
00000000
00000001
00000100
00000001
00000000
,
00000100
00000000
00001000
00000000
00010000
00001000
00010000
00000000
,
00022000
00000000
00033000
00000000
00001000
00100000
00010000
00000000
,
10000000
10010000
00010000
00110000
,
00100000
00101000
00001000
00011000
,
00010000
00000100
00001000
00000000
00000001
00000100
00000010
00000000
,
00001000
00000100
00010000
00001000
,
00100000
00010000
00100000
00000000
00010000
01000000
00010000
00000000
,
10000000
00100000
10000000
00000000
00010000
00100000
00001000
00000000
,
00010000
00001000
00010000
00000000
00000100
00001000
00000100
00000000
,
00001000
00000001
00000100
00000000
00000010
00000000
00000110
00000000
,
00000100
00000010
00001000
00000000
00000010
00010000
00001000
00000000
,
01000000
00010000
10000000
00000000
00010000
00100000
00001000
00000000
,
00010000
00000010
00001000
00000000
00000001
00001000
00000100
00000000
,
00010000
00001000
00100000
00000000
00010000
00000000
10010000
00000000
,
10000000
00100000
00010000
00001000
,
00010000
00010010
00000010
00001010
,
00001000
00000100
00001000
00000001
,
00001000
00001100
00000100
00010000
,
00001000
00000000
00000000
00000000
;
#NOTEDATA:;
#STEPSTYPE:dance-double;
#DIFFICULTY:Medium;
#METER:13;
#BPMS:0=128,164=256,196=128,212=256,276=128;
#NOTES:
00000000
00000000
00000000
00000000
,
00000000
00000000
00000000
00000000
,
00000000
00000000
00000000
00000000
,
00000000
00000000
00000000
00000000
,
00000000
00000000
00000000
00000000
,
00011000
00000000
00000000
00000000
00001000
00000000
00010000
00000000
00000100
00000000
00000000
00001000
00000000
00000000
00000002
00000000
,
00000000
00000000
00000103
00000010
00000100
00000001
00000010
00001000
,
00010000
00000000
00000000
00000000
00001000
00000000
00100000
00000000
00010000
00000000
00000000
10000000
00000000
00000000
00200000
00000000
,
00000000
00000000
00000000
10300000
01000000
00010000
00001000
00000010
,
00000001
00000000
00000100
00000000
00000010
00001000
00000000
00001000
00000010
00000000
00010000
00000000
00001000
00000000
00000000
00000000
,
00100000
00000000
00010000
00000000
10000000
00100000
00000000
00100000
10000000
00000000
01000000
00000000
00100000
00000000
00010000
00000000
,
00100000
00000000
00001000
00000000
00010000
00000100
00000000
00000100
00001000
00000000
00000001
00000000
00001000
00000000
00000000
00000000
,
00000100
00000000
00010000
00000000
00001000
00100000
00000000
00100000
00010000
00000000
00000000
00000000
01000000
00000000
00100000
00000000
,
10000000
01000000
10000000
01000000
00100000
00010000
00100000
00000000
,
00001000
00010000
00001000
00010000
00000010
00001000
00000010
00000000
,
00001000
00000001
00000100
00000010
00001000
00000100
00010000
00001000
,
01000000
00010000
00100000
01100000
,
01000000
00000000
00000000
00000000
10000000
00000000
00010000
00000000
01000000
00000000
00000000
00001000
00000000
00000000
00010000
00000000
,
00000100
00001000
00000100
00001000
00000001
00000100
00000010
00000000
,
00000100
00000000
00000000
00000000
00000001
00000000
00001000
00000000
00000010
00000000
00000000
00010000
00000000
00000000
00001000
00000000
,
00100000
00010000
00100000
00010000
10000000
01000000
00100000
00010000
,
01000000
00000000
00000000
00000000
00001000
00000000
00010000
00000000
00000010
00000000
00000000
00001000
00000000
00000000
00000100
00000000
,
00001000
00000001
00000100
00000010
00001000
00000100
00010000
00000000
,
00001000
00000000
00000000
00000000
01000000
00000000
00010000
00000000
10000000
00000000
00000000
00100000
00000000
00000000
10100000
00000000
,
00000000
00000000
00000000
10000000
01000000
00010000
00001000
00000010
,
00000001
00000000
00000000
00000000
00000001
00000100
00000000
00000000
00000100
00001000
00000000
00000000
00001000
00010000
00000000
00000000
,
00010000
00100000
00000000
00000000
00100000
10000000
00000000
00000000
10010000
00000000
00010000
00000000
00100000
00000000
01000000
00000000
,
10000000
00000000
00010000
00000000
10000000
01000000
00000000
00000000
01000000
00010000
00000000
00000000
00010000
00001000
00000000
00000000
,
00001000
00000010
00000000
00000000
00000010
00000001
00000000
00000000
00001001
00000000
00000000
00000000
00001000
00000000
00000010
00000000
,
00000100
00000000
00000000
00000001
00000000
00001000
00000100
00001000
00000100
00000000
00000000
00000000
,
00010000
00000000
00000000
00001000
00000000
01000000
00010000
00000000
01000000
00000000
00000000
00000000
,
00100000
00000000
10000000
01000000
00000000
10000000
00010000
01000000
00010000
00000000
00000000
00000000
,
00100000
00001000
00010000
00000010
00001000
00000100
00000010
00000001
,
00001000
00000000
00000100
00000000
00010000
00001000
00000000
00001000
01000000
00000000
00010000
00000000
10000000
00000000
00000000
00000000
,
00010000
00000000
00100000
00000000
00001000
00010000
00000000
00010000
00000010
00000000
00001000
00000000
00000100
00000000
00000000
00000000
,
00010000
00000000
00001000
00000000
00100000
00010000
00000000
00010000
10000000
00000000
00100000
00000000
01000000
00000000
00000000
00000000
,
00010000
00000000
00100000
00000000
00001000
00010000
00000000
00010000
00000010
00000000
00000000
00000000
00001000
00000000
00000001
00000000
,
00000010
00000100
00000000
00001000
00000100
00000000
00010000
00000000
00001000
00000000
00100000
00000000
00010000
00000000
00000000
00000000
,
10000000
00100000
00000000
01000000
00100000
00000000
10000000
00000000
00010000
00100000
00000000
00001000
00010000
00000000
00001000
00000000
,
00010000
00000100
00010000
00000100
00001000
00000010
00000100
00000001
,
00000010
00000100
00001000
00001001
,
00000001
00000100
00000001
00001000
,
00000010
00010000
00000010
00000000
00010000
00000000
00000000
00000000
,
00001000
00100000
00010000
00100000
,
00010000
10000000
00010000
00000000
10000000
00000000
00000000
00000000
,
01000000
00100000
00010000
00100000
,
00001000
00010000
00001000
00000000
00010000
00000000
00000000
00000000
,
00000020
00000000
00000000
00000000
00000000
00000000
00000000
00000000
00001030
00000000
00000000
00001000
00000000
00000000
00001000
00000000
,
00000010
00001000
00000010
00000000
00000100
00000000
00000000
00000000
,
00000001
00000000
00000011
00000000
00001000
00000010
00001010
00000000
,
00000010
00010000
00011000
00001000
01000000
00010000
01010000
00000000
,
01000000
00100000
00000000
10000000
00010000
00000000
10000000
00000000
00100000
00000000
00010000
00000000
00001000
00000000
00000100
00000000
,
00000001
00001000
00000100
00010000
,
00001000
00000000
00100000
00000000
00010000
00000000
10000000
00100000
,
10000000
00000000
00010000
00000000
01000000
00000000
00001000
00010000
,
00001000
00000000
00010000
00000000
00000100
00000000
00001000
00000001
,
00000010
00000000
00000001
00001000
00000010
00000000
00000100
00000000
,
00000001
00000000
00001000
00000000
00000010
00000000
00010000
00001000
,
00010000
00000000
00001000
00000000
01000000
00000000
00010000
00100000
,
00010000
00000000
10000000
00000000
00010000
00000000
00100000
00001000
,
00000000
00010000
00000000
00000100
00000000
00001000
00000001
00000000
,
00000100
00000000
00000010
00000000
00000100
00000000
00000001
00001000
,
00000001
00000000
00001000
00000000
00000100
00000000
00010000
00001000
,
00010000
00000000
00001000
00000000
00100000
00000000
00010000
10000000
,
00100000
00000000
01000000
00010000
10000000
00000000
01000000
00000000
,
00010000
00001000
00000010
00000001
,
00001000
00000100
00020000
00000000
00031000
00000000
00010000
00002000
,
00000000
00103000
00010000
20000000
00000000
30010000
01000000
00010000
,
00000000
00100000
00000000
00002000
00000000
00013000
00001000
00000000
,
00010000
00000000
00010000
00000000
00000100
00000000
00001000
00000000
00000001
00000000
00000000
00000010
00000000
00000000
00000001
00000000
,
00001000
00000000
00000000
00000100
00000000
00010000
00001000
00000000
01000000
00000000
00000000
00010000
00000000
00000000
10000000
00000000
,
01000000
00000000
01000000
00000000
00100000
00000000
00010000
00000000
01000000
00000000
00000000
00001000
00000000
00000000
00010000
00000000
,
00000010
00000000
00000000
00001000
00000000
00000100
00000010
00000000
00000001
00000000
00000100
00000000
00001000
00000000
00010000
00000000
,
00011000
00000000
00000000
00000000
;
#NOTEDATA:;
#STEPSTYPE:dance-double;
#DIFFICULTY:Hard;
#METER:15;
#BPMS:0=128,164=256,196=128,212=256,276=128;
#NOTES:
00000000
00000000
00000000
00000000
,
00000000
00000000
00000000
00000000
,
00000000
00000000
00000000
00000000
,
00000000
00000000
00000000
00000000
,
00000000
00000000
00000000
00000000
,
10010000
00000000
00000000
00000000
00010000
00000000
01000000
00000000
01001000
00000000
00000000
00011000
00000000
00000000
00010100
00000000
,
00000000
00000000
00000000
00000000
00000100
00001000
00000100
00001000
00000001
00000000
00000010
00000100
00001000
00000100
00010000
00001000
,
00010000
00000000
00000000
00000000
00001000
00000000
00010000
00000000
00011000
00000000
00000000
00101000
00000000
00000000
00110000
00000000
,
00000000
00000000
00000000
00000000
00000000
00000000
10000000
01000000
00100000
01000000
10000000
00010000
00000000
00100000
00001000
00010000
,
00001000
00000000
00010000
00000000
00000010
00001000
00000000
00001000
00000100
00000000
00000010
00000000
00000001
00001000
00001000
00001000
,
00000001
00000000
00000100
00000000
00000010
00001000
00000000
00001000
00000100
00000000
00010000
00000000
00001000
00010000
00001000
00010000
,
00001000
00000000
01000000
00000000
00010000
10000000
00000000
10000000
00100000
00000000
01000000
00000000
00010000
10000000
10000000
10000000
,
01000000
00000000
00010000
00000000
00001000
00000010
00000000
00000010
00000001
00001000
00000000
00001000
00000010
00000000
00000100
00000010
,
00001000
00000001
00000000
00001000
00000100
00010000
00001000
00000000
00100000
00000000
00010000
01000000
00100000
10000000
00100000
00000000
,
10000000
00010000
00000000
01000000
00100000
00000000
01000000
00010000
00100000
00001000
00000000
00010000
00001000
00000000
00011000
00000000
,
00010000
00000100
00010000
00000100
00001000
00000001
00000100
00000010
00001000
00000010
00001000
00000010
00010000
00001000
01000000
00010000
,
10000000
00000000
00000000
00000000
01000000
00000000
00000000
00000000
00100000
00000000
00010000
00000000
10000000
00100000
01000000
00010000
,
10000000
00000000
00000000
00000000
00100000
00000000
00010000
00000000
00001000
00000000
00000100
00000010
00000000
00001000
00000001
00000000
,
00000010
00000000
00000100
00000000
00001000
00000000
00000001
00000000
00000010
00000000
00001000
00000010
00000000
00000001
00000100
00000000
,
00000010
00000000
00000000
00000000
00000100
00000000
00001000
00000000
00010000
00000000
00100000
01000000
00000000
00010000
10000000
00000000
,
01000000
00000000
10000000
00000000
00010000
00000000
00100000
00001000
00010000
00001000
00010000
00000010
00000000
00001000
00000010
00000100
,
00000001
00000000
00000000
00000000
00000010
00000000
00001000
00000000
00010000
00000000
01000000
00100000
00000000
00010000
01000000
00000000
,
00100000
00000000
10000000
00000000
00010000
00000000
01000000
00000000
00001000
00000000
00010000
00000100
00000000
00001000
00000010
00000000
,
00000100
00000000
00000000
00000000
00000001
00000000
00001000
00000000
00000100
00000000
00000000
00010100
00000000
00000000
00011000
00000000
,
00000000
00000000
00000000
00000000
00000000
00000000
00001000
00100000
00010000
00100000
01000000
10000000
00000000
00010000
01000000
00100000
,
10000000
00000000
00000000
00000000
01000000
00010000
00000000
00010000
00001000
00010000
00000000
00010000
00001000
00000100
00000000
00000100
,
00000010
00000100
00000000
00000100
00000001
00000010
00000000
00000000
00000110
00000000
00000100
00000010
00000001
00000010
00000001
00000000
,
00001000
00000010
00001000
00000010
00000100
00001000
00000000
00001000
00010000
00001000
00000000
00001000
00010000
01000000
00000000
01000000
,
00100000
00010000
00000000
00010000
01000000
00100000
00000000
00000000
01100000
00000000
00000000
00000000
00100000
10000000
00100000
10000000
,
00010000
00000000
00000000
11000000
00000000
01000000
00010000
00001000
00000100
00000000
00000000
00000000
,
00000001
00000000
00000000
00000011
00000000
00000010
00001000
00010000
00100000
10000000
00000000
00000000
,
00010000
00000000
01000000
00100000
00000000
00010000
00001000
00000100
00000010
00000100
00000001
00000010
,
00000100
00000000
00001000
00000000
00000100
00000000
00010000
00001000
01000000
00010000
10000000
00100000
01000000
00010000
01000000
00001000
,
00010000
00000000
00000100
00000000
00001000
00000010
00000000
00000010
00000100
00000000
00000001
00000000
00001000
00000100
00000100
00000100
,
00010000
00000000
00001000
00000000
00100000
00010000
00000000
00010000
01000000
00000000
00100000
00000000
10000000
00010000
10000000
00010000
,
10000000
00000000
01000000
00000000
00010000
00001000
00000000
00001000
00010000
00000000
00000010
00000000
00001000
00000001
00000001
00000001
,
00000010
00000000
00001000
00000000
00010000
00001000
00000000
00001000
01000000
00010000
00000000
00100000
01000000
00000000
10000000
00010000
,
01000000
00010000
00000000
00100000
00001000
00010000
00001000
00000000
00010000
00000000
00001000
00000010
00000100
00000010
00000100
00000010
,
00000001
00001000
00000000
00000100
00010000
00001000
00010000
00000000
00100000
01000000
00000000
00100000
10000000
00000000
10010000
00000000
,
00010000
00100000
00010000
00100000
00001000
00010000
00001000
00010000
00000100
00001000
00000001
00000100
00000010
00001000
00000100
00010000
,
00001000
00000000
01000000
00000000
00010000
00000000
01010000
01100000
,
10100000
00000000
11000000
00000000
00110000
00000000
00100000
00001000
,
00010000
00000010
00001000
00000000
00001010
00000000
00001000
00000100
,
00000010
00000001
00000010
00000000
00000011
00000000
00001100
00000000
,
00000100
00010000
00001000
00000000
00011000
00000000
00000000
00000000
,
00110000
00000000
10100000
00000000
11000000
00000000
10000000
00010000
,
00100000
00001000
00010000
00000000
00011000
00000000
00010000
00000100
,
00001000
00000000
00000000
00000000
00000001
00000000
00000000
00000000
00001000
00000000
00000000
00000000
00000001
00000000
00000000
00000000
00001000
00000000
00000000
00000000
00000001
00000000
00000000
00000000
00000100
00000000
00000000
00000000
00000000
00000000
00000000
00000000
00000000
00000100
00000000
00000000
00000000
00000000
00000000
00000000
00000000
00000000
00000100
00000000
00000000
00000000
00000000
00000000
,
00000010
00001000
00000100
00000000
00001001
00000000
00000000
00000000
,
00000001
00000000
00000000
00000000
00000010
00000000
00000000
00000000
00000001
00000100
00001000
00000000
00010000
00000000
00001000
00000000
,
00010000
00100000
10000000
00000000
00010000
00000000
10000000
01000000
00010000
00000000
00001000
00000000
00011000
00000000
00000000
00000000
,
00010000
00000100
00000000
00001000
00000100
00000010
00000001
00000000
00000100
00000000
00000010
00001000
00000100
00010000
00001000
00010000
,
00001000
00010000
01000000
10000000
,
00010000
00000000
00100000
00001000
00010000
00000000
00000010
00001000
,
00000001
00000000
00000010
00000100
00001000
00000001
00000100
00001000
,
00010000
00000000
00001000
00100000
00010000
00000000
10000000
00100000
,
01000000
00100000
10000000
01000000
00010000
00001000
00000010
00000001
,
00000010
00000000
00000001
00000100
00000010
00001000
00000100
00010000
,
00001000
00000000
00010000
00001000
01000000
00010000
00100000
01000000
,
10000000
00000000
00100000
00010000
00001000
00000100
00000010
00000100
,
00000000
00000001
00000000
00001000
00000010
00010000
00001000
00000000
,
02000000
00000000
03010000
10000000
00100000
00000000
01000000
00001000
,
00010000
00000000
00000010
00001000
00000100
00000010
00000001
00001000
,
00000001
00000000
00000100
00001000
00010000
00000000
01000000
10000000
,
00100000
01000000
00010000
00100000
01000000
00000000
10000000
00010000
,
01000000
00001000
00010000
00000100
00001000
00000010
00001000
00000100
,
00010000
00001000
02000000
00000000
03010000
10000000
00100000
00020000
,
00000000
00031000
00000010
00000002
00000000
00000103
00001000
00010000
,
00000000
01000000
00000000
20000000
00000000
30010000
10000000
00000000
,
00010000
00000000
00010000
00000000
00100000
00000000
00001000
00000000
00011000
00000000
00000000
00001100
00000000
00000000
00000101
00000000
,
00000001
00001000
00000000
00000010
00000000
00010000
00001000
00000000
01000000
00010000
00000000
10000000
00100000
00000000
01100000
00000000
,
01000000
00000000
01000000
00000000
00010000
00000000
00100000
00000000
00101000
00000000
00000000
00011000
00000000
00000000
00001010
00000000
,
00000001
00000100
00000000
00000010
00000000
00001000
00000100
00000000
00010000
00000000
00001000
00000000
01000000
00000000
00010000
00000000
,
10010000
00000000
00000000
00000000
;
