
//----- song ID: fufl -----//
#TITLE:Funky Flux Fusion;
#ARTIST:yuichi NAGAO;
#BANNER:Funky Flux Fusion.png;
#BACKGROUND:Funky Flux Fusion-bg.png;
#CDTITLE:./CDTitles/DDR WORLD.png;
#MUSIC:Funky Flux Fusion.ogg;
#SAMPLESTART:25.926;
#SAMPLELENGTH:15;
#BPMS:0=162;
#BGSTAGE:31;
#NOTES:
     dance-single:
     :
     Beginner:
     3:
     :
0000
0000
0000
0000
,
0000
0000
0000
0000
,
0000
0000
0000
0000
,
0000
0000
0000
0000
,
0000
0000
0000
0000
,
0000
0000
0000
0000
,
1000
0000
0000
0000
,
1000
0000
0000
0000
,
0010
0000
0000
0000
,
0000
0000
0000
0000
,
0001
0000
0000
0000
,
0001
0000
0000
0000
,
0010
0000
0000
0000
,
0000
0000
0000
0000
,
0001
0000
0000
0000
,
0010
0000
0000
0000
,
0001
0000
0000
0000
,
0000
0000
0000
0000
,
0002
0000
0000
0000
,
0003
0000
0000
0000
,
0001
0000
0001
0000
,
0010
0000
0000
0000
,
0020
0000
0000
0000
,
0030
0000
0000
0000
,
0010
0000
0010
0000
,
1000
0000
0000
0000
,
2000
0000
0000
0000
,
3000
0000
0000
0000
,
1000
0000
1000
0000
,
0010
0000
0000
0000
,
0020
0000
0000
0000
,
0030
0000
0000
0000
,
0010
0000
0010
0000
,
0001
0000
0000
0000
,
0002
0000
0000
0000
,
0003
0000
0000
0000
,
2000
0000
0000
0000
,
3000
0000
0000
0000
,
1001
0000
0000
0000
,
0000
0000
0000
0000
,
0010
0000
0010
0000
,
0010
0000
0000
0000
,
0100
0000
0000
0000
,
0000
0000
0000
0000
,
0020
0000
0000
0000
,
0030
0000
0000
0000
,
0100
0000
0000
0000
,
0000
0000
0000
0000
,
0000
0000
0000
0000
,
1000
0000
1000
0000
,
1000
0000
0000
0000
,
1001
0000
0000
0000
,
1000
0000
0000
0000
,
0010
0000
0000
0000
,
1000
0000
0000
0000
,
0000
0000
0000
0000
,
0010
0000
0000
0000
,
0010
0000
0000
0000
,
0001
0000
0000
0000
,
0000
0000
0000
0000
,
0001
0000
0000
0000
,
0010
0000
0000
0000
,
0001
0000
0000
0000
,
0000
0000
0000
0000
,
0010
0000
0000
0000
,
0010
0000
0000
0000
,
1000
0000
0000
0000
,
0000
0000
0000
0000
,
1000
0000
0100
0000
,
1000
0000
0000
0000
,
1000
0000
0000
0000
,
0010
0000
0000
0000
,
0001
0000
0100
0000
,
0001
0000
0000
0000
,
0001
0000
0000
0000
,
0010
0000
0000
0000
,
1000
0000
0000
0000
,
1001
0000
0000
0000
,
0000
0000
0000
0000
;
#NOTES:
     dance-single:
     :
     Easy:
     7:
     :
0000
0000
0000
0000
,
0000
0000
0000
0000
,
0000
0000
0000
0000
,
0000
0000
0000
0000
,
0000
0000
0000
0000
,
0000
0000
0000
0000
,
1000
0100
1000
0100
,
0010
0001
0010
0000
,
0001
0100
0001
0100
,
0010
1000
0010
0000
,
1000
1000
1000
0000
,
0010
0010
0010
0000
,
0100
0100
0100
0000
,
0001
0001
0001
0000
,
0001
0010
0100
0010
,
0001
0000
0001
0000
,
1000
0010
0100
0010
,
1000
0000
0000
0000
,
1001
0000
0000
0000
,
1000
0100
0001
0000
,
0001
0100
1000
0000
,
0010
0100
0010
0100
,
0001
0100
1000
0000
,
1000
0100
0001
0000
,
0001
0010
0100
1000
,
0001
0000
0000
0000
,
0001
0010
0001
0010
,
1000
0010
0001
0000
,
1000
0010
1000
0010
,
0001
0010
1000
0000
,
0001
0100
0010
1000
,
0100
0010
0001
0000
,
1000
0010
0100
0001
,
0010
0100
1000
0000
,
0002
0000
0000
0000
,
0003
0000
0000
0000
,
0020
0000
0000
0000
,
0030
0000
0000
0000
,
1001
0000
0000
0000
,
0110
0000
0000
0000
,
1000
1000
0100
0000
,
1000
1000
0010
0000
,
1000
0100
0010
0000
,
0001
1000
0001
0000
,
2000
0000
0000
0000
,
3000
0000
0000
0000
,
0002
0000
0000
0000
,
0003
0000
0000
0000
,
0000
0000
0000
0000
,
0001
1000
0001
1000
,
0001
1000
0001
0000
,
1001
0000
0110
0000
,
0001
0100
0001
0100
,
0010
1000
0010
0000
,
1000
0100
0010
0100
,
1000
0001
1000
0000
,
1000
0100
1000
0100
,
0010
0001
0010
0000
,
0001
0100
0010
0100
,
0001
1000
0001
0000
,
1000
0010
0100
0001
,
1000
0010
0100
0000
,
0001
0010
0100
1000
,
0001
0010
0100
0000
,
1000
0001
0100
0010
,
1000
0001
0010
0100
,
1000
1000
0010
0000
,
0001
0001
0010
0000
,
1000
0000
1001
0000
,
0001
1000
0001
0000
,
0100
0000
0110
0000
,
0010
0100
0010
0000
,
0110
0000
1001
0000
,
0001
1000
0001
0000
,
1000
0100
0001
0100
,
1000
0000
0000
0000
,
0001
0100
1000
0100
,
0001
0000
0000
0000
,
0000
0000
0000
0000
;
#NOTES:
     dance-single:
     :
     Medium:
     12:
     :
0000
0000
0000
0000
,
0000
0000
0000
0000
,
0000
0000
0000
0000
,
0000
0000
0000
0000
,
0000
0000
0000
0000
,
0000
0000
0000
0000
,
1000
0000
0001
0000
0100
0010
0100
0000
,
0001
0000
1000
0000
0100
0010
0100
0000
,
1000
0010
1000
0000
0001
0010
0001
0000
,
2000
0000
0000
3000
,
1000
0000
0000
0100
0000
0000
0100
0000
0010
0000
0000
0001
0000
0000
0001
0000
,
1000
0000
0000
0100
0000
0000
0100
0000
0010
0000
0001
0000
0010
0000
0000
0000
,
0001
0100
1000
0100
0001
0000
0001
1000
,
0100
1000
0000
0100
0000
0010
0001
0000
,
1000
0010
1000
0010
0100
0001
0100
0000
,
0001
0010
0001
0010
0100
1000
0100
0000
,
1000
0010
0100
0001
0010
0100
1000
0010
,
0100
0000
0000
0000
0001
0001
0001
0000
,
1000
0000
0000
1000
0000
0000
0100
0000
0000
0100
0000
0000
0010
0000
0001
0000
,
1000
0100
0001
0100
1000
0100
0010
0000
,
0001
0000
0000
0001
0000
0000
0100
0000
0010
0000
0100
0000
0010
0000
0000
0000
,
1010
0000
1000
0010
0100
0001
0100
0000
,
0001
0000
0000
1000
0000
0000
0010
0000
0100
0000
0001
0000
1000
0000
0100
0000
,
0010
0000
1000
0010
0001
1000
0100
0000
,
0010
0000
0000
0010
0000
0000
0001
0000
1000
0000
0001
0000
0100
0000
0000
0000
,
0110
0000
0000
0000
0001
1000
0001
0000
,
1000
0000
0000
1000
0000
0000
0010
0000
0100
0000
0000
0100
0000
0000
0001
0000
,
1000
0010
0001
0000
0001
0010
1000
0000
,
0001
0000
0000
0001
0000
0000
0010
0000
0001
0000
0100
0000
0001
0000
0000
0000
,
1001
0000
0000
0000
0100
0010
0100
0000
,
1001
0000
1000
0100
0010
0001
0010
0001
,
1000
0000
0010
0100
1000
0100
0001
0000
,
1000
0000
0000
1000
0000
0000
0100
0000
0000
0100
0000
0000
0010
0000
0001
0000
,
0010
0000
0000
0010
0000
0000
0001
0000
1000
0000
0001
0000
1000
0000
0000
0000
,
0002
0000
0000
0003
,
0200
0000
0000
0300
,
0020
0000
0000
0030
,
2000
0000
0000
3000
,
1000
0000
1000
0100
0000
0000
,
0010
0000
0010
0001
0000
0000
,
1000
0000
0000
0010
0000
0000
1000
0000
0001
0000
0000
0010
0000
0000
0001
0000
,
1000
0000
0000
0010
0000
0000
1000
0000
0100
0000
0010
0000
0100
0000
0000
0000
,
1000
0000
0000
0100
0000
0000
1000
0000
0001
0000
0000
0100
0000
0000
0001
0000
,
1000
0000
0000
0100
0000
0000
1000
0000
0010
0000
0100
0000
0010
0000
0000
0000
,
1000
0000
1000
0010
0000
0010
,
0100
0000
0100
0001
0000
0001
,
2000
0000
0000
0000
,
3000
0000
0000
0000
,
0000
0000
0000
0000
,
1000
0100
0010
0000
0001
0100
0010
0000
,
1000
0001
1000
0001
1000
0001
1000
0000
,
0001
0000
0000
0100
0000
0000
0010
0000
0000
1000
0000
0000
0001
0000
0000
0000
,
1000
0100
0010
0001
1000
0100
0001
0100
,
1000
0001
0100
0010
0001
1000
0100
0010
,
1000
0100
1000
0100
0001
0100
0001
1000
,
0010
1000
0010
0001
0010
0001
1000
0000
,
0002
0100
0010
0103
,
0001
0010
0001
0100
0001
0010
0001
0100
,
0001
0000
0000
0000
1001
0000
0000
0000
1000
0000
0000
0010
0000
0000
0001
0000
,
0000
0000
0001
0000
0010
0000
1000
0000
0100
0000
0000
0010
0000
0000
0100
0000
,
1000
0010
0100
0001
1000
0010
0100
0001
,
1000
0000
1000
0100
1000
0000
1000
0100
,
0010
0000
0001
0100
0010
0100
0010
0100
,
0001
0000
1000
0000
0010
0100
0001
1000
,
0010
0000
0010
0100
0010
1000
0010
1000
,
0000
0010
0100
0001
0000
1000
0100
0010
,
0001
0000
0001
0010
1000
0010
1000
0010
,
0002
0000
0000
0003
,
0001
0000
0100
0000
0010
0000
1000
0000
0010
0000
0000
0010
0000
0000
1000
0000
,
0100
1000
0100
0000
0010
0001
0100
0000
,
0001
0000
0000
1000
0000
0000
0010
0000
0100
0000
0001
0000
1000
0000
0010
0000
,
0100
0000
0100
0001
1000
0001
1000
0000
,
0001
0000
0010
0000
0100
0000
0010
0000
0001
0000
0000
0001
0000
0000
1000
0000
,
0010
0100
0010
0000
1000
0001
1000
0000
,
0001
0000
0000
0001
0000
0000
0100
0000
0000
0100
0000
0000
0010
0000
1000
0000
,
0010
0000
0000
0010
0000
0000
1000
0000
0000
1000
0000
0000
0001
0000
0000
0000
,
1000
0000
1000
0100
0000
0000
0010
0000
0001
0000
1000
0000
,
0001
0000
0000
0000
,
0000
0000
0000
0000
;
#NOTES:
     dance-single:
     :
     Hard:
     15:
     :
0000
0000
0000
0000
,
0000
0000
0000
0000
,
0000
0000
0000
0000
,
0000
0000
0000
0000
,
0000
0000
0000
0000
,
0000
0000
0000
0000
,
1000
0000
0000
0010
0000
0000
0100
0000
0001
0000
0010
0001
0000
0010
0001
0000
,
2000
0000
0010
0000
0000
3010
0000
0000
0200
0000
0001
0000
0000
0301
0000
0000
,
1000
0010
0100
0010
1000
0000
1000
0100
,
0000
0010
0000
0000
0001
0000
0000
0000
1000
0000
0001
0000
1000
0000
0000
0000
,
0001
0000
0100
0001
0000
0100
0001
0000
1000
0000
0100
1000
0000
0100
1000
0000
,
0001
0000
0010
0001
0000
0010
0001
0000
1000
0000
0010
0000
1000
0000
0000
0000
,
0001
0010
1000
0010
0001
0000
0001
1000
,
0100
0000
1000
0000
0000
0000
1000
0000
0000
0000
0001
0010
0100
1000
0100
0000
,
1000
0010
1000
0010
0100
0001
0100
0001
,
0010
0001
0010
0001
1000
0100
1000
0100
,
1000
0100
0010
0000
0001
0100
0010
0000
1000
0100
1000
0100
0010
0001
0010
0001
,
1000
0000
0000
0000
0000
0000
0000
0000
0001
0000
0100
0010
0100
0010
0100
0010
,
1000
0000
0100
1000
0000
0010
1000
0000
0001
0100
0000
0001
0010
0000
0001
0000
,
1000
0000
0100
0000
0001
0000
0100
1000
0000
0100
1000
0000
0001
0000
0100
0000
,
0010
1000
0000
0010
0001
0000
0010
1000
0000
0010
0100
0010
0100
0000
0001
0000
,
2000
3100
0200
0310
0010
0001
2000
0000
,
3001
0100
0000
0001
0010
0000
0001
1000
0100
1000
0100
1000
0010
0000
1000
0000
,
0001
0000
0100
0000
1000
0000
0100
0001
0000
0100
0001
0000
1000
0000
0100
0000
,
0010
0001
0000
0010
1000
0000
0010
0001
0000
0010
0100
0010
0100
0000
1000
0000
,
1001
0000
0000
0000
0000
0000
0000
0000
1000
0000
0100
0010
0000
0100
0010
0001
,
0010
0000
0001
1000
0001
0000
0100
0000
0110
0000
0000
1010
0000
0000
1001
0000
,
0001
0000
0010
0000
1000
0000
0001
0100
0000
1000
0100
0000
0010
0000
0001
0000
,
1000
0100
0000
0001
0100
0000
1000
0100
0010
0100
0010
0100
1000
0000
0001
0000
,
1001
0000
0000
0000
0000
0000
0000
0000
0001
0100
0010
0000
1000
0000
0001
0000
,
1000
0100
0000
0010
0100
0000
0010
0001
1000
0001
1000
0001
0100
0000
0010
0000
,
1000
0000
0100
0000
0001
0000
0100
1000
0000
0001
0010
0000
0001
0000
0100
0000
,
0010
1000
0000
0100
1000
0000
0010
0100
0000
0001
0100
0001
0010
0000
0001
0000
,
1000
0000
0000
1000
0000
0000
1000
0000
0001
0100
0010
1000
0001
0000
1000
0000
,
0002
0100
0000
0103
,
0200
0010
0000
0310
,
0020
1000
0000
1030
,
2000
0001
0000
3001
,
1000
0000
0001
0000
0001
0000
1000
0100
0010
0000
0011
0000
,
0001
0000
1000
0000
1000
0000
0001
0100
0010
1000
0010
0000
,
1000
0000
0010
1000
0000
0100
1000
0000
0001
0000
0010
0001
0000
0100
0001
0000
,
1000
0000
0100
1000
0000
0010
1000
0000
0001
0000
0100
0001
0000
0010
0001
0000
,
1000
0000
0100
0010
0000
0100
1000
0001
1000
0000
0001
0100
0000
0010
0100
0001
,
0100
0000
0001
0010
0000
0100
0010
0001
1000
0000
0010
0100
0000
0010
1000
0001
,
0010
0000
0100
0000
1100
0000
1000
0001
0010
0000
0011
0000
,
0001
0100
0010
0100
0010
1000
0001
0010
0100
1000
0001
0010
,
0200
0000
0000
0000
,
0020
0000
0000
0000
,
0000
0000
0000
0330
,
1000
0100
0010
0001
1000
0100
0010
0001
,
1000
0001
1000
0001
1000
0001
1000
0001
1000
0001
1000
0001
1000
0001
1000
0000
,
0001
0100
0010
1000
0000
0001
0010
0100
1000
0001
1000
0000
0010
0100
0010
0000
,
1000
0000
0100
0000
1000
0001
0000
0000
1000
0001
0100
0010
0000
1000
0000
0100
,
1000
0000
0001
0010
0001
1000
0001
0010
0001
0000
0010
0100
1000
0100
0000
1000
,
0100
0000
1000
0000
0010
0100
0000
0000
0001
0100
0010
0000
1000
0000
0100
0000
,
0000
0000
0100
0000
0010
0000
0001
0000
0000
0000
0001
1000
0010
0100
0001
1000
,
0020
0001
0100
1030
,
0001
0100
0001
0100
0010
1000
0010
1000
0010
0000
0000
0000
1000
0100
0010
0001
,
0000
1000
0000
0000
0100
0000
0001
0000
0100
0000
0000
0100
1000
0000
0001
0000
,
0000
0000
0001
0000
0100
0000
0010
0000
1000
0010
1000
0010
0100
0001
0100
0001
,
1000
0000
0100
0010
0000
0001
0010
0000
0001
1000
0100
1000
0001
0000
0100
0000
,
0010
0000
0000
0010
1000
0000
0010
0000
0100
0000
0000
0100
0001
0000
0100
0000
,
0001
0000
0010
0000
0001
0000
1000
0100
0010
0100
1000
0100
0010
0000
0001
0000
,
1000
1000
0100
0100
0001
0100
1000
0001
,
0100
0000
0000
0000
0100
0000
0010
1000
0001
1000
0010
1000
0001
0000
0100
0000
,
0000
0100
0010
1000
0000
1000
0100
0010
,
0001
1000
0000
0001
1000
0000
0010
0100
0010
0100
0010
0100
0010
0000
1000
0000
,
0200
0000
0010
0000
0000
0310
0000
0000
0010
0001
1000
0010
0100
0001
1000
0000
,
0100
0000
0010
0100
0010
0000
0001
0000
1000
0001
0000
1000
0001
0000
0100
0000
,
0001
0000
0010
1000
0000
0010
0001
0000
2000
0000
3100
0000
0002
0000
0103
0000
,
1000
0001
0000
1000
0001
0000
0100
0010
1000
0010
2000
0000
3020
0000
0230
0000
,
0301
0000
0000
0000
0001
0000
0010
0100
0010
0000
0100
0000
2000
0000
0000
0000
,
3010
0000
0100
0010
0100
0000
0001
0000
1000
0001
0000
1000
0001
0000
0010
0000
,
0001
0000
0100
1000
0000
0100
0001
0000
2000
0000
3010
0000
0002
0000
0013
0000
,
1000
0100
0000
0010
0001
0000
1000
0100
0000
0010
0001
0000
1000
0001
1000
0000
,
0001
0100
0000
0010
1000
0000
0001
0100
0000
0010
1000
0000
0001
0000
1000
0000
,
0010
1000
0100
0010
0001
0100
0010
1000
0001
0100
0010
1000
,
0001
0000
0000
0000
,
0000
0000
0000
0000
;
#NOTES:
     dance-double:
     :
     Easy:
     7:
     :
00000000
00000000
00000000
00000000
,
00000000
00000000
00000000
00000000
,
00000000
00000000
00000000
00000000
,
00000000
00000000
00000000
00000000
,
00000000
00000000
00000000
00000000
,
00000000
00000000
00000000
00000000
,
00001000
00010000
00001000
00010000
,
00000100
00001000
00000100
00000000
,
00000010
00000001
00000010
00000001
,
00001000
00000001
00001000
00000000
,
00000001
00000100
00001000
00000000
,
00001000
00010000
00001000
00000000
,
00010000
00100000
10000000
00000000
,
00010000
10000000
00010000
00000000
,
10000000
01000000
10000000
01000000
,
00100000
00000000
00100000
00000000
,
00001000
00010000
00001000
00010000
,
00001000
00000000
00000000
00000000
,
00011000
00000000
00000000
00000000
,
00010000
00001000
00000010
00000000
,
00000001
00000100
00000010
00000100
,
00000001
00001000
00000001
00000000
,
00001000
00000100
00010000
00001000
,
00100000
00010000
10000000
00000000
,
00010000
01000000
10000000
01000000
,
00010000
00000000
00000000
00000000
,
10000000
01000000
00100000
00010000
,
00100000
00001000
00010000
00000000
,
00010000
00001000
00000010
00000000
,
00000001
00001000
00000100
00000000
,
00000100
00000010
00000001
00000100
,
00001000
00010000
00001000
00000000
,
00010000
00001000
01000000
00010000
,
00100000
00000000
00000000
00000000
,
02000000
00000000
00000000
00000000
,
03000000
00000000
00000000
00000000
,
20000000
00000000
00000000
00000000
,
30000000
00000000
00000000
00000000
,
10010000
00000000
00000000
00000000
,
01100000
00000000
00000000
00000000
,
10000000
10000000
01000000
00000000
,
00100000
00100000
00010000
00000000
,
00100000
00001000
00010000
00000000
,
00001000
00010000
00000100
00000000
,
00002000
00000000
00000000
00000000
,
00003000
00000000
00000000
00000000
,
00000002
00000000
00000000
00000000
,
00000003
00000000
00000000
00000000
,
00000000
00000000
00000000
00000000
,
00000001
00000001
00000100
00000000
,
00001000
00001000
00010000
00000000
,
00011000
00000000
00000000
00000000
,
00010000
00001000
00100000
00010000
,
01000000
00010000
00100000
00000000
,
00001000
00010000
00000100
00001000
,
00000010
00001000
00000100
00000000
,
00010000
00010000
00010000
00000000
,
00001000
00001000
00001000
00000000
,
00001000
00010000
00100000
10000000
,
00010000
01000000
00100000
00000000
,
10000000
01000000
00100000
00010000
,
01000000
00010000
00100000
00001000
,
00010000
00000000
00001000
00000000
,
00010000
00001000
00010000
00000000
,
00001000
00010000
00000010
00001000
,
00000100
00000010
00000001
00001000
,
00000010
00000100
00000010
00000000
,
00000100
00000100
00000010
00000000
,
00000010
00010000
00001000
00010000
,
00000100
00010000
00001000
00000000
,
00100000
00001000
00010000
00001000
,
01000000
00001000
00010000
00000000
,
00001000
00010000
00100000
00000000
,
00100000
10000000
00010000
00000000
,
10000000
01000000
00010000
00000000
,
00001000
00000000
00000000
00000000
,
00010000
00001000
00000010
00000001
,
00001000
00000000
00000000
00000000
,
00000000
00000000
00000000
00000000
;
#NOTES:
     dance-double:
     :
     Medium:
     12:
     :
00000000
00000000
00000000
00000000
,
00000000
00000000
00000000
00000000
,
00000000
00000000
00000000
00000000
,
00000000
00000000
00000000
00000000
,
00000000
00000000
00000000
00000000
,
00000000
00000000
00000000
00000000
,
00010000
00000000
00001000
00000000
00000010
00000001
00000010
00000000
,
00000001
00000000
00001000
00000000
00000010
00000100
00000010
00000000
,
00000100
00000000
00001000
00010000
00100000
00000000
10000000
00020000
,
00000000
00000000
00000000
00030000
,
10000000
00000000
00000000
01000000
00000000
00000000
01000000
00000000
00100000
00000000
00000000
00010000
00000000
00000000
00010000
00000000
,
10000000
00000000
00000000
01000000
00000000
00000000
00010000
00000000
00001000
00000000
00010000
00000000
00001000
00000000
00000000
00000000
,
00001000
00010000
00000100
00001000
00000001
00000000
00000001
00000100
,
00000010
00001000
00000000
00000001
00000000
00000100
00001000
00000000
,
00010000
00100000
01000000
00100000
00010000
00100000
01000000
00000000
,
00001000
00100000
00010000
01000000
00010000
00100000
00001000
00000000
,
00010000
00001000
00000010
00000100
00000010
00001000
00010000
00000000
,
00001000
00000000
00000000
00000000
00010000
00010000
00010000
00000000
,
00001000
00000000
00000000
00001000
00000000
00000000
00010000
00000000
00000000
00010000
00000000
00000000
00001000
00000000
00000010
00000000
,
00000001
00001000
00000100
00000000
00000010
00000001
00000100
00000000
,
00000001
00000000
00000000
00000001
00000000
00000000
00000100
00000000
00000010
00000000
00000100
00000000
00000010
00000000
00000000
00000000
,
00000010
00000100
00001000
00010000
00100000
01000000
00100000
00000000
,
10000000
00000000
00000000
10000000
00000000
00000000
00100000
00000000
01000000
00000000
00010000
00000000
00100000
00000000
01000000
00000000
,
10000000
00000000
10000000
01000000
00010000
00000000
00001000
00000000
,
00000010
00000000
00000000
00000010
00000000
00000000
00000001
00000000
00001000
00000000
00000001
00000000
00000100
00000000
00000000
00000000
,
00000110
00000000
00000000
00000000
00000001
00001000
00000001
00000000
,
00001000
00000000
00000000
00001000
00000000
00000000
00000001
00000000
00000010
00000000
00000000
00000010
00000000
00000000
00001000
00000000
,
00010000
00000000
00010000
01000000
10000000
00000000
00010000
00000000
,
10000000
00000000
00000000
10000000
00000000
00000000
00100000
00000000
01000000
00000000
00010000
00000000
00100000
00000000
00001000
00000000
,
00010000
00000000
00000000
00000000
00010000
00001000
00010000
00000000
,
00001000
00010000
00000010
00001000
00000001
00000100
00000001
00000000
,
00001000
00000000
00000100
00000001
00000100
00001000
00000100
00000000
,
00010000
00000000
00000000
00010000
00000000
00000000
00001000
00000000
00000000
00001000
00000000
00000000
01000000
00000000
00010000
00000000
,
01000000
00000000
00000000
01000000
00000000
00000000
00100000
00000000
01000000
00000000
00100000
00000000
10000000
00000000
00000000
00000000
,
00020000
00000000
00000000
00030000
,
00200000
00000000
00000000
00300000
,
00002000
00000000
00000000
00003000
,
00000020
00000000
00000000
00000030
,
00000001
00000000
00000001
00000010
00000000
00000000
,
00001000
00000000
00001000
00010000
00000000
00000000
,
00001000
00000000
00000000
00010000
00000000
00000000
00001000
00000000
01000000
00000000
00000000
00100000
00000000
00000000
01000000
00000000
,
00001000
00000000
00000000
00010000
00000000
00000000
00001000
00000000
00000010
00000000
00000100
00000000
00000010
00000000
00000000
00000000
,
00001000
00000000
00000000
00010000
00000000
00000000
00001000
00000000
00100000
00000000
00000000
01000000
00000000
00000000
00100000
00000000
,
00001000
00000000
00000000
00010000
00000000
00000000
00001000
00000000
00000100
00000000
00000010
00000000
00000100
00000000
00000000
00000000
,
00000001
00000000
00000001
00001000
00000000
00001000
,
00000100
00000000
00000100
00010000
00000000
00010000
,
00002000
00000000
00000000
00000000
,
00003000
00000000
00000000
00000000
,
00000000
00000000
00000000
00000000
,
00001000
00010000
00001000
00000000
00010000
00001000
00010000
00000000
,
00001000
00010000
00001000
00010000
00001000
00010000
00001000
00000000
,
00010000
00000000
00000000
00001000
00000000
00000000
01000000
00000000
00000000
00010000
00000000
00000000
10000000
00000000
00000000
00000000
,
00010000
10000000
01000000
00100000
00010000
01000000
00010000
00100000
,
01000000
00010000
00001000
00000010
00000100
00001000
00000010
00000100
,
00000001
00001000
00000010
00000100
00001000
00010000
00001000
00000100
,
00000001
00000010
00000100
00001000
00000100
00010000
00001000
00100000
,
00020000
01000000
00100000
01030000
,
00010000
00100000
00001000
00010000
00000100
00001000
00000010
00000100
,
00000001
00000000
00000000
00000000
00001001
00000000
00000000
00000000
00001000
00000000
00000000
00000010
00000000
00000000
00000001
00000000
,
00000000
00000000
00000001
00000000
00000010
00000000
00001000
00000000
00000010
00000000
00000000
00010000
00000000
00000000
00001000
00000000
,
00100000
00010000
01000000
00001000
00100000
00010000
01000000
00001000
,
00020000
00000000
00030000
00010000
00200000
00000000
00300000
00100000
,
10000000
00000000
00010000
01000000
00100000
01000000
00100000
00000000
,
10000000
01000000
00100000
00010000
00100000
00001000
00010000
00000000
,
00001000
00000000
00010000
00000100
00001000
00000100
00000010
00000001
,
00000000
00000001
00000100
00001000
00000000
00001000
00000100
00000010
,
00001000
00000100
00010000
00001000
00100000
00010000
00100000
00001000
,
00020000
00000000
00000000
00030000
,
00011000
00000000
00000000
00000000
00010000
00000000
00001000
00000000
01000000
00000000
00000000
01000000
00000000
00000000
00010000
00000000
,
00100000
01000000
10000000
00000000
00100000
01000000
00010000
00000000
,
10000000
00000000
00000000
00100000
00000000
00000000
00010000
00000000
00001000
00000000
00010000
00000000
00001000
00000000
00000000
00000000
,
00010000
00000000
00010000
00001000
00000010
00000001
00001000
00000000
,
00000001
00000000
00000100
00000000
00000010
00000000
00001000
00000000
00000100
00000000
00000000
00000100
00000000
00000000
00010000
00000000
,
00001000
00010000
01000000
00000000
10000000
00010000
10000000
00000000
,
00100000
00000000
00000000
00100000
00000000
00000000
01000000
00000000
00000000
01000000
00000000
00000000
00010000
00000000
01000000
00000000
,
00001000
00000000
00000000
00001000
00000000
00000000
00010000
00000000
00000000
00010000
00000000
00000000
00001000
00000000
00000000
00000000
,
00010000
00000000
00010000
00001000
00000000
00000000
00000010
00000000
00000001
00000000
00001000
00000000
,
00000001
00000000
00000000
00000000
,
00000000
00000000
00000000
00000000
;
#NOTES:
     dance-double:
     :
     Hard:
     15:
     :
00000000
00000000
00000000
00000000
,
00000000
00000000
00000000
00000000
,
00000000
00000000
00000000
00000000
,
00000000
00000000
00000000
00000000
,
00000000
00000000
00000000
00000000
,
00000000
00000000
00000000
00000000
,
00001000
00010000
00000010
00001000
00000001
00000010
00000100
00001000
,
00000002
00000000
00000100
00000000
00000000
00000103
00000000
00000000
00002000
00000000
00010000
00000000
00000000
00013000
00000000
00000000
,
00001000
00010000
00001000
01000000
00010000
10000000
01000000
00100000
,
00000000
01000000
00000000
00000000
01000000
00000000
00000000
00000000
10000000
00000000
00010000
00000000
10000000
00000000
00000000
00000000
,
00010000
00000000
00100000
01000000
00000000
00100000
01000000
00000000
00010000
00000000
00001000
00010000
00000000
00001000
00010000
00000000
,
00000100
00000000
00000010
00000100
00000000
00000010
00000100
00000000
00000010
00000000
00000001
00001000
00000001
00000000
00000000
00000000
,
00001000
00000100
00000010
00000001
00000100
00001000
00010000
00001000
,
00010000
00000000
00001000
00000000
00100000
00000000
00010000
00000000
01000000
00000000
00100000
01000000
00100000
00000000
00000000
00000000
,
10000000
01000000
10000000
01000000
00100000
00010000
00100000
00001000
,
00010000
00000100
00001000
00000100
00000010
00000001
00000010
00000000
,
00000001
00000100
00000010
00000000
00000100
00000010
00001000
00000000
00000010
00010000
00000010
00010000
00001000
00010000
00001000
00010000
,
00001000
00000000
00000000
00000000
00000000
00000000
00000000
00000000
00010000
00000000
00001000
00100000
00001000
00000000
00100000
00010000
,
00100000
00000000
00010000
01000000
00000000
00010000
01000000
00000000
00100000
10000000
00000000
01000000
10000000
00000000
01000000
00000000
,
00010000
00000000
00001000
00000000
00000010
00000000
00000001
00000010
00000000
00000001
00000010
00000000
00000001
00001000
00000001
00000000
,
00000100
00000010
00000000
00001000
00000010
00000000
00000100
00000010
00000000
00001000
00000010
00001000
00000010
00000000
00010000
00000000
,
00002000
00103000
00200000
00310000
00010000
01000000
02000000
00000000
,
03100000
10000000
00000000
00100000
10000000
00000000
01000000
00100000
01000000
00100000
01000000
00000000
00100000
00000000
00001000
00000000
,
00010000
00000000
00000100
00000000
00001000
00000000
00000100
00000010
00000000
00000100
00000010
00000000
00000001
00000000
00001000
00000000
,
00000010
00000100
00000000
00000001
00000100
00000000
00000010
00000100
00000000
00000010
00001000
00000010
00001000
00000000
00000010
00000000
,
00010000
00000000
00000000
00000000
00000000
00000000
00000000
00000000
00001000
00000000
00010000
00001000
00000000
01000000
00010000
01000000
,
00010000
00000000
00100000
01000000
00100000
00000000
00010000
00000000
00110000
00000000
00000000
01100000
00000000
00000000
11000000
00000000
,
10000000
00000000
01000000
00000000
00010000
00000000
00001000
00000010
00000000
00000001
00000010
00000000
00000100
00000000
00001000
00000000
,
00000001
00000100
00000000
00000001
00000100
00000000
00000010
00001000
00000010
00001000
00000010
00000000
00010000
00000000
00001000
00000000
,
00011000
00000000
00000000
00000000
00000000
00000000
00000000
00000000
00001000
00010000
00001000
00000000
00010000
00000000
01000000
00000000
,
10000000
01000000
00000000
00100000
00010000
00000000
10000000
01000000
00100000
00010000
00100000
00000000
00001000
00000000
00010000
00000000
,
00001000
00000000
00000010
00000000
00000001
00000000
00001000
00000100
00000000
00000010
00000100
00000000
00001000
00000000
00000001
00000000
,
00000100
00000010
00000000
00001000
00000010
00000000
00010000
00001000
00000000
00010000
00001000
01000000
00010000
00000000
01000000
00000000
,
00100000
00000000
00000000
00100000
00000000
00000000
10000000
00000000
10000000
01000000
00100000
00010000
10000000
00000000
00000000
00000000
,
00020000
00100000
00000000
00130000
,
00002000
00010000
00000000
00013000
,
00000200
00001000
00000000
00001300
,
00000002
00000100
00000000
00000103
,
00000001
00000000
00000100
00000000
00000100
00000000
00000001
00000100
00001000
00000000
00011000
00000000
,
00010000
00000000
00001000
00000000
00001000
00000000
00010000
00100000
00010000
00100000
10000000
00000000
,
00010000
00000000
10000000
00100000
00000000
01000000
00100000
00000000
10000000
00000000
01000000
00100000
00000000
00010000
00100000
00000000
,
01000000
00000000
00010000
00001000
00000000
00010000
00001000
00000000
00010000
00000000
00001000
00000000
00000010
00000000
00000001
00000000
,
00001000
00000000
00000001
00000010
00000000
00000100
00000010
00000000
00000001
00000000
00000100
00000010
00000000
00001000
00000010
00000000
,
00000100
00000000
00001000
00010000
00000000
00001000
00010000
00000000
00001000
00000000
00010000
00000000
00100000
00000000
10000000
00000000
,
00010000
00000000
00100000
00000000
01100000
00000000
01000000
10000000
00010000
00000000
00110000
00000000
,
00100000
00001000
00010000
00001000
00010000
00000100
00001000
00000010
00000100
00000001
00001000
00000010
,
00000200
00000000
00000000
00000000
,
00000020
00000000
00000000
00000000
,
00000000
00000000
00000000
00000330
,
00000001
00000010
00000001
00000010
00001000
00000010
00001000
00010000
,
00001000
00010000
00001000
00010000
00001000
00010000
00001000
00010000
00001000
00010000
00001000
00010000
00001000
00010000
00001000
00000000
,
00010000
00001000
01000000
00010000
00000000
01000000
00100000
10000000
00100000
01000000
00010000
00000000
10000000
01000000
00100000
00000000
,
00010000
00000000
00100000
00000000
01100000
00000000
00000000
00000000
10000000
01000000
00100000
00010000
00000000
00100000
00000000
00001000
,
00010000
00000000
00000100
00001000
00000100
00001000
00000100
00000010
00000100
00000000
00000010
00000001
00001000
00000001
00000000
00001000
,
00000001
00000000
00000100
00000000
00000010
00000100
00000000
00000000
00000010
00000100
00001000
00000000
00010000
00000000
00001000
00000000
,
00000000
00000000
00001000
00000000
00010000
00000000
01000000
00000000
00000000
00000000
10000000
01000000
10000000
01000000
00100000
00010000
,
00200000
00010000
10000000
00310000
,
00010000
00100000
00010000
00100000
00001000
00010000
00001000
00010000
00001000
00000000
00000000
00000000
00010000
00000010
00001000
00000010
,
00000100
00000010
00000000
00000000
00000100
00000000
00000001
00000000
00000010
00000000
00000000
00000010
00000100
00000000
00001000
00000000
,
00000000
00000000
00001000
00000000
00000100
00000000
00010000
00000000
00001000
00010000
00001000
00010000
00001000
01000000
00010000
01000000
,
00010000
00000000
01000000
00100000
00000000
01000000
00100000
00000000
10000000
00100000
01000000
00010000
01000000
00000000
00100000
00000000
,
00010000
00000000
00000000
00010000
00001000
00000000
00010000
00000000
00001000
00000000
00000000
00001000
00010000
00000000
00001000
00000000
,
00000010
00000000
00000000
00000000
00000110
00000000
00000001
00001000
00000010
00000100
00000001
00001000
00000010
00000000
00000100
00000000
,
00001000
00010000
00100000
00000000
10000000
00010000
10000000
00000000
,
10010000
00000000
00000000
00000000
10000000
00000000
01000000
00100000
00010000
00100000
00001000
00100000
00010000
00000000
00100000
00000000
,
00000000
00100000
00001000
00010000
00000000
00010000
00001000
00000100
,
00000001
00000100
00000000
00000001
00000100
00000000
00000010
00000100
00000010
00000100
00000010
00000100
00000010
00000000
00001000
00000000
,
00000200
00000000
00010000
00000000
00000000
00010300
00000000
00000000
00010000
00001000
00100000
00010000
00100000
00001000
00010000
00000100
,
00001000
00000000
00000000
00001000
00000100
00000000
00000010
00000000
00000001
00001000
00000000
00000001
00001000
00000000
00000010
00000000
,
00000100
00000000
00000000
00001000
00000000
00000000
00010000
00000000
00200000
00000000
01300000
00000000
00020000
00000000
10030000
00000000
,
01000000
00100000
00000000
00010000
00100000
00000000
00001000
00010000
00001000
00100000
00002000
00000000
00023000
00000000
00030200
00000000
,
00001300
00000000
00000000
00000000
00001000
00000000
00000100
00000010
00000001
00000000
00000100
00000000
00000200
00000000
00000000
00000000
,
00000310
00000000
00001000
00000010
00001000
00000000
00000001
00000000
00000100
00000010
00000000
00000100
00000010
00000000
00000100
00000000
,
00001000
00000000
00010000
00100000
00000000
01000000
00100000
00000000
20000000
00000000
31000000
00000000
00020000
00000000
01030000
00000000
,
10000000
01000000
00000000
00100000
00010000
00000000
10000000
00100000
00000000
01000000
00010000
00000000
01000000
00001000
01000000
00000000
,
00001000
00010000
00000000
00001000
00010000
00000000
00000010
00001000
00000000
00000010
00001000
00000000
00000010
00000000
00000100
00000000
,
00000001
00000010
00000100
00001000
00000100
00010000
00001000
00100000
00010000
00100000
01000000
10000000
,
00010000
00000000
00000000
00000000
,
00000000
00000000
00000000
00000000
;
