
//----- song ID: frag -----//
#TITLE:Fragarach;
#ARTIST:ARForest vs. Zekk;
#BANNER:Fragarach.png;
#BACKGROUND:Fragarach-bg.png;
#CDTITLE:./CDTitles/DDR WORLD.png;
#MUSIC:Fragarach.ogg;
#SAMPLESTART:95.369;
#SAMPLELENGTH:15;
#BPMS:0=95,32=190,128=95,140=190,148=95,156=190,172=95,188=190;
#NOTES:
     dance-single:
     :
     Beginner:
     7:
     :
0000
0000
0000
0000
,
0000
0000
0000
0000
,
0000
0000
0000
0000
,
0000
0000
0000
0000
,
1000
0000
1000
0000
,
1000
0000
0000
0000
,
0001
0000
0001
0000
,
0001
0000
0000
0000
,
2000
0000
0000
0000
,
3000
0000
0000
0000
,
0200
0000
0000
0000
,
0300
0000
0000
0000
,
0020
0000
0000
0000
,
0030
0000
0000
0000
,
0002
0000
0000
0000
,
0003
0000
0000
0000
,
1000
0000
0010
0000
,
1000
0010
1000
0000
,
0001
0000
0010
0000
,
0001
0010
0001
0000
,
1000
0000
0100
0000
,
1000
0100
1000
0000
,
0001
0000
0100
0000
,
0001
0100
0001
0000
,
1000
1000
0010
0000
,
1000
0000
0010
0000
,
1000
0010
0100
0000
,
0001
0000
0000
0000
,
0001
0001
0010
0000
,
0001
0000
0010
0000
,
0001
0010
0100
0000
,
1000
0000
0000
0000
,
1001
0000
0110
0000
,
1001
0000
0000
0000
,
1001
0000
0110
0000
,
2002
0000
0000
0000
,
3003
0000
0000
0000
,
1001
0000
0110
0000
,
1001
0000
0000
0000
,
2000
0000
0000
0000
,
3000
0000
0000
0000
,
0002
0000
0000
0000
,
0003
0000
0000
0000
,
1000
0000
1000
0000
,
1000
1000
0010
0000
,
0001
0000
0001
0000
,
0001
0001
0010
0000
,
2000
0000
0000
0000
,
3000
0000
0000
0000
,
0200
0000
0000
0000
,
0300
0000
0000
0000
,
0020
0000
0000
0000
,
0030
0000
0000
0000
,
0002
0000
0000
0000
,
0003
0000
0000
0000
,
2002
0000
0000
0000
,
0000
0000
0000
0000
,
3003
0000
0000
0000
,
0000
0000
0000
0000
,
0001
0001
0010
0000
,
0001
0001
0100
0000
,
0001
0010
0001
1000
,
0010
0000
1001
0000
,
1000
1000
0010
0000
,
1000
1000
0100
0000
,
1000
0010
1000
0001
,
0010
0000
1001
0000
,
1000
1000
0010
0000
,
1000
0100
0010
0000
,
0010
0010
0001
0000
,
0001
1000
0001
0000
,
0001
0001
0010
0000
,
0001
0100
0010
0000
,
0010
0010
1000
0000
,
1000
0001
1000
0001
,
0000
0000
1001
0000
,
0001
0100
0010
0000
,
0110
0000
1001
0000
,
1000
0100
0010
0002
,
0000
0003
0000
0000
0000
0000
0000
0000
,
0000
0000
0000
0000
;
#NOTES:
     dance-single:
     :
     Easy:
     10:
     :
0000
0000
0000
0000
,
0000
0000
0000
0000
,
0000
0000
0000
0000
,
0000
0000
0000
0000
,
1000
0100
0010
0010
,
0001
0100
0010
0010
,
1000
0001
0100
0100
,
0010
1000
0100
0110
,
0002
0000
0000
0003
,
2000
0000
0000
3000
,
0020
0000
0000
0030
,
0200
0000
0000
0300
,
0001
0000
1000
0000
0010
0100
0010
0000
,
1000
0000
0001
0000
0010
0100
0010
0000
,
0002
0000
0000
0000
,
2000
0000
0000
3003
,
1000
0000
0010
0000
0100
0001
0100
0000
,
0001
0000
0010
0000
0100
1000
0100
0000
,
1000
0000
0001
0000
0100
0010
1000
0000
,
0001
0000
1000
0000
0100
0010
0001
0000
,
1000
0000
0100
0000
0010
0001
1000
0000
,
0100
0000
0010
0000
0001
1000
0100
0000
,
1000
0000
0010
0000
0100
0001
1000
0000
,
0010
0000
0000
0100
0000
0000
0010
0000
1000
0000
0000
0000
1001
0000
0000
0000
,
1000
0000
0100
0000
0001
0100
1000
0000
,
0001
0000
0100
0000
1000
0100
0001
0000
,
1000
0000
0010
0000
0001
0010
1000
0000
,
0001
0000
0010
0000
1000
0010
0001
0000
,
1000
0000
0100
0000
0010
0001
0100
0000
,
0001
0000
1000
0000
0010
1000
0100
0000
,
0010
0000
0001
0000
1000
0001
1000
0001
,
0000
0001
1000
0000
0110
0000
1001
0000
,
2000
3000
0200
0300
,
0020
0030
0002
0003
,
2000
3000
0020
0030
,
0100
0000
0000
0110
,
0000
0000
1001
0000
,
2000
3000
0020
0030
,
0200
0300
0002
0003
,
2000
0000
0000
3000
,
1100
0000
0000
0001
,
2000
0000
0000
0000
,
0000
0000
3000
0000
,
0001
0000
0001
0000
,
0010
0000
0010
0000
,
0001
0000
0001
0000
,
1000
0000
1000
0000
,
0200
0000
0000
0000
,
0000
0000
0000
0300
,
0020
0000
0000
0000
,
0000
0000
0000
0030
,
0002
0000
0000
0003
,
2000
0000
0000
3000
,
0002
0000
2003
0000
,
3002
0000
0000
0003
,
2002
0000
0000
0000
,
0000
0000
0000
0000
,
0000
0000
0000
0000
,
3003
0000
0000
0000
,
1000
0000
0100
0000
0010
0001
1000
0000
,
0001
0000
0100
0000
0010
1000
0001
0000
,
1000
1100
0001
0101
,
1000
1010
0001
0011
,
0010
0001
0100
0000
0010
0000
0110
0000
,
0010
1000
0100
0000
0010
0000
0110
0000
,
0001
1000
0001
0000
1000
0001
1000
0000
,
0001
0000
0000
0001
0000
0000
0001
0000
1000
0000
0000
1000
0000
0000
1000
0000
,
0001
0000
0010
0000
0100
1000
0001
0000
,
1000
0000
0010
0000
0100
0001
1000
0000
,
0001
0011
1000
1010
,
0001
0101
1000
1100
,
0100
1000
0010
0000
0100
0000
0110
0000
,
0100
0001
0010
0000
0100
0000
0110
0000
,
1000
0000
0000
0100
0000
0000
1000
0000
0001
0000
0000
0100
0000
0000
0001
0000
,
1000
0000
0000
1000
0000
0000
1000
0000
0001
0000
0000
0001
0000
0000
0001
0000
,
0000
1001
0000
1000
0100
0000
1000
0100
,
0000
0010
0001
0000
0010
0001
0000
1000
,
0010
0000
1000
0010
0000
0100
0001
0000
,
0100
0001
0000
1000
0001
0000
1000
0002
,
0000
0003
0000
0000
0000
0000
0000
0000
,
0000
0000
0000
0000
;
#NOTES:
     dance-single:
     :
     Medium:
     14:
     :
0000
0000
0000
0000
,
0000
0000
0000
0000
,
0000
0000
0000
0000
,
0000
0000
0000
0000
,
1000
0100
0010
0000
0100
0010
0001
0000
,
0001
0100
0010
0000
0100
0010
1000
0000
,
0001
1000
0010
0000
1000
0001
0100
0000
,
0001
1000
0100
0000
1000
0001
0010
0000
,
0001
0001
0100
0100
,
0010
0000
0010
0000
1000
0010
1000
0000
,
0100
0100
0010
0010
,
0001
0000
0001
0000
1000
0001
1000
0000
,
0001
0100
0010
1000
0001
0100
0010
0000
,
1000
0100
0010
0001
1000
0100
0010
0000
,
0002
0000
0000
0003
,
1000
0000
0001
1000
0000
0010
0100
0000
,
0001
0100
0001
0100
0010
1000
0100
1000
,
0001
0010
0100
1000
0001
1000
0001
0000
,
1000
0100
1000
0100
0010
0001
0100
0001
,
1000
0010
0100
0001
1000
0001
1000
0000
,
0001
0100
0010
1000
0100
0010
0001
1000
,
0100
0010
0001
0010
1000
0010
0001
0000
,
1000
0100
0010
0001
0100
0010
1000
0001
,
0100
0000
0000
0010
0000
0000
0010
0000
1000
0000
0001
0000
1000
0000
0000
0000
,
0001
0010
0100
1000
0010
0100
1000
0100
,
0001
0010
0100
1000
0001
1000
0001
0000
,
1000
0010
0100
0001
0010
0100
0001
0100
,
1000
0010
0100
0001
1000
0001
1000
0000
,
0001
0100
0001
0100
1000
0100
1000
0100
,
0001
1000
0100
0010
0001
0010
0100
0000
,
1000
0100
1000
0100
0001
0100
0001
0100
,
0000
0100
1000
0010
0100
0001
0010
0000
,
0002
0000
0000
0000
0103
0010
0000
0010
0000
1000
0010
1000
0001
1000
0001
0000
,
2000
0000
0000
0000
3100
0010
0000
0010
0000
0001
0010
0001
1000
0001
1000
0000
,
0002
0000
0000
0000
0013
0100
0000
0100
0000
1000
0100
0010
0001
1000
0001
1000
,
0010
0000
0000
1000
0000
0000
1010
0000
0000
0001
0000
0000
0100
0000
0000
0101
,
0000
0000
1001
0000
0000
0110
0000
0000
1000
0000
0010
0000
0100
0000
0002
0000
,
0003
0000
1001
0000
1000
0010
0001
0010
0000
1000
0010
1000
0001
0100
0001
0000
,
0000
0000
1001
0000
0001
0010
1000
0010
0000
0001
0010
0001
1000
0100
1000
0000
,
0001
0000
0000
0000
0100
0000
0000
0101
0000
0000
1000
0000
0000
1010
0000
0000
,
0010
0000
0000
0110
0000
0000
1000
0000
0000
1001
0000
0000
0001
0000
0100
0000
,
0020
0000
0000
0000
,
0000
0000
0030
0000
,
2000
0000
0000
0000
,
3002
0000
0000
0000
0103
0010
0100
0000
,
0002
0000
0000
0000
,
2003
0000
3200
0320
,
0031
0001
0001
0000
,
1000
1000
1000
0000
,
0010
0010
0010
0000
,
0100
0100
0100
0000
,
0002
0000
0023
0000
,
0230
0000
2300
0000
,
3002
0000
0203
0000
,
0320
0000
2030
0000
,
3002
0000
0000
0000
,
0000
0000
0000
0000
,
0000
0000
0000
0000
,
0003
0000
0000
0000
0001
1000
0001
0000
,
1000
0100
0010
0001
0100
1000
0001
0010
,
1000
0100
0010
0001
0010
1000
0010
0001
,
0100
0010
0001
0010
1000
0010
0100
0001
,
1000
0100
0001
0100
1000
0001
1000
0000
,
0001
0100
1000
0001
0010
1000
0100
0001
,
1000
0010
0001
0100
1000
0100
0001
0010
,
0100
1000
0010
1000
0100
0010
0001
0100
,
0001
0010
0000
0001
0010
0000
0001
0000
1000
0000
0010
1000
0000
0001
1000
0000
,
0001
0100
0010
1000
0100
0001
1000
0010
,
0001
0100
0010
1000
0010
0001
0010
1000
,
0100
0010
1000
0010
0001
0010
0100
1000
,
0001
0100
1000
0100
0001
1000
0001
0000
,
1000
0100
0001
1000
0010
0001
0100
1000
,
0001
0010
1000
0100
0001
0100
1000
0010
,
0100
0000
0000
0101
0000
0000
1001
0000
1000
0000
0000
1001
0000
0000
1010
0000
,
1000
0010
0000
1000
0010
0000
1000
0000
0001
0000
0010
0001
0000
1000
0001
0000
,
0000
1001
0000
1000
0010
0100
1000
0001
,
0010
0100
0001
0010
0100
0001
1000
0010
,
0100
1000
0100
0001
0100
1000
0010
0001
,
0010
1000
0001
0010
1000
0010
0001
0200
,
0000
0300
0000
0000
0000
0000
0000
0000
,
0000
0000
0000
0000
;
#NOTES:
     dance-single:
     :
     Hard:
     17:
     :
0000
0000
0000
0000
,
0000
0000
0000
0000
,
0000
0000
0000
0000
,
0000
0000
0000
0000
,
2000
0000
0000
0000
0000
0000
0000
0000
0000
0000
0000
0000
3000
0000
0100
0010
,
0002
0000
0000
0000
1003
0010
0100
0001
,
2000
0000
3100
0001
0100
1000
0001
0010
,
0200
0000
0000
0000
0000
0000
0000
0000
0000
0000
0000
0000
0000
0000
0000
0000
1300
0000
0000
0000
1001
0000
0000
0000
0001
0000
0000
0001
0100
0000
0100
0000
,
0010
1000
0010
1000
0100
0010
0100
0010
,
0001
0100
0001
0100
0010
1000
0010
1000
,
0100
0001
0100
1000
0100
0001
0100
1000
,
0010
0001
0010
1000
0010
0001
0010
1000
,
0001
0100
0001
0000
0100
0001
0100
0000
0001
0010
0001
0000
0010
0001
0010
0000
,
0100
1000
0100
0000
1000
0100
1000
0000
0010
1000
0010
0000
1000
0010
1000
0000
,
0002
0000
0000
0003
,
1000
1000
0001
1100
0000
1000
0101
0000
,
1000
0000
0100
0010
0001
0000
0010
0100
1000
0000
0001
0100
0010
0000
1000
0010
,
0100
0000
0001
0100
0010
0000
1000
0100
0010
0000
0001
0010
0100
0000
1000
0001
,
1000
0000
0001
0100
0001
0000
0100
0010
1000
0000
0100
1000
0100
0000
1000
0001
,
0010
0000
0100
1000
0001
0000
0100
0010
1000
0001
0000
1000
0001
0000
1000
0000
,
0001
0000
0100
0010
1000
0000
0010
0100
0001
0000
1000
0100
0010
0000
0001
0010
,
0100
0000
1000
0100
0010
0000
0001
0100
0010
0000
1000
0010
0100
0000
0001
1000
,
0001
0000
1000
0100
1000
0000
0100
0010
0001
0000
0100
0001
0100
0000
0001
1000
,
0010
0100
0000
0010
0100
0000
0001
0010
0100
0000
1000
0100
0010
0001
0100
0010
,
1000
0000
0001
0100
0001
0000
0010
0000
0100
1000
0100
0000
0010
0000
0001
1000
,
0001
0000
0100
0010
0100
0000
0010
0000
1000
0000
0100
0000
0001
0000
0100
0000
,
1000
0000
0010
0100
0010
0000
1000
0000
0100
0010
0100
0000
1000
0000
0001
0010
,
0001
0000
0100
0010
1000
0000
0001
0000
1000
0100
0000
0010
0001
0000
1000
0000
,
0001
0000
0100
0010
1000
0000
0100
0000
0010
0001
1000
0000
0100
0000
0010
0100
,
1000
0000
0001
0100
0010
0000
1000
0000
0100
0010
0100
0000
1000
0000
0001
0100
,
0010
0000
0010
0000
1000
0000
1000
0000
0001
0000
0001
0000
0100
0010
0100
0000
,
0000
0000
0100
0001
1000
0000
0100
0001
0000
0100
1000
0000
0002
0000
0000
0000
,
1003
0000
0000
0000
0010
0000
0100
0001
0100
0000
0001
0000
0000
0000
1001
0000
0000
0000
0000
0000
1000
0100
1000
0100
0010
0001
0010
0001
1000
0100
0010
0001
,
1000
0000
0000
0000
0001
0000
0010
0100
0010
0000
0100
0000
0000
0000
0110
0000
0000
0000
0000
0000
0001
0010
0001
0010
0100
1000
0100
1000
0001
0010
0100
1000
,
0001
0000
0000
0000
0000
0000
1000
0100
1000
0000
0001
0100
0001
0000
1000
0100
1000
0000
0001
0100
0001
0000
0100
0010
0000
1000
0010
0000
1000
0001
1000
0000
,
0001
0000
0000
0011
0000
0000
1100
0000
0000
1010
0000
0000
0101
0000
0000
0100
,
0010
0000
1010
0000
1000
0100
0000
0010
0001
0000
0100
0000
0100
0000
0020
0000
,
0030
0000
1001
0000
1010
1000
0001
0101
0000
0000
1010
1000
1010
1000
1001
1000
,
1001
0000
0000
0000
1100
0000
1000
0000
0001
0000
0000
0010
0000
0000
0011
0000
0000
0000
0010
0001
0010
0000
0001
0000
0011
0000
0001
0000
1001
0000
0001
0000
,
1001
0000
0000
0000
1100
0000
0100
0010
0000
0000
0011
0000
0000
0001
1000
0000
,
1010
0000
0000
0010
0100
0000
0101
0000
0000
0001
1000
0000
0100
0000
0110
0000
,
2002
0000
0000
0000
,
0000
0000
3003
0000
,
0002
0000
0000
0000
,
2003
0000
0000
0000
3020
2030
3200
0320
,
0032
0000
0000
0000
,
0203
0000
2300
3200
,
0302
1000
1000
1000
,
2003
0010
3020
0230
,
0302
1000
1000
1000
,
2003
3020
0032
0023
,
2030
0100
3200
0010
,
0320
0001
0032
1000
,
2003
0000
3020
0000
,
0230
0000
0302
0000
,
2003
0000
0000
0000
,
0000
0000
0000
0000
,
0000
0000
0000
0000
,
3000
0000
0000
0000
1000
0100
0010
0001
,
1000
0000
0010
0100
0001
0000
0010
0100
1000
0000
0001
1000
0000
0001
1000
0000
,
0001
0000
0100
0010
1000
0000
0100
0010
0001
0000
0010
0000
1000
0000
0010
0000
,
0001
0000
0100
0010
1000
0000
0010
0100
0001
0000
0010
0100
0000
0010
0100
0000
,
1000
0000
0001
0010
0100
0000
1000
0100
0010
0000
0001
0100
0010
1000
0100
0010
,
0001
0000
0100
0010
1000
0010
1000
0010
0100
0001
0100
0001
1000
0001
1000
0000
,
0100
1000
0100
0010
0001
0010
0100
0010
0001
1000
0010
1000
0001
0100
0001
0000
,
1000
0100
1000
0010
1000
0010
0100
0010
0100
0001
0100
0001
0010
0001
1000
0001
,
1000
0100
0000
0001
0100
0000
1000
0100
0010
0001
0000
0010
1000
0000
0010
0001
,
0010
0000
0000
0000
0100
1000
0010
1000
0100
0000
0010
0001
0000
0100
0010
0000
,
1000
0000
0000
0000
0001
0010
0001
0100
0001
0000
0010
0000
0100
0000
1000
0000
,
0001
0000
0000
0000
1000
0010
0100
0001
0010
0000
0100
1000
0000
0001
0100
0000
,
0010
0000
0000
0000
0100
0000
0001
0010
0100
0000
1000
0010
0100
0001
0010
0100
,
1000
0000
0000
0000
0001
0010
0001
0010
0100
1000
0010
1000
0100
0010
0001
0100
,
0010
1000
0001
0100
0010
1000
0100
1000
0010
0100
0001
1000
0100
0010
0001
0000
,
1000
0010
0100
0001
0000
0010
0100
0000
1000
0100
0010
0001
0000
0100
0010
0000
,
1000
0010
1000
0100
0000
0010
0001
0100
0001
0010
0100
1000
0000
0010
0100
0000
,
0000
0000
1001
0000
0000
0000
1000
0000
0001
0010
0100
0010
0001
0000
1000
0010
,
0100
0010
1000
0000
0001
0100
0010
0100
0001
0000
1000
0100
0010
0100
1000
0000
,
0001
0010
1000
0010
0001
0000
1000
0010
0001
0010
1000
0000
0001
0100
1000
0100
,
0001
0000
1000
0100
0001
0100
1000
0000
0001
0100
0010
1000
0100
0010
0001
2000
,
0000
3000
0000
0000
0000
0000
0000
0000
,
0000
0000
0000
0000
;
#NOTES:
     dance-double:
     :
     Easy:
     10:
     :
00000000
00000000
00000000
00000000
,
00000000
00000000
00000000
00000000
,
00000000
00000000
00000000
00000000
,
00000000
00000000
00000000
00000000
,
10000000
00000000
00010000
00000000
,
10000000
00010000
01000000
00000000
,
00001000
00000000
00010000
00000000
,
00001000
00010000
00000100
00000000
,
00002000
00000000
00000000
00003000
,
00000002
00000000
00000000
00000003
,
00000200
00000000
00000000
00000300
,
00000020
00000000
00000000
00000030
,
00001000
00000000
00000010
00000000
00010000
00001000
00010000
00000000
,
00001000
00000000
01000000
00000000
00010000
01000000
00010000
00000000
,
20000000
00000000
00000000
00000000
,
00020000
00000000
00000000
30030000
,
10000000
00000000
01000000
00000000
00100000
00010000
00100000
00000000
,
00001000
00000000
00010000
00000000
00000100
00010000
00000100
00000000
,
00010000
00000000
00001000
00000000
00010000
00000010
00010000
00000000
,
00000010
00000000
00001000
00000000
00000001
00001000
00000001
00000000
,
00000010
00000000
00000100
00000000
00001000
00000100
00001000
00000000
,
00000100
00000000
00010000
00000000
00001000
00010000
00001000
00000000
,
00100000
00000000
00010000
00000000
10000000
00010000
10000000
00000000
,
01000000
00000000
00000000
00100000
00000000
00000000
01000000
00000000
00100000
00000000
00000000
00000000
10010000
00000000
00000000
00000000
,
10000000
00000000
00100000
00000000
01000000
00010000
00100000
00000000
,
00001000
00010000
00000100
00001000
,
00000100
00000000
00000010
00000000
00000001
00001000
00000001
00000000
,
00000100
00001000
00000100
00000010
,
00001000
00000000
00000100
00000000
00010000
00001000
00100000
00000000
,
00010000
01000000
00010000
00100000
,
01000000
00000000
10000000
00000000
00100000
00000000
01000000
00010000
,
00000000
01000000
00001000
00000000
00010000
00001000
00010000
00000000
,
00002000
00003000
00020000
00030000
,
00000020
00000030
00000200
00000300
,
00000002
00000003
00002000
00003000
,
00000100
00000000
00000000
00010000
,
00000000
00000000
00001000
00010000
,
00002000
00003000
02000000
03000000
,
00020000
00030000
00200000
00300000
,
01000000
00000000
11000000
00000000
,
10000000
00000000
00010000
00000000
,
20000000
00000000
00000000
00000000
,
00000000
00000000
30000000
00000000
,
10000000
00000000
10000000
00000000
,
01000000
00000000
00010000
00000000
,
00001000
00000000
00001000
00000000
,
00000010
00000000
00000001
00000000
,
00002000
00000000
00000000
00000000
,
00000000
00000000
00000000
00003000
,
00000020
00000000
00000000
00000000
,
00000000
00000000
00000000
00000030
,
00020000
00000000
00000000
00030000
,
00002000
00000000
00000000
00003000
,
02000000
00000000
03020000
00000000
,
20030000
00000000
00000000
30000000
,
20020000
00000000
00000000
00000000
,
00000000
00000000
00000000
00000000
,
00000000
00000000
00000000
00000000
,
30030000
00000000
00000000
00000000
,
10000000
00000000
00100000
00000000
01000000
00010000
10000000
00000000
,
01000000
00000000
00100000
00000000
00010000
00100000
00001000
00000000
,
00010000
00000000
00000100
00000000
00001000
00000100
00000010
00000000
,
00000001
00000000
00000100
00000000
00000010
00001000
00000100
00000000
,
00001000
00000100
00010100
00010100
,
00010000
00001000
01001000
01001000
,
01000000
00010000
01000000
00000000
00100000
10000000
00100000
00000000
,
10000000
00000000
00000000
01000000
00000000
00000000
00100000
00000000
00001000
00000000
00000000
00010000
00000000
00000000
00000100
00000000
,
00001000
00000000
00001100
00000000
00000100
00001000
00000001
00000000
,
00000100
00000000
00000010
00000000
00001000
00000010
00010000
00000000
,
00001000
00000000
01000000
00000000
00010000
01000000
00100000
00000000
,
10000000
00000000
01000000
00000000
00100000
00010000
01000000
00000000
,
00010000
01000000
01001000
01001000
,
00001000
00010000
00010100
00010100
,
00000100
00000000
00000000
00001000
00000000
00000000
00000100
00000000
00000010
00000000
00000000
00000001
00000000
00000000
00000010
00000000
,
00000001
00000000
00000000
00000100
00000000
00000000
00000010
00000000
00010000
00000000
00000000
00001000
00000000
00000000
01000000
00000000
,
00000000
01010000
00000000
00010000
00100000
00000000
00010000
00100000
,
00000000
01000000
10000000
00000000
01000000
10000000
00000000
00100000
,
01000000
00000000
00100000
00010000
00000000
00001000
00010000
00000000
,
00001000
00010000
00000000
00000100
00001000
00000000
00000100
00000020
,
00000000
00000030
00000000
00000000
00000000
00000000
00000000
00000000
,
00000000
00000000
00000000
00000000
;
#NOTES:
     dance-double:
     :
     Medium:
     14:
     :
00000000
00000000
00000000
00000000
,
00000000
00000000
00000000
00000000
,
00000000
00000000
00000000
00000000
,
00000000
00000000
00000000
00000000
,
10000000
00000000
01000000
00000000
00100000
00010000
00100000
00000000
,
00001000
00000000
00010000
00000000
00000100
00001000
00000100
00000000
,
00000010
00000000
00000001
00000000
00001000
00000001
00001000
00000000
,
00000001
00000000
00000100
00000000
00000010
00001000
00000010
00000000
,
00002000
00000000
00003100
00000000
,
00000200
00000000
00010300
00000000
,
00020000
00000000
00031000
00000000
,
00002000
00000000
01003000
00000000
,
00010000
01000000
00010000
00000000
10000000
00100000
10000000
00000000
,
01000000
10000000
01000000
00000000
00100000
00010000
00100000
00001000
,
00020000
00000000
00000000
00030000
,
00001000
00000000
00010000
00001000
00000000
00010000
00001000
00000000
,
00010000
00000010
00001000
00000010
00001000
00000100
00000010
00000001
,
00000100
00000010
00001000
00000010
00001000
00000100
00001000
00000000
,
00000100
00010000
00001000
00010000
01000000
00010000
00001000
00010000
,
00001000
00100000
00010000
01000000
00010000
10000000
00010000
00000000
,
10000000
00100000
01000000
00100000
10000000
01000000
00100000
00010000
,
00100000
01000000
00100000
00010000
00100000
00001000
00010000
00000000
,
00001000
00010000
00000010
00001000
00000100
00001000
00000100
00010000
,
00001000
00000000
00000000
00010000
00000000
00000000
00001000
00000000
00000010
00000000
00000001
00000000
00001000
00000000
00000000
00000000
,
00000001
00000010
00000100
00001000
00000010
00000100
00001000
00010000
,
00001000
00000100
00000010
00010000
00001000
00000000
00011000
00000000
,
00010000
00001000
00100000
01000000
00010000
00001000
00010000
01000000
,
00100000
00010000
01000000
00100000
10000000
00000000
10010000
00000000
,
00010000
01000000
10000000
01000000
00010000
00100000
01000000
00010000
,
00001000
00000010
00000100
00001000
00000100
00000001
00000100
00000000
,
00000010
00000001
00000100
00000010
00001000
00000100
00010000
00001000
,
00000000
00001000
00100000
00010000
01000000
00100000
10000000
00000000
,
00020000
00000000
00000000
00000000
10030000
01000000
00000000
01000000
00000000
00100000
00010000
00100000
00001000
00100000
00001000
00000000
,
00020000
00000000
00000000
00000000
00030100
00001000
00000000
00001000
00000000
00000100
00000010
00000100
00000010
00000001
00000010
00000000
,
00000002
00002003
00003200
00020300
00032000
02003000
03020000
20030000
,
30100000
00000000
00000000
00100000
00000000
00000000
10100000
00000000
00000000
10000000
00000000
00000000
10000000
00000000
00000000
10010000
,
00000000
00000000
00010000
00000000
00000000
01010000
00000000
00000000
01000000
00000000
00001000
00000000
00010000
00000000
00002000
00000000
,
00003000
00000000
00011000
00000000
00010000
00001000
00000010
00000001
00000000
00000010
00000100
00000010
00000100
00000010
00000100
00000000
,
00001000
00000000
00000000
00000000
00000100
00000000
00000000
00000000
00010000
00000000
00000000
00001000
00000000
00000000
00100000
00000000
00000000
00000000
00010000
00000000
00100000
00000000
00010000
00000000
10000000
00000000
00100000
00000000
10000000
00000000
00000000
00000000
,
00010000
00000000
00000000
00000000
10000000
00000000
00000000
10100000
00000000
00000000
00100000
00000000
00000000
00010000
00000000
00000000
,
00011000
00000000
00000000
00001000
00000000
00000000
00000010
00000000
00000000
00000011
00000000
00000000
00000001
00000000
00001000
00000000
,
00000002
00000000
00000000
00000000
,
00000000
00000000
00000003
00000000
,
00002000
00000000
00000000
00000000
,
00003002
00000000
00000000
00000000
00000103
00001000
00010000
00000000
,
00200000
00000000
00000000
00000000
,
20300000
00000000
30020000
02030000
,
03100000
10000000
00010000
00100000
,
00001000
00010000
00000100
00000000
,
00000010
00000001
00001000
00000100
,
00010000
00001000
01000000
00000000
,
00020000
00000000
00230000
00000000
,
00302000
00000000
00023000
00000000
,
00030200
00000000
00000000
00000000
,
00020300
00000000
00000000
00000000
,
00032000
00000000
00000000
00000000
,
00000000
00000000
00000000
00000000
,
00000000
00000000
00000000
00000000
,
00003000
00000000
00000000
00000000
00001000
00010000
00001000
00000000
,
00010000
00001000
01000000
00010000
00100000
00010000
01000000
00000000
,
00100000
00010000
00001000
00010000
00100000
01000000
00010000
00000000
,
00100000
01000000
00010000
00001000
00010000
00000100
00001000
00000000
,
00000010
00000100
00001000
00000100
00000010
00001000
00000100
00000000
,
00000110
00000000
00000010
00001000
00010000
01000000
00100000
00001000
,
00010000
00100000
00010000
00001000
00000100
00000010
00010000
00001000
,
00000010
00000000
00000000
00001000
00000000
00000000
00010000
00000000
01000000
00000000
00000000
00010000
00000000
00000000
00001000
00000000
,
00010000
00001000
00000000
00100000
00001000
00000000
00010000
00000000
00001000
00000000
00010000
00000010
00000000
00010000
00001000
00000000
,
00010000
00000000
00000010
00001000
00000100
00001000
00000010
00000000
,
00000100
00001000
00010000
00001000
00000100
00000010
00001000
00000000
,
00000100
00000010
00001000
00010000
00001000
00100000
00010000
00000000
,
01000000
00100000
00010000
00100000
01000000
00010000
00100000
00000000
,
01100000
00000000
01000000
00010000
00001000
00000010
00000100
00010000
,
00001000
00000100
00001000
00010000
00100000
01000000
00001000
00010000
,
01000000
00000000
00000000
00010000
00000000
00000000
00001000
00000000
00000010
00000000
00000000
00001000
00000000
00000000
00010000
00000000
,
00001000
00000000
00010000
00000100
00000000
00010000
00001000
00000000
00010000
00000000
00001000
01000000
00000000
00001000
00010000
00000000
,
00000000
00011000
00000000
00001000
00010000
00100000
01000000
00100000
,
00010000
00001000
00000010
00000100
00000010
00001000
00010000
00000000
,
00001000
00010000
01000000
00100000
01000000
00010000
00001000
00000100
,
00000010
00000100
00001000
00010000
00100000
01000000
00001000
00020000
,
00000000
00030000
00000000
00000000
00000000
00000000
00000000
00000000
,
00000000
00000000
00000000
00000000
;
#NOTES:
     dance-double:
     :
     Hard:
     18:
     :
00000000
00000000
00000000
00000000
,
00000000
00000000
00000000
00000000
,
00000000
00000000
00000000
00000000
,
00000000
00000000
00000000
00000000
,
00002000
00000000
00000000
00000000
00000000
00000000
00000000
00000000
00000000
00000000
00000000
00000000
00003000
00000000
00010000
00001000
,
02000000
00000000
00000000
00000000
03010000
00100000
01000000
10000000
,
00200000
00000000
01300000
00010000
00100000
00001000
00010000
00000100
,
00002000
00000000
00000000
00000000
00000000
00000000
00000000
00000000
00000000
00000000
00000000
00000000
00000000
00000000
00000000
00000000
00003001
00000000
00000000
00000000
00001001
00000000
00000000
00000000
00001000
00000000
00000000
00001000
00000100
00000000
00000010
00000000
,
00000001
00000010
00000001
00000010
00000001
00000100
00000001
00000100
,
00000010
00001000
00000010
00001000
00000010
00010000
00000010
00010000
,
00001000
00010000
00001000
00010000
00001000
01000000
00001000
01000000
,
00010000
01000000
00010000
01000000
00100000
10000000
00100000
00000000
,
10000000
00100000
10000000
00000000
01000000
00000000
00100000
00000000
00010000
00100000
00010000
00000000
00100000
00000000
00001000
00000000
,
00010000
00001000
00010000
00000000
00000100
00000000
00001000
00000000
00000010
00001000
00000010
00000000
00000100
00000000
00000001
00000000
,
00002000
00000000
00000000
00003000
,
00000001
00000010
00000100
00001000
00000000
00000100
00001001
00000000
,
00000001
00000000
00000100
00000010
00001000
00000000
00000100
00000010
00000001
00000000
00000010
00000100
00001000
00000000
00000010
00000100
,
00000001
00000000
00000100
00000000
00001000
00000000
00010000
00000000
00100000
00000000
10000000
00000000
00100000
01000000
00010000
00000000
,
10000000
00000000
01000000
00100000
00010000
00000000
01000000
00100000
10000000
00000000
00100000
01000000
00010000
00000000
00100000
01000000
,
10000000
00000000
01000000
00000000
00010000
00000000
00001000
00000000
00000010
00000001
00000000
00001000
00000001
00000000
00001000
00000000
,
00000001
00000000
00000010
00000100
00001000
00000000
00000010
00000100
00000001
00000000
00000100
00000010
00001000
00000000
00000100
00000010
,
00000001
00000000
00000010
00000000
00001000
00000000
00010000
00000000
01000000
00000000
10000000
00000000
01000000
00100000
00010000
00000000
,
10000000
00000000
00100000
01000000
00010000
00000000
00100000
01000000
10000000
00000000
01000000
00100000
00010000
00000000
01000000
00100000
,
10000000
00100000
00000000
01000000
00100000
00000000
00010000
00001000
00010000
00000000
00001000
00010000
00000010
00001000
00000010
00000000
,
00001000
00000000
00000100
00000010
00000001
00000000
00000010
00000000
00000100
00010000
00001000
00000000
00010000
00000000
00001000
01000000
,
00010000
00000000
00100000
00010000
00100000
00000000
01000000
00000000
00010000
00000000
01000000
00000000
10000000
00010000
10000000
00000000
,
00010000
00000000
01000000
00100000
10000000
00000000
00100000
00000000
01000000
00001000
00010000
00000000
00001000
00000000
00010000
00000100
,
00001000
00000000
00000010
00001000
00000010
00000000
00000100
00000000
00000001
00000010
00000000
00000100
00001000
00000001
00001000
00000000
,
00000001
00000000
00000100
00000010
00000100
00000000
00001000
00010000
00001000
00000000
01000000
00100000
01000000
00000000
00010000
00000000
,
10000000
00000000
01000000
00100000
01000000
00000000
00010000
00001000
00010000
00000000
00000100
00000010
00000100
00000000
00001000
00000000
,
00000001
00000000
00000001
00000000
00001000
00000000
00001000
00000000
00000100
00000000
00000100
00000000
00010000
00001000
00010000
00000000
,
00000000
00000000
00010000
00000000
00011000
00000000
00001000
01000000
00000000
00010000
01000000
00000000
00200000
00000000
00000000
00000000
,
10300000
00000000
00000000
00000000
01000000
00000000
00100000
00010000
00100000
00000000
00001000
00000000
00000000
00000000
00011000
00000000
00000000
00000000
00000000
00000000
00001000
00010000
00001000
00010000
00000010
00001000
00000010
00001000
00000010
00000100
00000010
00000100
,
00000010
00000000
00000000
00000000
00001000
00000000
00000100
00000010
00000100
00000000
00000010
00000000
00000000
00000000
00000110
00000000
00000000
00000000
00000000
00000000
00000001
00000010
00000001
00000010
00000100
00001000
00000100
00001000
00000100
00010000
00000100
00010000
,
00001000
00000000
00000000
00000000
00000000
00000000
00010000
00001000
00100000
00000000
00010000
01000000
00001000
00000000
00010000
00000010
00001000
00000000
00000100
00010000
00001000
00000000
00010000
00001000
00000000
00010000
00001000
00000000
00010000
00000000
00000000
00000000
,
00011000
00000000
00000000
01001000
00000000
00000000
01010000
00000000
00000000
10010000
00000000
00000000
00110000
00000000
00000000
00100000
,
00001000
00000000
00011000
00000000
00010000
00000010
00000000
00001000
00000010
00000000
00000100
00000000
00000001
00000000
00002000
00000000
,
00003000
00000000
00001001
00000000
00001100
00000100
00010000
00011000
00000000
00000000
00101000
00001000
01001000
00001000
00101000
00001000
,
00011000
00000000
00000000
00000000
01001000
00000000
01000000
00000000
01010000
00000000
00000000
00010000
00000000
00000000
10010000
00000000
00000000
00000000
10000000
00100000
10000000
00000000
00010000
00000000
01010000
00000000
01000000
00000000
01001000
00000000
00001000
00000000
,
00011000
00000000
00000000
00000000
00011000
00000000
00010000
00000010
00000000
00000000
00001010
00000000
00000000
00001000
00000001
00000000
,
00000011
00000000
00000000
00000010
00000100
00000000
00001100
00000000
00000000
00001000
00000100
00000000
00010000
00000000
00001000
00000000
,
00022000
00000000
00000000
00000000
,
00000000
00000000
00033000
00000000
,
00002000
00000000
00000000
00000000
,
00023000
00000000
00000000
00000000
02030000
23000000
30200000
00320000
,
00032000
00000000
00000000
00000000
,
00003200
00000000
00000302
00002003
,
00003002
00000010
00001000
00000010
,
00002003
00000100
00003200
00020300
,
00032000
00100000
01000000
00100000
,
00203000
00320000
02030000
03200000
,
20300000
01000000
32000000
00100000
,
03200000
00010000
00320000
00001000
,
00032000
00000000
00003200
00000000
,
00000320
00000000
00000032
00000000
,
00002003
00000000
00000000
00000000
,
00000000
00000000
00000000
00000000
,
00000000
00000000
00000000
00000000
,
00003000
00000000
00000000
00000000
00001000
00000100
00000010
00000001
,
00001000
00000000
00000010
00000100
00000010
00000000
00001000
00000010
00001000
00000000
00000100
00010000
00000000
00001000
00010000
00000000
,
00001000
00000000
00100000
00010000
00100000
00000000
00010000
01000000
00010000
00000000
00100000
00000000
10000000
00000000
00100000
00000000
,
00010000
00000000
01000000
00100000
01000000
00000000
00100000
00010000
00100000
00000000
00010000
00001000
00000000
00010000
00001000
00000000
,
00000100
00000000
00000010
00001000
00000010
00000000
00000100
00000001
00000100
00000000
00000001
00001000
00000100
00001000
00000100
00010000
,
00001000
00000000
00100000
00010000
00100000
01000000
00100000
00010000
01000000
00000000
00100000
00010000
00001000
00010000
00000100
00010000
,
00001000
00000000
00000010
00000100
00001000
00000100
00000010
00000100
00001000
00000000
00000010
00010000
00001000
00010000
00001000
00000000
,
00010000
00001000
01000000
00010000
00000000
01000000
00100000
00010000
00100000
01000000
00010000
00100000
00000000
00001000
00010000
00000100
,
00001000
00000010
00000000
00000100
00001000
00000000
00000100
00000010
00001000
00000100
00000000
00000010
00001000
00000000
00010000
00001000
,
00010000
00000000
00000000
00000000
00001000
01000000
00010000
01000000
00100000
00000000
10000000
01000000
00000000
00100000
00010000
00000000
,
10000000
00000000
00000000
00000000
01000000
00100000
00010000
00100000
00001000
00000000
00010000
00000000
00000100
00000000
00001000
00000000
,
00000010
00000000
00000000
00000000
00000100
00000001
00001000
00000001
00000010
00000000
00000100
00001000
00000000
00000100
00000001
00000000
,
00000100
00000000
00000000
00000000
00001000
00000000
00000001
00000100
00001000
00000000
00010000
00000000
00100000
01000000
00010000
01000000
,
00001000
00000000
00000000
00000000
00010000
01000000
00100000
00000000
00010000
01000000
00100000
00000000
00010000
00001000
00000100
00000000
,
00000010
00001000
00000100
00000000
00000010
00001000
00010000
00000000
00001000
00000100
00001000
00000000
00010000
00100000
00010000
00000000
,
00001000
00010000
01000000
00100000
00000000
00001000
00010000
00000000
00001000
00000100
00000010
00010000
00000000
00001000
00010000
00000000
,
00001000
00100000
00010000
01000000
00100000
10000000
00100000
01000000
00010000
00100000
00001000
00010000
00000100
00001000
00000100
00000000
,
00000000
00000000
00000110
00000000
00000000
00000000
00000001
00000000
00000100
00001000
00010000
00000000
00100000
00000000
00010000
00001000
,
00010000
00000000
01000000
00000000
00010000
00001000
00000010
00000000
00001000
00000000
00010000
01000000
10000000
00000000
00010000
00000000
,
10000000
01000000
00100000
01000000
00010000
00000000
00001000
00000010
00000100
00000010
00000001
00000000
00000001
00000100
00000010
00000100
,
00001000
00000000
00010000
00100000
01000000
00100000
10000000
00000000
00010000
10000000
00100000
01000000
00010000
00100000
00001000
00020000
,
00000000
00030000
00000000
00000000
00000000
00000000
00000000
00000000
,
00000000
00000000
00000000
00000000
;
