
//----- song ID: fole -----//
#TITLE:Four Leaves;
#ARTIST:Endorfin.;
#BANNER:Four Leaves.png;
#BACKGROUND:Four Leaves-bg.png;
#CDTITLE:./CDTitles/SDVX IV HEAVENLY HAVEN.png;
#MUSIC:Four Leaves.ogg;
#SAMPLESTART:53.863;
#SAMPLELENGTH:15;
#BPMS:0=181;
#BGSTAGE:3;
#NOTES:
     dance-single:
     :
     Beginner:
     3:
     :
0000
0000
0000
0000
,
0000
0000
0000
0000
,
0000
0000
0000
0000
,
0000
0000
0000
0000
,
0000
0000
0000
0000
,
0000
0000
0000
0000
,
0000
0000
0000
0000
,
0000
0000
0000
0000
,
1000
0000
0000
0001
,
0000
0000
1000
0000
,
0000
0002
0000
0000
,
0000
0000
0000
0000
,
0000
0000
0000
0003
,
2000
0000
0000
0000
,
0000
0000
0000
3000
,
0001
0000
0001
0000
,
1000
0000
1000
0000
,
0020
0000
0000
0030
,
0200
0000
0000
0300
,
0010
0000
0000
0000
,
0100
0000
0000
0000
,
0010
0000
0010
0000
,
0100
0000
0100
0000
,
0002
0000
0000
0003
,
2000
0000
0000
3000
,
0001
0000
0001
0000
,
1000
0000
1000
0000
,
0200
0000
0000
0000
,
0000
0000
0000
0300
,
0020
0000
0000
0000
,
0000
0000
0000
0030
,
0002
0000
0000
0003
,
2000
0000
0000
3000
,
0010
0000
0010
0000
,
0200
0000
0000
0300
,
0001
0000
0001
0000
,
0001
0000
0001
0000
,
1000
0000
1000
0000
,
1000
0000
1000
0000
,
2002
0000
0000
0000
,
0000
3003
0000
0000
,
0001
0000
0001
0000
,
0010
0000
0010
0000
,
0100
0000
0100
0000
,
1000
0000
1000
0000
,
1001
0000
0000
0000
,
1001
0000
0000
0000
,
0010
0000
0010
0000
,
0200
0000
0300
0000
,
1001
0000
0000
0000
,
1001
0000
0000
0000
,
1000
0000
1000
0000
,
0001
0000
0001
0000
,
0020
0000
0000
0030
,
0200
0000
0000
0300
,
2000
0000
0000
0000
,
0000
0000
0000
3000
,
0002
0000
0000
0000
,
0000
0000
0000
0003
,
0010
0000
0010
0000
,
0010
0000
0010
0000
,
0100
0000
0100
0000
,
0100
0000
0000
0000
,
1001
0000
1000
0000
,
0001
0000
1000
0000
,
1001
0000
0001
0000
,
1000
0000
0001
0000
,
0020
0000
0000
0000
,
0000
0000
0000
0030
,
0200
0000
0000
0000
,
0000
0000
0000
0300
,
2000
0000
0000
3000
,
0002
0000
0000
0003
,
1001
0000
0000
1001
,
0000
0000
0000
0000
,
1000
0000
1000
0000
,
0001
0000
0001
0000
,
2000
0000
0000
3000
,
0002
0000
0000
0003
,
0010
0000
0020
0000
,
0000
0000
0000
0030
,
0100
0000
0200
0000
,
0000
0300
0000
0000
,
2002
0000
0000
0000
,
0000
0000
0000
0000
,
0000
0000
0000
0000
,
3003
0000
1001
0000
,
0000
0000
0000
0000
;
#NOTES:
     dance-single:
     :
     Easy:
     7:
     :
0000
0000
0000
0000
,
0000
0000
0000
0000
,
0000
0000
0000
0000
,
0000
0000
0000
0000
,
0000
0000
0000
0000
,
0000
0000
0000
0000
,
0000
0000
0000
0000
,
0000
0000
0000
0000
,
1000
0000
0000
0001
0000
0000
0220
0000
,
0000
0000
0000
0000
,
0000
0000
0330
0000
0000
0000
0000
2000
,
0000
0000
0000
0000
,
0000
0000
0000
0000
,
3002
0000
0000
0023
,
0000
0000
0032
0000
,
2003
0000
0000
0000
,
3002
0000
0203
0000
,
0320
0000
0000
0000
,
2030
0000
0000
0000
3002
0000
0000
1003
,
0000
1001
0001
0100
,
0001
0100
0010
1000
,
0001
1001
1000
0100
,
0010
0001
1000
1000
,
0001
1000
0000
1000
,
0010
0100
0000
0100
,
0001
0010
0000
0010
,
0001
0001
1000
0001
,
1001
1001
0010
1001
,
1001
0100
0000
0000
,
0110
0110
0001
0110
,
0110
1000
0000
0000
,
2001
0000
0010
3000
,
1002
0000
0100
0003
,
0010
0000
0000
0100
0000
0000
1001
0000
,
0000
0000
1000
0001
,
1000
0010
0100
0001
,
0010
0100
1000
0010
,
1000
0100
0010
0001
,
0100
0100
0010
0010
,
1001
0000
0000
0110
0000
0000
2002
0000
,
0000
0000
3003
0000
,
0001
1000
0010
0100
,
0001
1000
0100
0010
,
0001
1000
0000
1000
,
0001
0000
0001
0100
,
1000
0100
0001
0010
,
0100
0001
0100
1000
,
1001
0000
0000
0110
0000
0000
1001
0000
,
0000
0000
0001
0010
,
0110
0100
1000
0100
,
0110
0010
0001
0100
,
0110
0000
0000
1001
0000
0000
0000
1001
,
0000
0110
0000
0001
,
0010
0100
1000
0100
,
0001
1000
0010
0100
,
0220
0000
0000
0330
,
1000
1100
0001
0011
,
2200
0000
0000
3300
,
1000
1001
0001
1001
,
2010
0000
3001
0000
,
0102
0000
1003
0000
,
0001
0000
0001
0000
1000
0100
1000
0000
,
0001
0010
0001
0000
1000
0000
1000
0000
,
0010
0010
0010
0010
,
0100
0100
0100
0100
,
0001
0000
0001
0000
1000
0000
0000
0002
,
0000
0000
0000
0000
0003
0000
0000
2000
,
0000
0000
0000
0000
,
0000
0000
0000
0000
,
3200
0000
0000
0000
,
0302
0000
0000
0000
,
0203
0000
0000
0000
,
2300
0000
0000
3000
,
1001
0000
0000
0110
0000
0000
1001
0000
,
0000
0000
0000
0000
1000
0001
1000
0000
,
0010
0100
0010
1000
,
0001
1000
0010
0100
,
0010
1000
0010
0001
,
0010
1000
0100
0010
,
0001
0101
0100
0110
,
0010
0100
0010
0000
0010
1000
0010
0000
,
1010
0101
0011
1100
,
1000
0000
0001
0000
,
2002
0000
0000
0000
,
0000
0000
0000
0000
,
0000
0000
0000
0000
,
3003
0000
1000
0001
,
0000
0000
0000
0000
;
#NOTES:
     dance-single:
     :
     Medium:
     9:
     :
0000
0000
0000
0000
,
0000
0000
0000
0000
,
0000
0000
0000
0000
,
0000
0000
0000
0000
,
0000
0000
0000
0000
,
0000
0000
0000
0000
,
0000
0000
0000
0000
,
0000
0000
0000
0000
,
1000
0000
0010
0100
0000
0200
0020
0000
,
0000
0000
0000
0000
,
0000
0330
0000
0000
,
0000
0000
0000
0010
1000
0000
0010
1000
,
0000
0000
1000
0100
0000
0010
0000
0002
,
0000
0000
0000
0203
0000
0000
0000
0320
,
0000
0000
0000
1030
0001
0000
0001
0020
,
0000
0000
0000
0000
0030
0000
0001
0100
,
0000
0000
0001
0010
0000
0000
0100
2000
,
0000
0000
0000
0000
0000
3001
0000
0100
,
0002
0000
0000
1000
1003
0000
0000
1100
,
0000
0000
0000
1000
0010
0000
0100
0001
,
0000
0000
0010
0100
0000
0100
0000
0020
,
0000
0000
0001
0001
0000
0000
0100
0100
,
0030
0000
0000
1000
0001
0000
0001
2000
,
0000
0000
0000
0000
3000
0000
0001
0010
,
0000
0000
0100
1000
0000
0000
0001
0200
,
0000
0000
0000
0000
0000
0000
0310
1000
,
0000
0101
0000
1100
0000
0101
0000
2002
,
0000
0000
0000
0000
0000
0000
0000
3003
,
0000
0000
0000
1000
0100
0000
0001
0200
,
0000
0000
0000
0000
0000
0000
0000
0300
,
0000
0000
0000
1000
0010
0000
0001
0020
,
0000
0000
0000
0030
0000
0000
0100
0100
,
0000
0000
0010
0010
0100
0000
0001
0000
,
0011
0000
0000
1100
0000
0000
2002
0000
,
0000
0000
3003
0000
0001
0100
0000
0001
,
0000
0000
0000
0000
1000
0100
1000
0001
,
0000
0010
0000
0001
0000
1000
0000
0000
,
0220
0000
0000
0000
,
0330
0000
0000
0001
0002
0000
1000
2000
,
0000
0000
0000
3003
,
0000
0000
0000
0000
0000
1010
0000
0101
,
0000
0001
0100
0001
0100
0010
1000
0010
,
0000
1010
0000
0001
0000
0011
0000
2000
,
0000
0000
3001
0001
0000
0010
0000
0100
,
0000
0000
0000
0100
0010
0001
0000
0010
,
0000
0001
1000
0001
1000
0010
1000
0002
,
0000
1000
0100
1003
,
1001
0000
0000
0110
0000
0000
1000
0001
,
0000
0000
0000
0000
0000
0000
0001
0000
0010
0000
0000
0001
0000
0000
1000
0000
,
0010
0000
0100
0001
0000
1000
0000
0020
,
0000
1000
0100
1030
,
1010
0000
0001
0001
0000
0010
0000
0010
,
0000
0100
0100
0000
0000
0000
1000
0000
,
0100
0000
0010
0010
0000
0000
0001
0001
,
1000
0010
1010
0101
,
0000
0000
0100
0000
0001
0000
0100
0000
0010
0000
0000
1000
0000
0000
0001
0000
,
0000
0100
0000
0010
0000
1000
0000
1001
,
0000
0000
1000
0000
0100
0000
1000
0000
0100
0000
0000
0010
0000
0000
0001
0000
,
0000
1000
0000
0010
0000
0110
0000
0000
,
1001
0000
1000
0010
0000
0010
1000
0001
,
0000
0001
0010
0001
1000
0100
0010
0000
,
0001
0000
0000
0000
1000
0000
0000
0000
0010
0000
0000
0100
0000
0000
0110
0000
,
0000
0010
1000
0010
0100
0001
0100
0000
,
0001
0000
1000
1000
0100
0000
0001
0001
,
0100
0000
1000
0000
0001
0000
0100
0010
,
0100
0000
0001
0001
0000
1000
0000
0002
,
0000
0000
0000
0000
0000
0000
0000
2003
,
0000
0000
0000
0000
,
0000
0000
0000
0000
,
3200
0000
0000
0000
,
0320
0000
0000
0000
,
0032
0000
0000
0000
,
1003
0001
0100
0010
,
0110
0000
0000
1001
0000
0000
1000
0001
,
0000
0000
0000
0000
0000
0000
0001
0000
0100
0000
0000
0001
0000
0000
0100
0000
,
0010
0000
1000
0100
0000
0010
0000
0002
,
0000
1000
0100
1000
,
0023
0000
0000
0030
0000
0100
1000
0200
,
0000
0000
0300
1000
,
0001
0000
0100
0010
0100
0000
0010
1000
,
0010
0000
1000
0100
1000
0100
0010
0000
,
0001
0000
1000
0100
1000
0000
0001
0010
,
0001
0000
0100
0010
,
2002
0000
0000
0000
,
0000
0000
0000
0000
,
0000
0000
0000
0000
,
3003
0000
0000
0000
1000
1000
0001
0001
,
0000
0000
0000
0000
;
#NOTES:
     dance-single:
     :
     Hard:
     13:
     :
0000
0000
0000
0000
,
0000
0000
0000
0000
,
0000
0000
0000
0000
,
0000
0000
0000
0000
,
0000
0000
0000
0000
,
0000
0000
0000
0000
,
0000
0000
0000
0000
,
0000
0000
0000
0000
,
1000
0000
0001
0011
0000
1000
1100
0000
,
0000
1000
0100
0010
0100
0001
0100
0001
,
0100
0010
0100
2000
0000
0000
0000
3002
,
0000
0000
0000
0013
0010
0000
0100
1000
,
0000
0000
0010
0100
0000
0001
0000
2000
,
0000
0000
3001
0002
0000
0000
0103
0200
,
0000
0000
0000
0310
0010
0000
1000
2000
,
0000
0000
0000
0000
3000
0000
0001
0100
,
1000
0000
1000
0100
0001
0000
0010
0002
,
0100
0000
0000
0000
0000
0013
0100
0100
,
1000
0000
1000
0010
0010
0001
1000
0100
,
0000
0010
0100
0000
1000
0100
0001
0100
,
0000
0100
0010
0000
0010
0010
1000
0000
,
1010
0000
0110
0000
0010
0010
1000
0001
,
0000
0001
1000
0000
0010
0010
1010
0000
,
0110
0000
0011
0000
0001
0010
1000
0000
,
1010
0000
1100
0000
1000
0100
0001
0000
,
0101
0000
0110
0000
0010
0001
0100
0000
,
0010
1000
0100
0000
0010
0100
0100
0100
,
1001
1001
0101
0110
,
0110
0000
1001
0001
0000
1000
1000
0000
,
1010
1010
0001
0101
,
0101
0000
0100
0001
1000
0001
0010
0000
,
0011
0000
0000
0010
0100
0000
0000
0100
,
0000
0100
0000
1000
0100
1000
0100
0000
,
1010
0000
0000
0110
0000
0000
0101
0000
,
0000
0001
0100
0000
0010
0010
1000
0000
,
0010
1000
0100
1000
0010
0100
0001
0010
,
0001
0100
0010
1000
0100
1000
0010
0000
,
1000
0100
0001
0100
1000
0001
0010
1000
,
0010
0001
1000
0100
0001
0100
1000
0000
,
1100
0000
0000
0011
0000
0000
1001
0000
,
0000
0000
0000
0000
0000
0000
0000
1001
,
0000
1000
0100
0000
0001
0001
0100
1000
,
0000
0010
0100
0000
0001
0001
0010
0010
,
0001
0010
0001
0000
1000
1000
0100
0001
,
0000
0100
0010
0000
0010
0010
0100
0000
,
1000
0001
0010
0000
0100
1000
0001
0000
,
0001
1000
0010
0010
0100
0100
1000
0000
,
1100
0000
0000
0110
0000
0000
0100
0001
,
0000
0000
1000
0000
0010
0000
0000
0000
1000
0000
0001
0100
0001
0000
0100
0000
,
0001
1000
0001
0001
0010
0010
0100
1000
,
0000
1000
0001
0000
0100
0100
0010
0010
,
0001
0000
0010
1000
0000
0100
0001
0100
,
0000
0010
1000
0000
0010
0100
0110
0000
,
1010
0110
0011
1100
,
0110
0101
0110
1001
,
1000
0001
0010
0100
0010
0001
1000
0100
,
0000
0010
0100
0000
1000
1000
0001
0000
,
0001
1000
0100
1000
0001
1000
0010
0100
,
0000
0100
0001
0000
0010
0010
0100
0000
,
0110
0000
0011
0000
0001
0010
1000
0010
,
0000
0010
0100
0000
0100
1000
0001
1000
,
0100
0100
1000
1000
0001
0001
0010
0100
,
0000
0000
1000
0000
0010
0000
0000
0000
0010
0100
0010
0000
0100
0000
0001
0000
,
0010
0001
0010
0100
0010
1000
0010
0100
,
0010
0010
0001
0001
0000
1000
1000
1000
,
1010
0000
0110
0000
0100
0001
1000
0001
,
0010
0100
1000
0010
0100
0001
0010
0100
,
0000
0010
0100
0000
1000
0100
0000
1000
,
0100
0000
0010
0001
0000
0010
0001
0000
,
1000
0001
0000
1000
0001
0000
1000
0010
,
0000
1000
0010
1000
0010
0100
0001
0000
,
2100
0001
0000
3010
,
0102
1000
0000
0013
,
1001
0000
0000
0110
0000
0000
0001
1000
,
0000
0000
1000
0000
0001
0000
1000
0000
0100
0000
1000
0100
1000
0000
0001
0000
,
0010
0000
0100
0010
0001
0010
0100
0010
,
0000
0010
0001
0000
1000
1000
0001
0000
,
1001
0000
0001
0100
0000
1000
0100
0001
,
0000
0010
1000
0000
0010
0010
0100
0100
,
0110
1001
0101
0011
,
1100
0000
0001
0001
0000
0010
0110
0000
,
1001
1001
1100
0101
,
1010
0101
1001
0001
,
2010
0000
0001
0000
0100
0000
0001
0001
,
0000
0010
0000
0001
0000
0100
0000
3002
,
0100
0000
1000
0000
0010
0000
1000
1000
,
0000
0100
0000
1003
0010
0010
0010
0010
,
0000
0000
0000
0000
;
#NOTES:
     dance-single:
     :
     Challenge:
     15:
     :
0000
0000
0000
0000
,
0000
0000
0000
0000
,
0000
0000
0000
0000
,
0000
0000
0000
0000
,
0000
0000
0000
0000
,
0000
0000
0000
0000
,
0000
0000
0000
0000
,
0000
0000
0000
0000
,
1000
0000
1000
0000
1000
0000
1001
0000
0000
0000
1000
0001
2000
0000
0000
0000
,
0000
0100
0100
3100
0010
0010
0010
0001
,
0001
0000
0001
0000
1000
0000
0001
1000
0001
1000
0001
1000
0001
1000
0002
0000
,
0000
0000
0000
0000
,
0000
0000
0003
0000
,
0201
0000
0000
0320
0000
0000
2030
0000
,
0000
0000
3020
0030
,
1200
0000
0000
0320
0000
0000
0032
0000
,
0000
0000
0023
0030
,
0210
0000
0000
0000
0320
0000
0000
2030
,
0000
0000
0000
0000
3010
0000
0000
1001
,
0000
1000
1001
0000
1000
0100
1100
0100
,
0000
0010
0011
0000
0010
0100
0110
0100
,
1100
0000
1001
0000
1000
0010
1010
0010
,
0000
0100
0101
0000
0100
0010
0110
0010
,
1010
0000
1001
0000
0001
0010
0011
0010
,
0110
0000
1001
0000
1000
0010
1010
0010
,
0110
0000
1001
0000
0001
0010
0011
0010
,
0000
0000
0100
0000
0110
0000
0000
0000
1001
0000
1000
0001
1000
0001
1000
0001
,
2000
0000
3010
0100
0101
0000
2001
0000
,
3100
0000
0010
0000
0001
0000
1000
0000
0000
0000
0001
1000
0001
0000
0000
0000
,
1002
0000
0013
0100
1100
0000
1002
0000
,
0103
0000
0010
0000
1000
0000
0001
0000
0000
0000
1000
0001
1000
0000
0000
0000
,
1001
0000
0000
1000
0200
0000
0010
0000
,
0001
0000
0000
0000
0010
0000
0000
0000
1300
0000
0000
0000
0001
0100
0010
1000
,
0001
0000
0000
0000
0000
0000
1001
0000
0000
0000
0001
0100
0010
0000
0000
0000
,
0000
0000
1000
0000
1001
0000
0000
0000
1000
0000
1000
0100
0010
0000
0000
0000
,
0001
0010
0001
0010
0100
1000
0100
1000
,
0001
0100
0001
0100
0010
1000
0010
1000
,
0100
1000
0100
1000
0001
0100
0001
0100
,
0010
1000
0010
1000
0001
0010
0001
0010
,
0001
1000
0001
1000
0001
0000
1000
0010
1000
0010
1000
0000
0001
0010
0001
0010
,
0002
0000
0000
0000
0000
1003
0000
1001
,
0000
0001
0010
0100
1000
0010
0100
0101
,
0000
0011
0000
1100
0000
1010
0000
0100
,
0002
0000
0013
0100
0000
1100
0000
1001
,
0000
0000
0000
0001
0010
1000
0000
0002
,
0000
0103
1000
0010
0001
1000
0100
0002
,
0000
0010
1000
0103
,
0110
0000
0010
0000
0010
0000
1010
0000
1000
0000
1000
0001
1000
0000
0000
0000
,
0000
0000
0001
0000
0010
0000
0000
0000
0100
0000
1000
0010
0000
0000
0100
0001
,
0010
0000
0110
0100
1000
0010
0110
0100
,
0000
0001
0011
0000
0100
1000
1001
0000
,
1010
0000
0100
0001
0000
0011
0000
1100
,
0000
1000
0010
0000
0100
0001
1001
0000
,
1000
0001
1000
0001
0010
0100
0010
0100
,
0010
0100
0010
0100
0010
0100
0010
0000
0001
1000
0001
1000
0001
0000
0000
0000
,
1000
0000
0001
0100
0010
1000
0001
0100
0000
0000
0000
0010
0000
0000
0010
0000
,
0000
0100
0000
0010
0000
0010
0000
1000
,
0000
0000
1000
0100
0010
0001
1000
0100
0000
0000
0000
0010
0000
0000
0010
0000
,
0000
0001
0000
0011
0000
1001
0000
0000
,
1010
0000
0010
1000
0000
0001
0000
0001
,
0000
0000
0001
0100
0010
1000
0010
1000
0001
1000
0001
1000
0001
0100
0001
0000
,
0000
0000
1000
0000
0010
0000
0000
0000
1010
0000
0000
1001
0000
0000
0011
0000
,
0000
0000
0010
0000
0001
0000
1000
0000
0100
0000
0000
1000
0000
0000
0000
0000
,
0001
0010
0001
0010
0100
1000
0100
1000
,
0001
0000
0100
0000
0001
0000
0001
0000
0000
0000
1000
0000
0001
0100
0001
0100
,
0001
0000
1000
0000
0001
0000
1000
0000
0001
0000
1000
0000
0001
0000
1000
0001
,
1000
0001
1000
0001
1000
0001
1000
0001
1000
0001
1000
0000
0000
0000
2001
0000
,
0000
0000
0000
0000
,
0000
0000
3000
0000
,
0020
0000
0000
0000
,
0230
0000
0000
0301
1000
0001
0000
0000
,
1000
0100
1000
0000
0001
0010
0001
0000
1000
0010
1000
0000
0001
0100
0001
0000
,
1000
0001
1000
0001
1000
0001
1000
0000
0010
0100
0010
0100
0010
0100
0010
0000
,
1000
0000
1000
0000
1000
0000
0001
0000
0001
0000
0001
1000
0001
0000
0000
0000
,
0000
0000
1000
0000
0010
0000
0000
0000
0100
0000
0001
0010
0000
0000
0100
1000
,
0010
0000
0110
0100
0001
0010
0110
0100
,
0000
1000
1010
0000
0100
0001
1001
0000
,
0011
0000
0100
1000
0000
1010
0100
0001
,
0000
0010
0100
0000
1000
0010
0110
0000
,
0101
0000
1001
0000
1100
0010
0001
0010
,
0110
0000
0000
0000
1100
0000
1001
0000
0000
0000
0001
0000
0010
0001
0010
0000
,
0110
1100
1010
0101
,
1001
0000
1000
0001
1000
0001
1000
0001
1000
0001
1000
0001
1000
0000
0000
0000
,
1000
1000
0010
0100
0100
0010
0001
0001
,
0010
0100
0100
0010
1000
1000
0010
0100
,
0001
0001
0010
0100
0100
0010
1000
1000
,
0010
0100
0100
0010
0110
0110
1001
1001
;
#NOTES:
     dance-double:
     :
     Easy:
     7:
     :
00000000
00000000
00000000
00000000
,
00000000
00000000
00000000
00000000
,
00000000
00000000
00000000
00000000
,
00000000
00000000
00000000
00000000
,
00000000
00000000
00000000
00000000
,
00000000
00000000
00000000
00000000
,
00000000
00000000
00000000
00000000
,
00000000
00000000
00000000
00000000
,
00010000
00000000
00000000
00001000
00000000
00000000
00022000
00000000
,
00000000
00000000
00000000
00000000
,
00000000
00000000
00033000
00000000
00000000
00000000
00000000
00020000
,
00000000
00000000
00000000
00000000
,
00000000
00000000
00000000
00000000
,
00032000
00000000
00000000
00023000
,
00000000
00000000
00030200
00000000
,
00000320
00000000
00000000
00000000
,
00000032
00000000
00002003
00000000
,
00003200
00000000
00000000
00000000
,
00020300
00000000
00000000
00000000
00032000
00000000
00000000
00013000
,
00000000
00001000
00100000
00010000
,
10000000
01000000
00100000
00010000
,
00100000
00001000
00010000
00000100
,
00001000
00000000
00000001
00001000
,
00000001
00000100
00000000
00000100
,
00001000
00010000
00000000
00010000
,
00100000
10000000
00000000
10000000
,
00010000
01000000
00001000
00010000
,
00011000
00011000
00000010
00000110
,
00000110
00001000
00000000
00000000
,
00011000
00011000
01000000
01100000
,
01100000
10000000
00000000
00000000
,
20000000
00000000
32000000
00000000
,
03020000
00000000
00032000
00000000
,
00013000
00000000
00000000
00001000
00000000
00000000
00022000
00000000
,
00000000
00000000
00000000
00033000
,
00010000
00000100
00010000
00000100
,
00001000
00000001
00001000
00000001
,
00000100
00000000
00000110
00000000
,
00001010
00000000
00001000
00000100
,
00010100
00000000
00000000
00011000
00000000
00000000
02002000
00000000
,
00000000
00000000
03003000
00000000
,
01000000
00010000
00100000
00001000
,
00010000
00000100
00001000
00000010
,
00000100
00000001
00000000
00000001
,
00001000
00000000
00001000
00000001
,
00000010
00000100
00001000
00000100
,
00010000
00001000
01000000
00010000
,
01010000
00000000
00000000
01001000
00000000
00000000
00011000
00000000
,
00000000
00000000
00010000
00001000
,
00100000
00010000
10000000
00100000
,
01000000
00010000
01000000
00001000
,
00010000
00000000
00000000
00001000
00000000
00000000
00000000
00000100
,
00000000
00000001
00000000
00000001
,
00000010
00000010
00001000
00001000
,
00010000
00010000
01000000
01000000
,
20020000
00000000
00000000
30030000
,
00010000
01000000
00001000
00010000
,
00022000
00000000
00000000
00033000
,
00010000
00000010
00001000
00000001
,
00000100
00000000
00001000
00000000
,
00010000
00000000
00100000
00000000
,
00100000
10000000
10000000
00100000
,
01000000
00010000
00010000
00100000
,
00001000
00001000
00001000
00000000
,
00010000
00010000
00010000
00000000
,
00000100
00000000
00001000
00000000
00000001
00000000
00000000
00002000
,
00000000
00000000
00000000
00000000
00003000
00000000
00000000
00000002
,
00000000
00000000
00000000
00000000
,
00000000
00000000
00000000
00000000
,
00000203
00000000
00000000
00000000
,
00002300
00000000
00000000
00000000
,
00023000
00000000
00000000
00000000
,
00230000
00000000
00000000
00300000
,
01100000
00000000
00000000
01100000
00000000
00000000
10010000
00000000
,
00000000
00000000
10000000
00010000
,
01000000
00100000
01000000
00010000
,
01000000
00001000
00010000
00000100
,
00001000
00000001
00001000
00000010
,
00010000
00001000
00011000
00000000
,
00001000
00001000
00000010
00000010
,
00000001
00000001
00000100
00000100
,
00001000
00010000
00001000
00010000
,
00100000
00000000
01000000
00000000
,
02200000
00000000
00000000
00000000
,
00000000
00000000
00000000
00000000
,
00000000
00000000
00000000
00000000
,
03300000
00000000
01000000
00100000
,
00000000
00000000
00000000
00000000
;
#NOTES:
     dance-double:
     :
     Medium:
     9:
     :
00000000
00000000
00000000
00000000
,
00000000
00000000
00000000
00000000
,
00000000
00000000
00000000
00000000
,
00000000
00000000
00000000
00000000
,
00000000
00000000
00000000
00000000
,
00000000
00000000
00000000
00000000
,
00000000
00000000
00000000
00000000
,
00000000
00000000
00000000
00000000
,
00010000
00000000
00001000
00010000
00000000
00020000
00002000
00000000
,
00000000
00000000
00000000
00000000
,
00000000
00033000
00000000
00000000
,
00000000
00000000
00000000
00001000
00010000
00000000
00010000
00000100
,
00000000
00000000
00000100
00001000
00000000
00000010
00000000
00000200
,
00000000
00000000
00000000
00000302
00000000
00000000
00000000
00002003
,
00000000
00000000
00000000
00003100
00010000
00000000
00001000
00020000
,
00000000
00000000
00000000
00000000
00030000
00000000
00001000
00100000
,
00000000
00000000
00010000
01000000
00000000
00000000
00100000
20000000
,
00000000
00000000
00000000
00000000
00000000
31000000
00000000
00010000
,
02000000
00000000
00000000
10000000
13000000
00000000
00000000
01100000
,
00000000
00000000
00000000
01000000
00100000
00000000
00010000
00001000
,
00000000
00000000
00000100
00000010
00000000
00000010
00000000
00000002
,
00000000
00000000
00000100
00000100
00000000
00000000
00001000
00001003
,
00000000
00000000
00000000
00001000
00000100
00000000
00010000
00002000
,
00000000
00000000
00000000
00000000
00003000
00000000
00100000
00010000
,
00000000
00000000
10000000
01000000
00000000
00000000
00100000
00020000
,
00000000
00000000
00000000
00000000
00000000
00000000
00031000
00000100
,
00000000
00000100
00000000
00000010
00000000
00000010
00000000
00002002
,
00000000
00000000
00000000
00000000
00000000
00000000
00000000
00003003
,
00000000
00000000
00000000
00000001
00001000
00000000
00000010
00000200
,
00000000
00000000
00000000
00000000
00000000
00000000
00000000
00000300
,
00000000
00000000
00000000
00000010
00010000
00000000
00001000
00200000
,
00000000
00000000
00000000
00300000
00000000
00000000
00100000
00001000
,
00000000
00000000
00010000
00000010
00001000
00000000
00000001
00000000
,
00001001
00000000
00000000
00000110
00000000
00000000
00002002
00000000
,
00000000
00000000
00003003
00000000
00000001
00000100
00000000
00001000
,
00000000
00000000
00000000
00000000
00010000
00001000
00100000
00001000
,
00000000
00100000
00000000
00010000
00000000
10000000
00000000
00000000
,
02200000
00000000
00000000
00000000
,
03300000
00000000
00000000
10000000
20000000
00000000
00010000
00020000
,
00000000
00000000
00000000
30030000
,
00000000
00000000
00000000
00000000
00000000
10010000
00000000
10010000
,
00000000
10000000
00010000
01000000
00010000
01000000
00001000
00010000
,
00000000
00010000
00000000
00001000
00000000
00001000
00000000
00020000
,
00000000
00000000
00030100
00000100
00000000
00001000
00000000
00000001
,
00000000
00000000
00000000
00001000
00000100
00000010
00000000
00000001
,
00000000
00000001
00001000
00000100
00001000
00000100
00010000
00002000
,
00000000
01003000
00010000
00100000
,
00110000
00000000
00000000
11000000
00000000
00000000
10000000
01000000
,
00000000
00000000
00000000
00000000
00000000
00000000
01000000
00000000
00010000
00000000
00000000
00001000
00000000
00000000
00001000
00000000
,
00010000
00000000
00000100
00001000
00000000
00000010
00000000
00001000
,
00000000
00000100
00000010
00000001
,
00000001
00000000
00000100
00000100
00000000
00000010
00000000
00000010
,
00000000
00010000
00010000
00000000
00000000
00000000
00001000
00000000
,
01000000
00000000
00010000
00010000
00000000
00000000
10000000
10000000
,
00000000
01000000
00100000
01100000
,
00000000
00000000
00100000
00000000
00001000
00000000
00010000
00000000
00000100
00000000
00000000
00001000
00000000
00000000
00000001
00000000
,
00000000
00000010
00000000
00000001
00000000
00001000
00000000
00000010
,
00000000
00000000
00001000
00000000
00000100
00000000
00010000
00000000
00001000
00000000
00000000
00100000
00000000
00000000
01000000
00000000
,
00000000
10000000
00000000
00100000
00000000
10000000
00000000
00010000
,
01000000
00000000
00001000
00010000
00000000
00000010
00000000
00001000
,
00000000
00000100
00000010
00000100
00000010
00000001
00001000
00000001
,
00001000
00000000
00000000
00000000
00000010
00000000
00000000
00000000
00010000
00000000
00000000
00001000
00000000
00000000
00011000
00000000
,
00000000
00001000
00100000
00001000
00100000
00010000
00100000
00000000
,
00010000
10000000
01000000
00010000
,
00001000
00000010
00000001
00001000
,
00000001
00000000
00000100
00000100
00000000
00000010
00000000
00020000
,
00000000
00000000
00000000
00000000
00000000
00000000
00000000
00032000
,
00000000
00000000
00000000
00000000
,
00000000
00000000
00000000
00000000
,
02003000
00000000
00000000
00000000
,
03200000
00000000
00000000
00000000
,
20300000
00000000
00000000
00000000
,
31000000
00010000
00001000
00000010
,
00000110
00000000
00000000
00001001
00000000
00000000
00001000
00000001
,
00000000
00000000
00000000
00000000
00000000
00000000
00000100
00000000
00000010
00000000
00000000
00001000
00000000
00000000
00000010
00000000
,
00010000
00000000
00001000
00010000
00000000
00100000
00000000
20000000
,
00000000
01000000
01000000
00100000
,
30200000
00000000
00000000
00300000
00000000
10000000
00020000
20000000
,
00000000
00000000
30030000
10000000
,
00010000
00000000
10000000
01000000
00010000
00000000
01000000
00010000
,
00001000
00010000
00001000
00000010
,
00000100
00000000
00001000
00000001
00000010
00000000
00000010
00000000
,
00000001
00000000
00001000
00000001
,
00002002
00000000
00000000
00000000
,
00000000
00000000
00000000
00000000
,
00000000
00000000
00000000
00000000
,
00003003
00000000
00000000
00000000
00001000
00000001
00001000
00000001
,
00000000
00000000
00000000
00000000
;
#NOTES:
     dance-double:
     :
     Hard:
     13:
     :
00000000
00000000
00000000
00000000
,
00000000
00000000
00000000
00000000
,
00000000
00000000
00000000
00000000
,
00000000
00000000
00000000
00000000
,
00000000
00000000
00000000
00000000
,
00000000
00000000
00000000
00000000
,
00000000
00000000
00000000
00000000
,
00000000
00000000
00000000
00000000
,
00010000
00000000
00001000
00010000
00000000
00100000
01000000
00000000
,
00000000
00100000
01000000
00010000
00100000
00001000
00010000
00000100
,
00000010
00000001
00000100
00002000
00000000
00000000
00000000
00023000
,
00000000
00000000
00000000
00031000
00001000
00000000
00010000
00100000
,
00000000
00000000
00100000
10000000
00000000
00010000
00000000
02000000
,
00000000
00000000
03001000
00002000
00000000
00000000
00013000
00020000
,
00000000
00000000
00000000
00030100
00000100
00000000
00000010
00000002
,
00000000
00000000
00000000
00000000
00000003
00000000
00000001
00000100
,
00001000
00000000
00010000
01000000
10000000
00000000
01000000
20000000
,
00100000
00000000
00000000
00000000
00000000
30100000
01000000
01000000
,
00010000
00000000
01100000
00000000
00100000
00100000
10000000
00010000
,
00000000
00100000
01000000
00000000
10000000
01000000
00010000
00001000
,
00000000
00001000
00000100
00000000
00000010
00000010
00001000
00000000
,
00001010
00000000
00000110
00000000
00000010
00000100
00001000
00010000
,
00000000
00010000
01000000
00000000
00100000
00100000
00010000
00000000
,
00110000
00000000
01100000
00000000
00100000
01000000
10000000
00000000
,
10100000
00000000
10010000
00000000
00010000
01000000
00001000
00000000
,
00011000
00000000
00010010
00000000
00000010
00001000
00000001
00000000
,
00000001
00000010
00000100
00000000
00000100
00000010
00000010
00000010
,
00001001
00000011
00000010
00001100
,
00001000
00000000
00000100
00010000
00000000
00001000
00100000
00000000
,
00110000
10010000
10000000
10100000
,
01010000
00000000
00010000
00100000
00000000
00001000
00010000
00000000
,
00011000
00000000
00000000
00001000
00000100
00000000
00000000
00000001
,
00000000
00000001
00000000
00001000
00000010
00001000
00000010
00000000
,
00010010
00000000
00000000
00011000
00000000
00000000
00101000
00000000
,
00000000
00100000
00010000
00000000
10000000
10000000
00010000
00000000
,
10000000
00100000
10000000
00100000
00010000
00100000
00010000
00001000
,
00010000
00001000
00000010
00001000
00000010
00000001
00000010
00000000
,
00000001
00000100
00001000
00000100
00001000
00010000
00001000
00010000
,
00100000
00010000
00100000
10000000
00100000
10000000
01000000
00000000
,
11000000
00000000
00000000
10010000
00000000
00000000
00110000
00000000
,
00000000
00000000
00000000
00000000
00000000
00000000
00000000
10010000
,
00000000
10000000
01000000
00000000
00100000
00100000
01000000
00010000
,
00000000
00010000
01000000
00000000
01000000
01000000
00010000
00001000
,
00010000
00001000
00000010
00000000
00000010
00000010
00000100
00000001
,
00000000
00000001
00000100
00000000
00000010
00000010
00000001
00000000
,
00000001
00000100
00001000
00000000
00001000
00010000
00100000
00000000
,
10000000
01000000
00010000
00001000
00000100
00000001
00000010
00000000
,
00000110
00000000
00000000
00001100
00000000
00000000
00000100
00010000
,
00000000
00001000
01000000
00000000
00100000
10000000
10000000
10000000
,
00100000
01000000
00100000
00000000
10000000
00010000
01000000
00010000
,
00000000
00010000
10000000
00000000
00010000
00010000
00100000
00100000
,
01000000
00000000
00010000
00001000
00000000
00001000
00000100
00000001
,
00000000
00000001
00000010
00000000
00000010
00000100
00000110
00000000
,
00001001
00001100
00010100
00011000
,
01001000
01010000
10010000
11000000
,
10000000
01000000
00100000
00010000
00001000
00000000
00000100
00000010
,
00000000
00000100
00000001
00000000
00001000
00000010
00000001
00000000
,
00000001
00000010
00000100
00001000
00010000
00000000
00100000
01000000
,
00000000
00100000
10000000
00000000
00010000
01000000
10000000
00000000
,
11000000
00000000
00110000
00000000
00100000
00010000
00001000
00000100
,
00000000
00000010
00000100
00000000
00000010
00000001
00001000
00001000
,
00000010
00000010
00000100
00000000
00000100
00000100
00001000
00010000
,
00000000
00010000
00100000
00000000
01000000
00100000
01000000
00100000
,
10100000
01010000
01001000
00011000
,
00010100
00000000
00000100
00000100
00000000
00001000
00001000
00001000
,
00001001
00000000
00000011
00000000
00000010
00000100
00001000
00000001
,
00000100
00001000
00010000
00001000
00000100
00000001
00000010
00001000
,
00000000
00001000
00010000
00000000
00010000
01000000
00000000
01000000
,
10000000
00000000
10000000
00100000
00000000
00100000
00010000
00000000
,
00010000
00001000
00000000
00001000
00000010
00000000
00000010
00000001
,
00000000
00001000
00000100
00001000
00000100
00010000
00001000
00000000
,
00022000
00000000
00000000
00033000
,
02002000
03003000
02200000
03300000
,
10010000
00000000
00000000
00110000
00000000
00000000
00100000
00001000
,
00000000
00010000
00000010
00000000
00000100
00000010
00000010
00000010
,
00000101
00000000
00000001
00000001
00001000
00001000
00000010
00010000
,
00000000
00001000
00010000
00000000
01000000
01000000
00100000
00000000
,
10000000
00000000
10000000
00100000
00000000
00100000
01000000
00010000
,
00000000
00001000
00010000
00000000
00001000
00001000
00010000
00010000
,
00001000
00000100
00000001
00000010
00001000
00010000
01000000
10000000
,
00100000
00010000
00001000
00000100
00001000
00010000
00001000
00000000
,
00010000
00000010
00001000
00000100
00010000
00001000
00100000
00010000
,
10000000
00100000
01000000
00010000
10000000
00100000
00010000
00000000
,
00001000
00000000
00010000
00000000
00000100
00000000
00001000
00000001
,
00000000
00000010
00000000
00000100
00000000
00001000
00000001
00000000
,
00000100
00000000
00001000
00000000
00010000
00000000
00100000
01000000
,
00000000
00100000
00000000
10000000
01000000
01000000
01000000
01000000
,
00000000
00000000
00000000
00000000
;
#NOTES:
     dance-double:
     :
     Challenge:
     15:
     :
00000000
00000000
00000000
00000000
,
00000000
00000000
00000000
00000000
,
00000000
00000000
00000000
00000000
,
00000000
00000000
00000000
00000000
,
00000000
00000000
00000000
00000000
,
00000000
00000000
00000000
00000000
,
00000000
00000000
00000000
00000000
,
00000000
00000000
00000000
00000000
,
00001000
00010000
00001000
00000100
00000000
00000100
00000001
00000000
,
00000000
00000010
00000100
00010000
00001000
01000000
00100000
00010000
,
00001000
00000000
00000010
00000000
00000100
00000000
00000010
00000100
00000010
00000100
00000010
00000100
00000010
00000100
00000020
00000000
,
00000000
00000000
00000000
00000000
,
00000000
00000000
00000030
00000000
,
00000210
00000000
00000000
00020300
00000000
00000000
00032000
00000000
,
00000000
00000000
02003000
03000000
,
01200000
00000000
00000000
20300000
00000000
00000000
32000000
00000000
,
00000000
00000000
03020000
00030000
,
00012000
00000000
00000000
00000000
00003020
00000000
00000000
00000032
,
00000000
00000000
00000000
00000000
00000103
00000000
00000000
00001001
,
00000000
00000001
00000011
00000000
00000010
00001000
00010000
00011000
,
00000000
00001000
00000100
00000000
00000100
00000001
00000101
00000000
,
00000011
00000000
00000110
00000000
00000100
00001000
00010000
00100000
,
00000000
00100000
00010000
00000000
10000000
00100000
00010000
00001000
,
00011000
00000000
00001100
00000000
00000001
00000010
00001000
00010000
,
00011000
00000000
01010000
00000000
10000000
00100000
00010000
00001000
,
00011000
00000000
00001010
00000000
00000001
00000100
00001000
00010000
,
00000000
00000000
00010000
00000000
01000000
00000000
00000000
00000000
11000000
00000000
10000000
00010000
10000000
00010000
10000000
00010000
,
20000000
00000000
30100000
00010000
00001000
00000000
00020000
00000000
,
01030000
00000000
00010000
00000000
00001000
00000000
00000100
00000000
00000000
00000000
00000001
00001000
00000001
00000000
00000000
00000000
,
00000002
00000000
00000013
00001000
00010000
00000000
00002000
00000000
,
00003100
00000000
00001000
00000000
00010000
00000000
01000000
00000000
00000000
00000000
10000000
00010000
10000000
00000000
00000000
00000000
,
10100000
00000000
00000000
00100000
00020000
00000000
00001000
00000000
,
01030000
11000000
10100000
00110000
,
00011000
00000000
00001000
00000010
00000000
00000010
00000001
00000000
,
00000000
00000001
00000100
00000000
00000100
00001000
00010000
00000000
,
01000000
00100000
01000000
00100000
00001000
00010000
00001000
00010000
,
00000010
00000100
00000010
00000100
00000001
00001000
00000001
00001000
,
00000100
00000010
00000100
00000010
00001000
00010000
00001000
00010000
,
00100000
01000000
00100000
01000000
00010000
10000000
00010000
10000000
,
00010000
00100000
00010000
00100000
00000000
00000000
00001000
00010000
00001000
00010000
00000000
00000000
00000010
00001000
00000010
00001000
,
00000002
00000000
00000000
00000000
00000000
00001003
00000000
00001001
,
00000000
00000001
00000010
00001000
00010000
00001000
00000100
00000101
,
00000000
00000011
00000000
00001010
00000000
00011000
00000000
00010000
,
00200000
00000000
00310000
00001000
00000000
00001010
00000000
00000011
,
00000000
00000000
00000000
00000001
00001000
00000010
00000000
00000200
,
00000000
00001300
00010000
00001000
00000010
00001000
00010000
00002000
,
00000000
00023000
00230000
00320000
,
00031000
00000000
00001000
00000000
00001000
00000000
00000010
00000000
00000010
00000000
00000010
00000100
00000010
00000000
00000000
00000000
,
00000000
00000000
00000001
00000000
00001000
00000000
00000000
00000000
00000010
00000000
00010000
00001000
00000000
00000000
00100000
00010000
,
10000000
00000000
10100000
00100000
00010000
00001000
00010000
01000000
,
00000000
00010000
00001000
00000000
00000010
00000001
00000100
00000000
,
00001100
00000000
00001000
00010000
00000000
01010000
00000000
11000000
,
00000000
10000000
00100000
00000000
00010000
00001000
00010000
00000000
,
01000000
00010000
00001000
00010000
01000000
00010000
00001000
00000000
,
00000010
00000100
00000010
00000000
00000001
00001000
00000001
00000000
00000100
00000010
00000100
00000010
00000100
00000000
00000000
00000000
,
00000001
00000000
00001000
00000100
00000010
00000001
00001000
00000100
00000000
00000000
00000000
00000100
00000000
00000000
00010000
00000000
,
00000000
00001000
00000000
00100000
00000000
00100000
00000000
00010000
,
00000000
00000000
00010000
01000000
00100000
10000000
00010000
01000000
00000000
00000000
00000000
01000000
00000000
00000000
00001000
00000000
,
00000000
00010000
00000000
00010010
00000000
00001001
00000000
00000000
,
00001000
00000000
00000010
00010000
00000000
01001000
00000000
10010000
,
00000000
00000000
10000000
01000000
00100000
00010000
00100000
00010000
10000000
00010000
10000000
00010000
10000000
01000000
10000000
00000000
,
00000000
00000000
00010000
00000000
00100000
00000000
00000000
00000000
00101000
00000000
00000000
00011000
00000000
00000000
00010100
00000000
,
00000000
00000000
00000100
00000000
00000010
00000000
00001000
00000000
00010000
00000000
00000000
00011000
00000000
00000000
00000000
00000000
,
00011000
00001100
00000101
00000011
,
00001010
00000000
00011000
00011000
00000000
00000000
01010000
00000000
,
11000000
10100000
00110000
00011000
,
00001000
00010000
00001000
00010000
00001000
00010000
00001000
00010000
00001000
00010000
00001000
00000000
00000000
00000000
00021000
00000000
,
00000000
00000000
00000000
00000000
,
00000000
00000000
00030000
00000000
,
00002000
00000000
00000000
00000000
,
00003200
00000000
00000000
00000301
00001000
00000001
00000000
00000000
,
00001000
00001000
00000010
00000010
00010000
00010000
00001000
00001000
,
00100000
00010000
00100000
00010000
00100000
00010000
00100000
00000000
01000000
10000000
01000000
10000000
01000000
10000000
01000000
00000000
,
10000000
00000000
10000000
00000000
10000000
00000000
00010000
00000000
00010000
00000000
00010000
10000000
00010000
00000000
00000000
00000000
,
00000000
00000000
10000000
00000000
00010000
00000000
00000000
00000000
00100000
00000000
00001000
00010000
00000000
00000000
00000010
00001000
,
00000001
00000000
00000011
00000010
00001000
00010000
00001000
00000100
,
00000000
00001000
00010000
00000000
00100000
10000000
01000000
00000000
,
01010000
00000000
00010000
00001000
00000000
00001100
00000100
00000001
,
00000000
00000001
00000010
00000000
00001000
00010000
00001000
00000000
,
00001100
00000101
00000011
00001010
,
00011000
00000000
00110000
00110000
00000000
00000000
10100000
00000000
,
11000000
01010000
00011000
00001100
,
00000101
00000000
00000000
00000000
00000001
00001000
00000001
00001000
00000001
00001000
00000001
00001000
00000001
00000000
00000000
00000000
,
00001000
00001000
00000010
00000001
00000001
00000010
00000100
00000100
,
00001000
00010000
00010000
00100000
01000000
01000000
00100000
10000000
,
00010000
00010000
00100000
10000000
10000000
00100000
01000000
01000000
,
00010000
00001000
00001000
00000010
00000001
00000001
00001001
00001001
;
