
//----- song ID: flly -----//
#TITLE:Fly Like You;
#ARTIST:technoplanet;
#BANNER:Fly Like You.png;
#BACKGROUND:Fly Like You-bg.png;
#CDTITLE:./CDTitles/SDVX IV HEAVENLY HAVEN.png;
#MUSIC:Fly Like You.ogg;
#SAMPLESTART:7.96;
#SAMPLELENGTH:15;
#BPMS:0=286,428=276,431=256,434=226,437=196,446=286,470=208;
#BGSTAGE:16;
#NOTES:
     dance-single:
     :
     Beginner:
     4:
     :
0000
0000
0000
0000
,
0000
0000
0000
0000
,
0000
0000
0000
0000
,
0000
0000
0000
0000
,
0000
0000
0000
0000
,
0000
0000
0000
0000
,
0000
0000
0000
0000
,
0000
0000
0000
0000
,
0000
0000
0000
0000
,
0000
0000
0001
0000
,
0000
0000
0000
0000
,
0010
0000
0000
0000
,
0000
0000
0001
0000
,
0000
0000
0000
0000
,
0000
0000
0000
0000
,
0000
0000
0010
0000
,
0000
0000
0000
0000
,
0010
0000
0000
0000
,
0000
0000
1000
0000
,
0000
0000
0000
0000
,
0000
0000
0000
0000
,
0000
0000
1000
0000
,
0000
0000
0000
0000
,
1000
0000
0000
0000
,
0000
0000
0100
0000
,
0000
0000
0000
0000
,
0000
0000
0000
0000
,
0000
0000
1000
0000
,
0000
0000
0000
0000
,
1000
0000
0000
0000
,
0000
0000
0010
0000
,
0000
0000
0000
0000
,
0000
0000
0000
0000
,
0000
0000
0010
0000
,
0000
0000
0000
0000
,
0010
0000
0000
0000
,
0000
0000
0001
0000
,
0000
0000
0000
0000
,
0001
0000
0000
0000
,
0000
0000
0010
0000
,
0000
0000
0000
0000
,
0010
0000
0000
0000
,
0000
0000
1000
0000
,
0000
0000
0000
0000
,
0000
0000
0000
0000
,
0000
0000
1000
0000
,
0000
0000
0000
0000
,
1000
0000
0000
0000
,
0000
0000
0100
0000
,
0000
0000
0000
0000
,
0000
0000
0000
0000
,
0000
0000
0010
0000
,
0000
0000
0000
0000
,
0010
0000
0000
0000
,
0000
0000
0100
0000
,
0000
0000
0000
0000
,
0000
0000
0000
0000
,
0000
0000
1001
0000
,
0000
0000
0000
0000
,
0000
0000
0000
0000
,
0000
0000
1001
0000
,
0000
0000
0000
0000
,
0000
0000
0000
0000
,
0000
0000
1001
0000
,
0000
0000
0000
0000
,
0001
0000
0000
0001
,
0000
0000
0010
0000
,
0000
0000
0000
0000
,
0001
0000
0000
0000
,
0000
0000
0010
0000
,
0000
0000
0000
0000
,
0010
0000
0000
0010
,
0000
0000
1000
0000
,
0000
0000
0000
0000
,
0010
0000
0000
0000
,
0000
0000
1000
0000
,
0000
0000
0000
0000
,
1000
0000
0000
1000
,
0000
0000
0100
0000
,
0000
0000
0000
0000
,
1000
0000
0000
0000
,
0000
0000
0000
0000
,
0000
0000
0000
0000
,
0100
0000
0000
1000
,
0000
0000
1000
0000
,
0000
0000
0000
0000
,
0010
0000
0000
0000
,
0000
0000
0001
0000
,
0000
0000
0000
0000
,
1001
0000
0000
0000
,
0000
0000
0000
0000
,
0000
0000
0000
0000
,
0001
0000
0000
0010
,
0000
0000
0001
0000
,
0000
0000
0000
0000
,
0001
0000
0000
0000
,
0000
0000
0010
0000
,
0000
0000
0000
0000
,
1000
0000
0000
0000
,
0000
0000
1000
0000
,
0000
0000
0000
0000
,
1000
0000
0000
1000
,
0000
0000
0010
0000
,
0000
0000
0000
0000
,
1000
0000
0000
0000
,
0000
0000
0010
0000
,
0000
0000
0000
0000
,
0002
0000
0000
0000
,
0000
0000
0003
0000
,
0000
0000
0000
0000
,
0000
0000
0000
0000
,
0000
0000
0001
0000
,
0000
0000
0000
0000
,
0001
0000
0000
0001
,
0000
0000
0010
0000
,
0000
0000
0000
0000
,
0010
0000
0000
0010
,
0000
0000
1000
0000
,
0000
0000
0100
0000
,
0000
0000
1000
0000
,
0000
0000
1000
0000
,
0000
0000
0010
0000
,
0000
0000
0001
0000
,
1001
0000
0000
0000
,
0000
0000
0000
0000
;
#NOTES:
     dance-single:
     :
     Easy:
     9:
     :
0000
0000
0000
0000
,
0000
0000
0000
0000
,
0000
0000
0000
0000
,
0000
0000
0000
0000
,
0000
0000
0000
0000
,
0000
0000
0000
0000
,
0000
0000
0000
0000
,
0000
0000
0000
0000
,
0000
0000
0000
0000
,
0000
0000
0001
0000
,
0001
0100
0000
0000
,
0010
0000
0010
1000
,
0000
0000
0001
0010
,
0000
0100
1000
0000
,
0002
0000
0003
2000
,
0000
3000
1000
0000
,
1000
0010
0000
0000
,
0100
0000
0100
0001
,
0000
0000
1000
0100
,
0010
0001
0000
0000
,
2000
0000
3000
0002
,
0000
0000
0003
0000
1000
0000
0000
0010
,
0000
1000
0000
0000
,
0001
0000
0000
0010
0000
0000
0001
0000
,
0000
0000
1001
0000
,
0000
0000
0000
0000
,
1000
0100
0010
0001
,
0000
0000
0000
0000
1000
0000
0000
0100
,
0000
1000
0000
0000
,
0001
0000
0000
0100
0000
0000
0001
0000
,
0000
0000
0110
0000
,
0000
0000
0000
0000
,
1000
0010
0100
0001
,
0000
0000
2000
0000
,
0000
3000
0000
0000
,
0020
0000
0000
0030
,
0000
0000
0200
0000
,
0000
0000
0000
0000
,
0300
0000
0000
0000
,
0000
0000
0001
1000
,
0001
0100
0000
0000
,
0010
1000
0100
1000
,
0000
0000
1001
0000
,
0000
0110
0000
0000
,
1001
0000
0000
0000
,
0000
0000
1000
0000
,
1000
0100
0000
0100
,
0020
0000
0000
0030
,
0000
0000
0001
0000
,
0001
0100
0000
0100
,
0020
0000
0000
0030
,
0000
0000
1000
0010
,
0100
0001
0000
0000
,
1000
0000
0000
0100
0000
0000
0010
0000
,
0000
0000
0002
0000
,
0000
0000
0000
0000
,
0003
0000
0000
0000
,
0000
0000
1000
0001
,
1000
0001
0000
0000
,
0100
0010
0100
0010
,
0000
0000
1000
0000
,
1000
0001
0000
0001
,
0020
0000
0000
0200
,
0000
0000
0330
0000
,
0000
0000
0000
0000
,
0001
0000
0001
0010
,
0000
0010
0100
0000
,
0100
1000
0000
0000
,
0001
0001
0000
1000
,
1000
0000
0220
0000
,
0000
0330
0000
0000
,
1000
0000
1000
0100
,
0000
0100
0010
0000
,
0010
0001
0000
0000
,
1000
0010
1000
0010
,
0000
0000
0200
0000
,
0000
0301
0000
0000
,
1000
0000
1000
0010
,
0000
0000
1000
0000
,
1000
0100
0000
0000
,
1000
0010
0000
0100
,
0001
0000
0020
0000
,
0000
0030
0000
0000
,
0001
0000
0001
0010
,
0000
0000
0001
0000
,
0001
0100
0000
0000
,
0001
0010
0100
1000
,
0000
0000
0002
0000
,
0000
1003
0000
0000
,
1001
0000
0000
0000
,
0000
0000
0000
0000
,
0000
0000
0000
0000
,
1000
0010
0000
0100
,
0001
0000
1000
0010
,
1000
0001
0100
0001
,
1000
0000
0000
0100
0000
0000
0010
0000
,
0000
0000
0001
0100
,
0010
0100
0000
0000
,
0002
0000
0000
0003
,
0000
0000
0000
0000
0001
0000
0000
0001
,
0000
0000
1000
0000
0000
1000
0000
0000
,
0010
0000
0000
0110
,
0000
0000
1000
0000
,
0000
1001
0000
0000
,
0001
0100
0000
0010
,
1000
0000
0001
0100
,
0001
0010
0000
0000
,
0002
0000
0000
0000
,
0000
0000
2003
0000
,
0000
0000
0000
0000
,
0000
0000
0000
3000
,
0000
0000
1000
0100
,
0010
0002
0000
0003
,
0001
0000
0001
0100
,
0000
0100
0001
0010
,
0100
2000
0000
3000
,
1000
0000
1000
0010
,
0000
0010
0100
0000
,
1001
0000
0010
0000
,
1001
0000
1000
0100
,
0010
0001
0100
0010
,
1000
0100
0020
0000
,
0032
0000
1003
0001
,
1001
0000
0000
0000
,
0000
0000
0000
0000
;
#NOTES:
     dance-single:
     :
     Medium:
     13:
     :
0000
0000
0000
0000
,
0000
0000
0000
0000
,
0000
0000
0000
0000
,
0000
0000
0000
0000
,
0000
0000
0000
0000
,
0000
0000
0000
0000
,
0000
0000
0000
0000
,
0000
0000
0000
0000
,
0000
0000
0000
0000
,
0000
0000
0000
0000
0001
0000
0000
0100
,
0001
0010
0100
1000
,
0001
0000
0000
0100
0001
0000
0010
0000
,
0100
1000
0010
0010
,
0000
0100
0100
0000
,
0001
0100
1000
1000
,
0100
0000
0001
0000
1000
0000
0000
0100
,
1000
0010
0100
0001
,
0010
0000
0100
0010
0100
0000
0010
0000
,
0000
0001
0000
0000
2000
0000
3020
0000
,
0230
0302
0000
0000
,
1003
1000
1000
0001
,
0001
0000
0001
0000
1000
0000
0000
1010
,
0000
0010
0100
0100
,
0001
0000
0000
0011
0000
0000
0010
0000
,
0100
0100
2000
0000
,
0000
0000
0000
3000
,
0001
0100
0010
1000
,
0100
0000
0010
0000
0001
0000
0000
0011
,
0000
0010
0001
0100
,
0010
1000
0000
0010
1000
0000
0100
0000
,
0001
0100
2000
0000
,
0000
0000
0000
3000
,
0001
0000
0010
0100
0010
0000
0001
0000
,
0000
1000
0000
0000
0010
0000
0000
0000
,
0010
0100
0000
0100
,
0001
0000
0001
1000
,
0000
1000
0200
0000
,
0000
0000
0000
0000
,
0300
0000
0000
0000
0000
0000
1000
0001
,
1000
0001
1000
0000
0100
0000
0010
0000
,
0010
0000
0001
1000
0001
0000
0100
0000
,
0010
0000
0010
1000
,
0000
1000
0100
0000
,
0000
0110
0000
0000
,
1001
0001
0100
0010
,
1000
0000
0010
0000
1000
0000
0100
0010
,
0000
0010
0001
0100
,
0002
0000
0003
2000
,
0000
3000
0010
0000
,
0010
0000
0100
0001
0100
0000
0001
0000
,
2000
0000
0000
3000
,
1000
0100
0010
0100
,
0001
0100
0010
0100
,
1000
0000
0000
1010
0000
0000
0010
0100
,
0010
0000
0100
0001
0200
0000
0000
0000
,
0000
0302
0000
0000
,
2003
0000
0000
3000
,
0000
0000
0000
0000
1000
0000
1000
0100
,
0000
0100
0020
0000
0000
0000
0030
0000
,
0001
0000
0001
0100
0000
0100
0020
0000
,
0000
0030
1000
0010
,
0110
0001
0100
0110
,
2000
0000
0000
0002
,
0000
0000
3003
0000
,
0000
0000
0000
0000
,
1000
0000
0000
0100
1000
0000
0010
0000
,
0010
0000
0100
0000
0001
0000
0000
0010
,
0001
0100
0100
0010
,
1000
1100
0000
0001
,
0101
0000
1000
0010
,
0001
0001
0010
1000
,
0001
0000
0000
0100
0010
0000
1000
0001
,
1000
0001
0020
2030
,
3020
0000
0032
0000
0000
1003
0000
0000
,
0001
0000
0100
0000
0010
1000
0020
0000
,
0000
0030
1000
0010
,
0010
0100
0001
0001
,
0011
0000
0000
1100
,
0000
0000
1010
0000
,
0000
0101
0000
0000
,
0010
1001
0000
0100
,
1001
0000
0001
0010
,
1000
1000
0010
0001
,
1000
0000
0000
1000
0010
0000
0100
0000
,
0001
0010
0002
0203
,
2300
0000
3100
0000
0000
0110
0000
0000
,
1010
0000
0000
1000
,
0001
1000
0001
0000
0100
0000
0000
0000
,
0100
0010
0000
0010
,
2000
0000
0000
0000
,
0000
0000
0000
0000
,
0000
0000
0000
3000
,
0001
0100
0000
1000
,
0100
0000
0001
0010
,
1000
0001
0100
1000
,
0001
0000
0000
0010
0001
0000
0100
0000
,
0100
0010
0010
1000
,
0001
0100
0002
0000
0000
0000
0000
0000
,
2003
0000
0000
0000
,
0000
0000
3000
0000
1000
0000
0000
0110
,
0000
0000
0001
0000
0000
0110
0000
0000
,
2000
0000
0000
3200
,
0000
0000
0320
0000
,
0000
0032
0000
0000
,
1003
0100
0000
0001
,
0100
0000
1000
0001
,
0100
0010
1000
0100
,
0020
0000
0000
0000
,
0000
0000
0032
0000
,
0000
2000
0000
0000
,
0000
0000
0000
3003
,
0000
0000
0001
1000
,
0100
0010
0200
0000
0000
0000
0000
0000
,
0001
0000
0000
1300
,
0000
0000
0000
0000
1000
0010
1000
0000
,
0001
0100
0001
0000
0100
0000
0010
0000
,
2000
0000
0000
0002
,
0000
3003
1000
1100
,
0100
0110
0010
0011
,
0001
0000
1001
0000
1000
0010
0100
0000
,
0001
0010
0100
0000
1000
0001
1000
0000
,
0001
1000
0001
0000
2000
0000
3020
0000
,
0230
0000
0302
0000
1003
0000
0001
1000
,
0001
0000
0000
0000
,
0000
0000
0000
0000
;
#NOTES:
     dance-single:
     :
     Hard:
     15:
     :
0000
0000
0000
0000
,
0000
0000
0000
0000
,
0000
0000
0000
0000
,
0000
0000
0000
0000
,
0000
0000
0000
0000
,
0000
0000
0000
0000
,
0000
0000
0000
0000
,
0000
0000
0000
0000
,
0000
0000
0000
0000
,
0000
0000
0000
0000
1000
0000
0000
1000
,
0100
0010
0010
0010
,
0001
0000
0000
0001
0100
0000
0010
0000
,
0010
0010
1010
1001
,
0000
0011
1001
0000
,
1010
1000
1100
0011
,
0001
0000
0101
0000
1000
0000
0000
1000
,
0010
0100
0100
0100
,
0001
0010
0001
0010
0001
0000
0100
0000
,
0000
0100
0000
0000
0002
0000
0023
0000
,
0130
1000
0010
0000
0010
0000
0010
0000
,
1000
0000
1000
0000
1000
0000
0100
0010
,
0001
0100
0010
1000
0100
0000
0000
0110
,
0000
0001
1000
0001
,
0110
0000
1000
0010
1000
0010
1000
0000
,
0100
0100
0020
0000
,
0000
0000
0000
0030
,
0001
0000
0100
0000
0100
0000
0010
1000
,
0010
1000
0010
0000
1000
0000
0000
0110
,
0000
0001
1000
0001
,
0010
0100
1000
0000
0100
1000
0100
0000
,
0010
0010
2002
0000
,
0000
0000
0000
3003
,
1000
0010
1000
0010
1000
0000
0100
0000
,
0000
0110
0000
0000
0002
0000
0000
0000
,
0000
0203
0000
0000
,
2300
0000
0000
3200
,
0000
0000
0301
0000
,
0000
0000
0000
0000
,
0000
0000
0000
0000
0000
0000
0001
1000
,
0001
1000
0001
0000
1000
0000
0010
0000
,
1000
0000
0100
0010
0100
0010
0100
0000
,
0020
0000
0031
0200
,
0000
0301
0010
0000
,
0001
0010
0100
0000
0000
0000
1000
0010
,
0100
0110
0000
0010
,
1000
0000
0010
0000
1000
0000
0100
0010
,
0000
0100
0010
0000
0001
0000
0010
0000
,
0002
0003
0001
0200
,
0300
0100
1000
0100
,
0001
0000
1000
0100
1000
0100
1000
0000
,
0001
0010
0100
1000
,
0001
0000
0100
0000
0010
1000
0010
0000
,
0100
0000
0001
0010
0001
0000
0100
0000
,
0010
0000
0000
1010
0000
0000
1000
0100
,
1000
0100
0010
0000
0002
0000
0000
0000
,
0000
0023
0000
0000
,
0200
0000
0000
0330
,
0000
0000
0000
0000
1000
0000
0000
0101
,
0000
0011
0000
0000
,
0001
1000
1100
1010
,
0000
0000
0000
0000
1000
0010
1000
0000
,
0010
0000
0100
0001
0100
0000
0001
0000
,
0020
0000
0000
0200
,
0000
0000
0330
0000
,
0000
0000
0000
0000
,
1000
0000
0000
0100
0001
0000
0100
0000
,
1000
0000
1000
0000
0001
0000
0000
0100
,
1000
0000
0100
0001
0100
0001
0100
0000
,
0001
0011
0000
1000
,
1010
0000
0101
1100
,
1000
1010
0011
0001
,
1000
0000
0000
1000
0100
0000
0010
0001
,
0010
0001
0010
0000
0002
0000
0023
0000
,
2030
0000
3010
0000
0000
0011
0000
0000
,
0001
0000
1000
0000
0100
0010
0200
0000
,
0000
0300
1000
0010
,
1010
0001
0100
0101
,
1001
0000
0000
0100
0010
0000
0110
0000
,
1000
0000
0001
0000
1001
0000
0000
0100
,
0010
0110
1000
0001
,
1001
0110
0000
1001
,
0110
0000
0001
0010
,
0110
1000
0010
0110
,
0001
0000
0000
0001
0100
0000
2000
0000
,
3200
0000
0301
1000
0002
0000
0023
0000
,
0230
0000
1300
0000
0000
1010
0000
0000
,
0110
0000
0000
0000
0000
0000
0001
1000
,
0001
1000
0001
1000
0001
0000
0100
0000
,
0100
1000
0100
0100
,
2002
0000
0000
0000
,
0000
0000
0000
0000
,
0000
0000
0000
3003
,
0101
1001
0000
1100
,
1001
0000
0011
0110
,
1000
1010
0110
0001
,
1000
0000
0000
1000
0100
0000
0010
0000
,
0001
0100
0001
0010
,
1000
0010
0001
0000
1000
0000
0010
0000
,
0200
0000
0000
0000
,
0000
0000
0300
0000
0001
0100
0000
0001
,
0100
0000
0010
1000
0000
0010
1000
0010
,
1000
0000
0000
1010
,
0000
0000
0011
0000
,
0000
0000
0101
0000
0100
0001
0100
0000
,
0010
1000
0100
0000
0000
0000
0010
0001
,
0100
0000
0000
0000
0010
1000
0010
1000
,
0100
0000
0010
0001
0010
0001
0100
0000
,
0020
0000
0000
2030
,
0000
0000
3002
0000
,
0000
0203
0000
0000
,
0000
0000
0000
0300
,
0000
0000
0001
1000
,
0100
0010
0001
0000
1000
0000
0001
0000
,
0200
0010
0310
0020
,
1000
0000
1030
0000
1000
0100
0010
0100
,
1000
0000
0001
0100
0010
0100
0001
0000
,
2000
0000
0000
0002
,
0000
0000
0000
3003
0000
0000
0001
0100
0010
1000
0000
0000
,
0001
0010
0100
1000
0000
0000
1000
0100
0010
0001
0000
0000
,
1000
0000
0010
0000
0100
0000
0001
0000
0000
0000
0000
0000
1000
0000
0000
0100
0000
0000
0001
0000
0000
0100
0000
0000
,
1000
0100
0001
0100
1000
0010
0100
0010
,
1000
0000
0010
0000
0100
0000
0010
0000
1000
0000
0000
0000
0001
0100
0001
0000
,
1000
0010
1000
0000
0100
0000
0010
0000
0110
0000
0000
0000
1000
0001
1000
0001
,
1000
0000
0000
0000
,
0000
0000
0000
0000
;
#NOTES:
     dance-single:
     :
     Challenge:
     18:
     :
0000
0000
0000
0000
,
0000
0000
0000
0000
,
0000
0000
0000
0000
,
0000
0000
0000
0000
,
0000
0000
0000
0000
,
0000
0000
0000
0000
,
0000
0000
0000
0000
,
0000
0000
0000
0000
,
0000
0000
0000
0000
,
0000
0000
0000
0000
0001
0000
0000
0100
,
0010
2000
0010
3010
,
1000
0000
0000
0100
0010
0000
0001
0100
,
0001
0100
0001
0000
1000
0000
1100
0000
,
0000
0000
0000
0001
0000
0000
0101
0000
0000
1000
0010
1000
,
0010
0100
0101
0001
,
0010
0000
0110
0000
1000
0000
0000
0001
,
0100
0000
0010
0100
0010
0100
0010
0000
,
2000
3200
0302
0103
,
0000
0110
0000
0000
2000
0000
3200
0000
,
0310
0001
0200
0000
0320
0000
1030
0000
,
0002
0003
0001
0100
,
0100
0000
0100
0000
1010
0000
0000
1001
,
0000
0101
0010
0101
,
1001
0000
1000
0010
0100
0001
1000
0000
,
1100
0000
0000
0110
0000
0000
0001
0000
0000
1000
0100
1000
,
0100
1000
0100
1000
0000
0000
0010
0000
0000
0010
0000
0000
,
0100
0000
0101
0000
0011
0000
1000
0100
,
0000
0000
0110
0000
0001
0000
0000
0110
,
0000
1000
0100
1000
,
0010
0100
0100
0001
0100
0100
0010
0000
,
1000
0000
0000
0001
0000
0000
1000
0000
0000
0000
0000
0000
1001
0000
0000
0000
0000
0000
0001
0000
0010
0000
0001
0000
,
0010
0001
0010
0001
0000
0000
0100
0000
0000
0010
0000
0000
,
1000
0001
0010
0100
2000
0000
0001
0000
,
0000
3001
0000
0000
0001
0000
0000
0000
,
0001
0010
0000
0010
,
0100
0000
0000
0000
1000
0001
1000
0000
,
0000
0001
0200
0000
,
0000
0000
0000
0000
,
0310
0000
0000
1000
0000
0000
0010
0000
0000
1000
0000
0000
0100
0000
0000
1000
0000
0000
0001
0000
0010
0000
0100
0000
,
1000
0100
0010
0001
0010
0100
1000
0000
0000
0000
0000
0000
,
1001
0000
0001
0100
0010
1000
0001
0100
,
0020
0000
1030
2000
,
0000
3100
0110
0000
,
0001
0010
1000
0000
0000
0000
1000
0010
,
0001
0001
0000
1000
,
0100
0000
0000
0010
0000
0000
0001
0000
0000
0100
0010
0100
,
0010
1000
0010
0000
0100
0000
0001
0000
,
2000
0000
3001
2000
,
0000
3010
2000
0000
,
3100
0000
0000
0010
0001
0010
0001
1000
0001
1000
0000
0000
,
0002
0000
0000
0003
,
0101
0000
0011
0000
0010
0001
0100
0010
,
1000
0100
0010
1000
0001
0100
0010
0001
,
1000
0000
0000
1010
0000
0000
0010
0100
,
0001
0100
0001
1000
0002
0000
0000
0000
,
0000
2003
0000
0000
,
3020
0000
0000
0130
,
0001
0000
0001
0000
1000
0000
0010
0100
,
0000
0010
0100
0000
0001
0000
1001
0000
,
1000
0000
0000
0100
0010
0100
0010
0001
0010
0001
1000
0001
,
0100
0001
0100
0001
0000
0000
1000
0010
1000
0010
1000
0010
,
0100
0000
0000
0001
0100
0001
0100
0001
0100
0010
0000
0000
,
2000
0000
0000
0002
,
0000
0000
3003
0000
,
0000
0000
0000
0000
,
2000
0000
0000
3010
0001
0000
0010
0000
,
1010
0000
1001
0000
0002
0000
0000
0013
,
1000
0000
0010
0001
0100
0010
1000
0100
,
0010
0011
0001
1000
,
1010
0000
0000
0010
1000
0001
0100
0000
0000
0110
0000
0000
,
1100
0100
0110
0101
,
0002
0000
0000
1003
0010
0000
1000
0100
,
0010
0001
0100
0010
2000
0000
3200
0000
,
0302
0000
1003
0000
1000
0010
0000
0010
,
0001
0000
1001
0000
1000
0001
0100
0000
,
1000
0000
0000
0100
0000
0000
0001
0000
0000
0000
0000
0000
1000
0000
0010
0000
1000
0000
0010
0000
1000
0000
0010
0000
,
1000
0001
1000
0001
0000
0000
0101
0000
0000
0110
0000
0000
,
1001
0000
0000
0100
0010
0000
1001
0000
,
0010
0000
0100
0000
1001
0000
0000
0100
,
0010
0000
1001
0010
0100
0010
0100
0000
,
0110
1001
0010
1001
,
0110
0000
0000
1000
0001
1000
0001
0000
0000
0011
0000
0000
,
0110
1000
1010
0110
,
0001
0000
0000
0000
0000
0000
0000
0000
0000
1000
0000
0000
0100
0000
0000
0000
0000
0000
0010
0000
0100
0000
1000
0000
,
0100
0010
0100
1000
0100
0010
0200
0000
0000
2300
0000
0000
,
3001
0000
0100
0010
1000
0010
1000
0010
,
0200
0000
0000
0000
0000
0000
0000
0000
0000
0301
0010
0100
,
1000
0001
0010
0100
1000
0001
0010
0000
0000
0100
0000
0000
,
0110
0000
1000
0001
0100
0010
1000
0001
,
0100
0000
0000
0001
0000
0000
1000
0010
1000
0001
0100
0001
,
1000
0100
0010
0001
0010
0100
1000
0000
0000
0001
0010
0001
,
0010
0100
0010
0001
1000
0001
0100
0010
0100
0010
0000
0000
,
1010
1100
0001
0011
,
0101
0000
0000
0001
0010
0100
1000
0100
1000
0100
1000
0100
,
1000
0000
0000
0001
0010
0001
0010
0001
0010
0001
0000
0000
,
2002
0000
0000
0000
0000
0000
3003
0000
0000
0001
0100
0010
,
1000
0010
0100
0001
1000
0100
0010
0000
0000
0011
0000
0000
,
0001
0100
1000
0000
0001
0000
0010
0000
,
0110
0000
0000
1000
0010
1000
0001
0100
0001
1000
0100
1000
,
0001
0000
0010
0000
0001
0000
1000
0000
0100
0000
0010
0000
0001
0000
0000
0100
0000
0000
0100
0000
0000
0010
0000
0000
,
0100
0100
1000
0100
0100
0010
0100
0100
,
0002
0000
0000
0000
0000
0000
0000
0000
0000
1003
0010
1000
,
0001
0000
0010
0000
0001
0000
0010
0000
0100
0000
0010
0000
0100
0000
0000
1000
0000
0000
0010
0000
0000
1000
0000
0000
,
0100
0010
0001
0000
0100
1000
0100
0001
,
0100
0000
0000
1010
0000
0000
1000
0100
0010
0001
0000
0000
,
0011
0000
0000
0000
0000
0000
0001
0000
0000
0100
0000
0000
0010
0000
1000
0000
0010
0000
1000
0000
0010
0000
1000
0000
,
0010
0000
0000
1000
0100
1000
0100
1000
0100
1000
0000
0000
,
0002
0000
0000
0000
0000
0000
0000
0000
0000
0103
0010
1000
,
0001
1000
0010
0100
0000
0000
0001
0000
0000
0011
0000
0000
,
0110
0000
0000
1001
0000
0000
1000
0100
0010
0100
0010
0001
,
2000
0000
0000
3000
,
0000
0000
1000
0100
,
0001
0100
1000
0000
0001
0000
0100
0000
,
0020
0000
0000
0000
0000
0000
0030
0000
0000
0010
1000
0010
,
0100
0001
1000
0100
0010
0001
0010
0001
0010
0001
1000
0001
,
1000
0000
0000
0010
1000
0010
0100
0001
0100
0001
0000
0000
,
2000
0000
0000
0002
,
0000
0000
0000
3003
0000
0000
1000
0010
0100
0001
0100
0010
,
1000
0100
0010
0001
0010
0100
1000
0010
0100
0001
0010
0100
,
1000
0000
0000
0000
0100
0000
0000
0000
0010
0000
0000
0000
0001
0000
0000
0000
0100
0000
0000
0000
0010
0000
0000
0000
1000
0000
0000
0001
0000
0000
0100
0000
0000
0000
0000
0000
0010
0000
0000
0100
0000
0000
0001
0000
0000
0000
0000
0000
,
0010
0100
1000
0000
0001
0010
0100
0000
1000
0010
1000
0000
0001
0100
0001
0000
,
0010
0001
1000
0000
0010
0100
0001
0000
2000
0000
0000
0000
3001
0010
0100
1000
,
0010
0100
0001
0100
0010
1000
0001
0010
0100
0000
0000
0000
1000
0001
1000
0001
,
1000
0000
0000
0000
,
0000
0000
0000
0000
;
#NOTES:
     dance-double:
     :
     Easy:
     9:
     :
00000000
00000000
00000000
00000000
,
00000000
00000000
00000000
00000000
,
00000000
00000000
00000000
00000000
,
00000000
00000000
00000000
00000000
,
00000000
00000000
00000000
00000000
,
00000000
00000000
00000000
00000000
,
00000000
00000000
00000000
00000000
,
00000000
00000000
00000000
00000000
,
00000000
00000000
00000000
00000000
,
00000000
00000000
00000001
00000000
,
00000001
00000010
00000000
00000000
,
00000100
00000000
00000100
00001000
,
00000000
00000000
00000100
00010000
,
00000000
00001000
00010000
00000000
,
00002000
00000000
00003000
02000000
,
00000000
03000000
00010000
00000000
,
00010000
00100000
00000000
00000000
,
01000000
00000000
01000000
10000000
,
00000000
00000000
00010000
10000000
,
00010000
10000000
00000000
00000000
,
02000000
00000000
03000000
00200000
,
00000000
00000000
00300000
00000000
01100000
00000000
00000000
01100000
,
00000000
00000000
00000000
00000000
,
10010000
00000000
00000000
10010000
00000000
00000000
00000000
00000000
,
00000000
00000000
10000000
00000000
,
01000000
00010000
00000000
00010000
,
00001000
00000000
00001000
00000010
,
00000000
00000000
00000000
00000000
00000110
00000000
00000000
00000110
,
00000000
00000000
00000000
00000000
,
00001001
00000000
00000000
00001001
00000000
00000000
00000000
00000000
,
00000000
00000000
00000001
00000000
,
00000100
00001000
00000000
00001000
,
00010000
00000000
00010000
00100000
,
00000000
00000000
20000000
00000000
,
00000000
30000000
00000000
00000000
,
00020000
00000000
00000000
00030000
,
00000000
00000000
00200000
00000000
,
00000000
00000000
00000000
00000000
,
00300000
00000000
00000000
00000000
,
00000000
00000000
01100000
00000000
,
10000000
01000000
00000000
00000000
,
00100000
00010000
00100000
00001000
,
00000000
00000000
00011000
00000000
,
00010000
00000100
00000000
00001000
,
00000020
00000000
00000000
00000030
,
00000000
00000000
00000110
00000000
,
00000000
00000001
00001000
00000001
,
00002000
00000000
00000000
00003000
,
00000000
00000000
00001000
00000000
,
00001000
00000100
00000000
00000100
,
00020000
00000000
00000000
00030000
,
00000000
00000000
00001000
00010000
,
00001000
01000000
00000000
00000000
,
00010000
00000000
00000000
00010000
00000000
00000000
00100000
00000000
,
00000000
00000000
02000000
00000000
,
00000000
00000000
00000000
00000000
,
03000000
00000000
00000000
00000000
,
00000000
00000000
10000000
00000000
,
10000000
01000000
00000000
01000000
,
00100000
00000000
00100000
00001000
,
00000000
00000000
00010000
00000000
,
00010000
00000010
00000000
00000010
,
00002000
00000000
00000000
00000002
,
00000000
00000000
00003003
00000000
,
00000000
00000000
00000000
00000000
,
00000001
00000000
00000001
00001000
,
00000000
00001000
00000010
00000000
,
00000010
00010000
00000000
00000000
,
00001000
00001000
00000000
00010000
,
00010000
00000000
00022000
00000000
,
00000000
00033000
00000000
00000000
,
00001000
00000000
00001000
00100000
,
00000000
00100000
00010000
00000000
,
00010000
01000000
00000000
00000000
,
00100000
00000000
00100000
10000000
,
00000000
00000000
02000000
00000000
,
00000000
03100000
00000000
00000000
,
00010000
00000000
00010000
10000000
,
00000000
00000000
00100000
00000000
,
00100000
01000000
00000000
00000000
,
00001000
00010000
00000000
00001000
,
00010000
00000000
00002000
00000000
,
00000000
00003000
00000000
00000000
,
00010000
00000000
00010000
00000100
,
00000000
00000000
00001000
00000000
,
00001000
00000010
00000000
00000000
,
00000100
00000000
00000100
00000001
,
00000000
00000001
00000020
00000000
,
00000000
00000030
00000000
00000000
,
00000110
00000000
00000000
00000000
,
00000000
00000000
00000001
00000000
,
00000000
00000100
00000000
00000000
,
00001000
00000000
00000000
00010000
,
00000000
00000000
00100000
10000000
,
00100000
10000000
00000000
00000000
,
00010000
00000000
00000000
00100000
00000000
00000000
00010000
00000000
,
00000000
00000000
01000000
00001000
,
00010000
00001000
00000000
00000000
,
00020000
00000000
00000000
00030000
,
00000000
00000000
00000000
00000000
00001000
00000000
00000000
00001000
,
00000000
00000000
00010000
00000000
00000000
00010000
00000000
00000000
,
00000100
00000000
00000000
00000110
,
00000000
00000000
00000001
00000000
,
00000000
00001001
00000000
00000000
,
00000001
00000100
00000000
00000010
,
00001000
00000000
00000010
00010000
,
00001000
00010000
00000000
00000000
,
00002000
00000000
00000000
00000000
,
00000000
00000000
00023000
00000000
,
00000000
00000000
00000000
00000000
,
00000000
00000000
00000000
00030000
,
00000000
00000000
00001000
00010000
,
00001000
01000000
00000000
00000000
,
01100000
00000000
00000000
00000000
,
00000000
00000000
10000000
00100000
,
10000000
00010000
00000000
00000000
,
01100000
00000000
00000000
00000000
,
00000000
00000000
10000000
00000000
,
01000000
00000000
00010000
00001000
,
00000010
00000000
00000001
00000100
,
00000010
00001000
00000001
00000100
,
00000010
00000000
00020000
00000000
,
00032000
00000000
00013000
00001000
,
00011000
00000000
00000000
00000000
,
00000000
00000000
00000000
00000000
;
#NOTES:
     dance-double:
     :
     Medium:
     13:
     :
00000000
00000000
00000000
00000000
,
00000000
00000000
00000000
00000000
,
00000000
00000000
00000000
00000000
,
00000000
00000000
00000000
00000000
,
00000000
00000000
00000000
00000000
,
00000000
00000000
00000000
00000000
,
00000000
00000000
00000000
00000000
,
00000000
00000000
00000000
00000000
,
00000000
00000000
00000000
00000000
,
00000000
00000000
00000000
00000000
00000001
00000000
00000000
00001000
,
00000001
00000010
00000100
00000010
,
00000100
00000000
00000000
00001000
00000100
00000000
00010000
00000000
,
00001000
00010000
00001000
00001000
,
00000000
00010000
00010000
00000000
,
00001000
00010000
00100000
10000000
,
00010000
00000000
01000000
00000000
00100000
00000000
00000000
01000000
,
00100000
10000000
00010000
10000000
,
01000000
00000000
00100000
00010000
00100000
00000000
00001000
00000000
,
00000000
00010000
00000000
00000000
00002000
00000000
00023000
00000000
,
00030200
00002300
00000000
00000000
,
00003001
00000001
00000001
00000010
,
00000010
00000000
00000010
00000000
00000100
00000000
00000000
00000110
,
00000000
00000010
00000001
00000100
,
00001000
00000000
00000000
00011000
00000000
00000000
00010000
00000000
,
00001000
01000000
00020000
00000000
,
00000000
00000000
00000000
00030000
,
00010000
00100000
10000000
10000000
,
00100000
00000000
00010000
00000000
10000000
00000000
00000000
11000000
,
00000000
01000000
00100000
00001000
,
00010000
00001000
00000000
00010000
00001000
00000000
00010000
00000000
,
00000010
00001000
00000200
00000000
,
00000000
00000000
00000000
00000300
,
00001000
00000000
00000001
00000100
00000001
00000000
00000010
00000000
,
00000000
00000100
00000000
00000000
00001000
00000000
00000000
00000000
,
00001000
00000100
00000000
00000100
,
00010000
00000000
00010000
00001000
,
00000000
00001000
02000000
00000000
,
00000000
00000000
00000000
00000000
,
03000000
00000000
00000000
00000000
00000000
00000000
00010000
10000000
,
00010000
10000000
00010000
00000000
10000000
00000000
00100000
00000000
,
00100000
00000000
01000000
00010000
01000000
00000000
00100000
00000000
,
01000000
00000000
01000000
00001000
,
00000000
00001000
00010000
00000000
,
00000000
00011000
00000000
00000000
,
00010000
00001000
00001000
00000010
,
00000001
00000000
00000010
00000000
00000001
00000000
00000100
00000010
,
00000000
00000010
00001000
00000100
,
00002000
00000000
00003000
00000200
,
00000000
00000300
00010000
00000000
,
00010000
00000000
00001000
01000000
00001000
00000000
00010000
00000000
,
00200000
00000000
00000000
00300000
,
00100000
01000000
00010000
10000000
,
10000000
01000000
00100000
00100000
,
00001000
00000000
00000000
00011000
00000000
00000000
00010000
00001000
,
00010000
00000000
00000010
00001000
00000020
00000000
00000000
00000000
,
00000000
00000230
00000000
00000000
,
00000302
00000000
00000000
00000003
,
00000000
00000000
00000000
00000000
00000001
00000000
00001000
00000100
,
00000000
00000100
00020000
00000000
00000000
00000000
00030000
00000000
,
00001000
00000000
00100000
00010000
00000000
00010000
02000000
00000000
,
00000000
03000000
00010000
10000000
,
01000000
00010000
00001000
00001000
,
00020000
00000000
00000000
00002000
,
00000000
00000000
00033000
00000000
,
00000000
00000000
00000000
00000000
,
00001000
00000000
00000000
00001000
00010000
00000000
00000100
00000000
,
00001000
00000000
00000100
00000000
00001000
00000000
00000000
00001000
,
00000010
00000100
00000001
00000100
,
00000001
00000001
00000000
00001000
,
00001000
00000000
00000001
00000010
,
00001000
00010000
01000000
10000000
,
00010000
00000000
00000000
00010000
01000000
00000000
00100000
10000000
,
00100000
10000000
02000000
03200000
,
00320000
00000000
00230000
00000000
00000000
00301000
00000000
00000000
,
00010000
00000000
00000100
00000000
00001000
00000010
00002000
00000000
,
00000000
00003000
00001000
00000001
,
00000001
00000100
00000010
00000010
,
00001010
00000000
00000000
00001100
,
00000000
00000000
00011000
00000000
,
00000000
00110000
00000000
00000000
,
00010000
01000000
01000000
00100000
,
10000000
10000000
00100000
01000000
,
00001000
00010000
00000100
00001000
,
00000010
00000000
00000000
00000010
00000100
00000000
00000001
00000000
,
00000010
00000001
00000200
00002300
,
00023000
00000000
00130000
00000000
00000000
01100000
00000000
00000000
,
10010000
00000000
00000000
10000000
,
01000000
00100000
01000000
00000000
10000000
00000000
00000000
00000000
,
10000000
00010000
00000000
00010000
,
00200000
00000000
00000000
00000000
,
00000000
00000000
00000000
00000000
,
00000000
00000000
00000000
00300000
,
00001000
00010000
00000000
00100000
,
00010000
00000000
00001000
00010000
,
00001000
00000100
00001000
00010000
,
00001000
00000000
00000000
00001000
00010000
00000000
00000010
00000000
,
00001000
00000100
00001000
00000001
,
00000100
00000010
00000200
00000000
00000000
00000000
00000000
00000000
,
00000302
00000000
00000000
00000000
,
00000000
00000000
00000003
00000000
00000001
00000000
00000001
00000100
,
00000000
00000000
00001000
00000000
00001000
00010000
00000000
00000000
,
00002000
00000000
00000000
02003000
,
00000000
00000000
03020000
00000000
,
00000000
00230000
00000000
00000000
,
01300000
10000000
00000000
01000000
,
00010000
00000000
01000000
10000000
,
00010000
00100000
00010000
00100000
,
00002000
00000000
00000000
00000010
,
00000000
00000000
00023000
00000000
,
00000000
00100000
00000000
00000000
,
00002000
00000000
00000000
00033000
,
00000000
00000000
00001000
00010000
,
00000100
00001000
00000200
00000000
00000000
00000000
00000000
00000000
,
00000001
00000000
00000000
00001300
,
00000000
00000000
00000001
00000100
,
00001000
00010000
00001000
00000000
00010000
00000000
00100000
00000000
,
20000000
00000000
00000000
00020000
,
00000000
30030000
10000000
11000000
,
01000000
01100000
00100000
00101000
,
00001000
00000000
00011000
00000000
00010000
00000010
00001000
00000000
,
00000100
00000010
00000001
00000000
00001000
00000001
00001000
00000000
,
00000001
00000100
00002000
00023000
,
00130000
10000000
00100000
00000000
01000000
00000000
00010000
10000000
,
00010000
00000000
00000000
00000000
,
00000000
00000000
00000000
00000000
;
#NOTES:
     dance-double:
     :
     Hard:
     15:
     :
00000000
00000000
00000000
00000000
,
00000000
00000000
00000000
00000000
,
00000000
00000000
00000000
00000000
,
00000000
00000000
00000000
00000000
,
00000000
00000000
00000000
00000000
,
00000000
00000000
00000000
00000000
,
00000000
00000000
00000000
00000000
,
00000000
00000000
00000000
00000000
,
00000000
00000000
00000000
00000000
,
00000000
00000000
00000000
00000000
00000001
00000000
00000000
00000001
,
00000010
00000100
00001000
00000010
,
00001000
00000000
00000000
00001000
00000100
00000000
00010000
00000000
,
00001000
00010000
01000000
01000000
,
10000000
00100000
00100000
10000000
,
01000000
00100000
01000000
00000000
00100000
00000000
00001000
00010000
,
00001000
00000000
00010000
00000000
00001000
00000000
00000000
00001000
,
00010000
00000100
00001000
00000010
,
00001000
00000100
00001000
00000100
00001000
00000000
00000001
00000000
,
00000000
00000101
00000000
00000000
00000200
00000000
00002300
00000000
,
00013000
00001000
00010000
00000000
00001000
00000000
00001000
00000000
,
00100000
00000000
00010000
00000000
00010000
00000000
01000000
00100000
,
01000000
00100000
10000000
00100000
10000000
00000000
00000000
01100000
,
00000000
10000000
00100000
00010000
,
00001000
00000000
00010000
00001000
00010000
00001000
00010000
00000000
,
00001000
00000010
00000002
00000000
,
00000000
00000000
00000000
00000003
,
00000001
00000000
00001000
00000000
00001000
00000000
00000100
00010000
,
00001000
00010000
00000100
00000000
00010000
00000000
00000000
00011000
,
00000000
00001000
01000000
00010000
,
01000000
00100000
10000000
00000000
01000000
00100000
00010000
00000000
,
01000000
01000000
20020000
00000000
,
00000000
00000000
00000000
30030000
,
10000000
00010000
10000000
00010000
10000000
00000000
00100000
00000000
,
00000000
00010000
00000000
00000000
00002000
00000000
00000000
00000000
,
00000000
00003200
00000000
00000000
,
00000302
00000000
00000000
00000023
,
00000000
00000030
00000110
00000000
,
00000000
00000000
00000000
00000000
,
00000000
00000000
00000000
00000000
00000000
00000000
00000001
00000100
,
00000001
00000100
00000001
00000000
00001000
00000000
00000010
00000000
,
00010000
00000000
00001000
00010000
00001000
00010000
00001000
00000000
,
00200000
00000000
00310000
02000000
,
00000000
03010000
00100000
00000000
,
00010000
10000000
01000000
00000000
00000000
00000000
10000000
00010000
,
01000000
00100000
00100000
10000000
,
00010000
10000000
00010000
00000000
00100000
00000000
00100000
00001000
,
00000000
00001000
00010000
00000000
00001000
00000000
00010000
00000000
,
00000020
00000030
00000010
00002000
,
00003000
00001000
00000100
00000001
,
00000100
00000000
00000010
00000001
00000010
00000001
00000010
00000000
,
00000001
00000100
00001000
00010000
,
00001000
00000000
00001000
00000000
00010000
00000000
00100000
10000000
,
00100000
00000000
01000000
00010000
01000000
00000000
00100000
00000000
,
10000000
00000000
00000000
10010000
00000000
00000000
10000000
01000000
,
00100000
00000000
00001000
00010000
00002000
00000000
00000000
00000000
,
00000000
00003020
00000000
00000000
,
00000032
00000000
00000000
00000003
,
00000000
00000000
00000000
00000000
00000001
00000000
00000000
00000100
,
00000000
00001001
00000000
00000000
,
00000001
00000100
00001000
00011000
,
00000000
00000000
00000000
00000000
00001000
00010000
00001000
00000000
,
00100000
00000000
00010000
01000000
00010000
00000000
00100000
00000000
,
02000000
00000000
00000000
00200000
,
00000000
00000000
03300000
00000000
,
00000000
00000000
00000000
00000000
,
10000000
00000000
00000000
01000000
00010000
00000000
01000000
00000000
,
00100000
00000000
00001000
00000000
00010000
00000000
00000000
00010000
,
00001000
00000000
00000100
00000001
00000100
00000010
00000100
00000000
,
00000001
00000011
00000000
00001000
,
00001010
00000000
00000101
00000100
,
00001000
00011000
00010000
00100000
,
10000000
00000000
00000000
00010000
00100000
00000000
00010000
01000000
,
00001000
01000000
00010000
00000000
02000000
00000000
03200000
00000000
,
00320000
00000000
00031000
00000000
00000000
00011000
00000000
00000000
,
00010000
00000000
00001000
00000000
00000010
00000100
00000020
00000000
,
00000000
00000030
00000010
00000001
,
00000101
00000100
00000010
00001010
,
00001001
00000000
00000000
00000001
00000100
00000000
00001000
00000000
,
00010000
00000000
00010000
00000000
00011000
00000000
00000000
00001000
,
00010000
00000000
00100000
01000000
00100000
10000000
00010000
00000000
,
10010000
01100000
00000000
10010000
,
01100000
00000000
10000000
00100000
,
01100000
01000000
00001000
00011000
,
00010000
00000000
00000000
00000100
00001000
00000000
00000020
00000000
,
00000230
00000000
00000301
00001000
00000002
00000000
00000023
00000000
,
00000230
00000000
00001300
00000000
00000000
00000110
00000000
00000000
,
00001001
00000000
00000000
00000000
00000000
00000000
00000001
00000100
,
00000010
00000000
00001000
00000010
00001000
00000000
00000100
00000000
,
00010000
00001000
00001000
00010000
,
00022000
00000000
00000000
00000000
,
00000000
00000000
00000000
00000000
,
00000000
00000000
00000000
00033000
,
00011000
01001000
00000000
01010000
,
01100000
00000000
10010000
11000000
,
01000000
01100000
00101000
00001000
,
00010000
00000000
00000000
00010000
00001000
00000000
00010000
00000000
,
01000000
00010000
00001000
00000010
,
00000001
00001000
00000100
00000000
00001000
00000000
00000010
00000000
,
00000200
00000000
00000000
00000000
,
00000000
00000000
00000300
00000000
00000001
00000010
00000000
00000010
,
00001000
00000000
00001000
00010000
00000000
00010000
00001000
00010000
,
00001000
00000000
00000000
00011000
,
00000000
00000000
01100000
00000000
,
00000000
00000000
10010000
00000000
10000000
01000000
00100000
00000000
,
00010000
01000000
00100000
00000000
00000000
00000000
01000000
00001000
,
00010000
00000000
00000000
00000000
00001000
00010000
00000100
00001000
,
00000001
00000000
00000010
00000001
00000100
00000010
00001000
00000000
,
00000200
00000000
00000000
00020300
,
00000000
00000000
00032000
00000000
,
00000000
02003000
00000000
00000000
,
00000000
00000000
00000000
03000000
,
00000000
00000000
00010000
10000000
,
00100000
01000000
00010000
00000000
00100000
00000000
00001000
00000000
,
00020000
00031000
00011000
00010000
,
00001000
00000000
00000010
00000000
00000001
00001000
00000100
00001000
,
00000100
00000000
00010000
00001000
00100000
00010000
00100000
00000000
,
02000000
00000000
00000000
20000000
,
00000000
00000000
00000000
33000000
00000000
00000000
10000000
00010000
10000000
00010000
00000000
00000000
,
00100000
00001000
00100000
00001000
00000000
00000000
00010000
00000100
00010000
00000100
00000000
00000000
,
00001000
00000000
00000001
00000000
00001000
00000000
00000001
00000000
00000000
00000000
00000000
00000000
00001000
00000000
00000000
00000001
00000000
00000000
00000010
00000000
00000000
00000100
00000000
00000000
,
00001000
00000010
00000100
00001000
00010000
00100000
01000000
00001000
,
00010000
00000000
00100000
00000000
01000000
00000000
00000000
00000000
00010000
00000000
10000000
01000000
10000000
00000000
01000000
00000000
,
00100000
00000000
00010000
00100000
00010000
00000000
00100000
00000000
00001000
00000000
00000000
00000000
00010000
00001000
00010000
00001000
,
00010000
00000000
00000000
00000000
,
00000000
00000000
00000000
00000000
;
#NOTES:
     dance-double:
     :
     Challenge:
     18:
     :
00000000
00000000
00000000
00000000
,
00000000
00000000
00000000
00000000
,
00000000
00000000
00000000
00000000
,
00000000
00000000
00000000
00000000
,
00000000
00000000
00000000
00000000
,
00000000
00000000
00000000
00000000
,
00000000
00000000
00000000
00000000
,
00000000
00000000
00000000
00000000
,
00000000
00000000
00000000
00000000
,
00000000
00000000
00000000
00000000
00000001
00000000
00000000
00000100
,
00000010
00002000
00000100
00003100
,
00010000
00000000
00000000
00001000
00010000
00000000
00001000
00100000
,
00001000
00010000
00001000
00010000
00100000
00000000
01100000
00000000
,
00000000
00000000
00000000
10000000
00000000
00000000
10010000
00000000
00000000
00010000
00100000
00010000
,
00100000
01000000
01000000
10000000
,
00100000
00000000
00100000
00000000
00010000
00000000
00000000
00001000
,
00010000
00000000
00001000
00010000
00000010
00001000
00000010
00000000
,
00002000
00003200
00000302
00001003
,
00000000
00000110
00000000
00000000
00000002
00000000
00000203
00000000
,
00001300
00010000
00200000
00000000
20300000
00000000
30010000
00000000
,
01000000
00010000
01000000
00001000
00010000
00000000
00001000
00010000
,
00000100
00001000
00000100
00000000
00000010
00000000
00000000
00001001
,
00000000
00000001
00000001
00000010
,
00001000
00000000
00010000
00001000
00100000
00001000
00010000
00000000
,
00100000
00000000
00000000
10000000
00000000
00000000
10010000
00000000
00000000
10000000
01000000
10000000
,
01000000
10000000
01000000
00100000
00000000
00000000
00010000
00000000
00000000
01010000
00000000
00000000
,
01000000
00000000
00100000
00000000
00010000
00000000
00001000
00000100
,
00000000
00000000
00000110
00000000
00000001
00000000
00000000
00000110
,
00000000
00000001
00000010
00000100
,
00010000
00001000
00001000
00000100
00001000
00001000
00010000
00000000
,
00001000
00000000
00000000
01000000
00000000
00000000
00001000
00000000
00000000
00000000
00000000
00000000
00010000
00000000
00000000
00000000
00000000
00000000
00001000
00000000
00010000
00000000
00001000
00000000
,
00010000
00001000
00010000
00001000
00000000
00000000
00010000
00000000
00000000
00001000
00000000
00000000
,
01000000
00010000
01000000
00100000
20000000
00000000
00010000
00000000
,
00000000
30010000
00000000
00000000
00010000
00000000
00000000
00000000
,
00010000
00100000
00000000
00100000
,
00001000
00000000
00000000
00000000
00010000
00001000
00010000
00000000
,
00000000
00001000
00022000
00000000
,
00000000
00000000
00000000
00033000
,
00010000
00000000
00000000
00000100
00000000
00000000
00010000
00000000
00000000
00000100
00000000
00000000
00001000
00000000
00000000
00000100
00000000
00000000
00000010
00000000
00000001
00000000
00000010
00000000
,
00000001
00001000
00000001
00001000
00000000
00000000
00000001
00000000
00000000
00000000
00000000
00000000
,
00001001
00000000
00000001
00000100
00001000
00000000
00010000
00100000
,
20000000
30000000
01000000
00020000
,
00030000
00001000
00011000
00000000
,
00010000
00001000
00000010
00000000
00000000
00000000
00001000
00010000
,
00100000
00010000
00000000
00001000
,
00010000
00000000
00000000
00001000
00000000
00000000
00000100
00000000
00000000
00000010
00001000
00000010
,
00001000
00000001
00001000
00000000
00000100
00000000
00000010
00000000
,
00000002
00000003
00000001
00002000
,
00003000
00001000
00020000
00030000
,
00010000
00000000
00000000
10000000
00000000
00000000
10000000
01000000
00100000
00010000
00000000
00000000
,
20000000
00000000
00000000
30000000
,
11000000
00000000
01100000
00000000
00100000
00010000
00100000
00001000
,
00010000
00000100
00001000
00000010
00000100
00000001
00000010
00000100
,
00001000
00000000
00000000
00000110
00000000
00000000
00000001
00000100
,
00000010
00010000
00001000
00010000
00002000
00000000
00000000
00000000
,
00000000
02003000
00000000
00000000
,
03200000
00000000
00000000
10300000
,
01000000
00000000
01000000
00000000
01100000
00000000
00100000
01000000
,
00000000
00100000
01000000
00000000
10000000
00000000
00100000
00000000
,
00010000
00000000
00000000
00001000
00010000
00001000
00010000
00000100
00010000
00000100
00000000
00000000
,
00001000
00000010
00001000
00000010
00000000
00000000
00000100
00000001
00000100
00000001
00001000
00000100
,
00001000
00000000
00000000
00000100
00010000
00000100
00010000
00001000
00010000
00001000
00000000
00000000
,
00020000
00000000
00000000
00002000
,
00000000
00000000
00033000
00000000
,
00000000
00000000
00000000
00000000
,
00002000
00000000
00000000
00013000
01000000
00000000
00100000
00010000
,
10000000
00010000
00100000
00000000
02000000
00000000
00000000
13000000
,
00010000
00000000
01000000
00001000
00010000
00001000
00010000
00000010
,
00001000
00001100
00000100
00000010
,
00000011
00000000
00000000
00000001
00001000
00000100
00001000
00000000
00000000
00001010
00000000
00000000
,
00010010
00010000
00011000
01001000
,
02000000
00000000
00000000
03010000
00100000
00000000
00010000
10000000
,
01000000
00100000
00010000
00000000
02000000
00000000
23000000
00000000
,
32000000
00000000
03001000
00000000
00010000
00000100
00000000
00000100
,
00000001
00000000
00000100
00000000
00001000
00000001
00000100
00000000
,
00001000
00000000
00000000
00010000
00000000
00000000
00001000
00000000
00000000
00000000
00000000
00000000
01000000
00000000
00010000
00000000
01000000
00000000
00010000
00000000
01000000
00000000
00010000
00000000
,
01000000
00100000
01000000
00100000
00000000
00000000
10100000
00000000
00000000
10010000
00000000
00000000
,
10000000
00000000
00000000
01000000
00010000
00000000
00011000
00000000
,
00001000
00000000
00000010
00000000
00001001
00000000
00000000
00000001
,
00000100
00000000
00001000
00010000
00100000
00010000
00001000
00000000
,
00011000
01001000
01000000
01010000
,
00110000
00000000
00000000
00010000
00100000
01000000
10000000
00000000
00000000
01000000
00000000
00000000
,
01000000
00010000
00001000
00001000
,
00011000
00000000
00000000
00000000
00000000
00000000
00000000
00000000
00000000
00010000
00000000
00000000
00000010
00000000
00000000
00000000
00000000
00000000
00001000
00000000
00000010
00000000
00000100
00000000
,
00000010
00001000
00000010
00000100
00000010
00001000
00000020
00000000
00000000
00000230
00000000
00000000
,
00000301
00000000
00000010
00000000
00001000
00010000
00001000
00010000
,
00002000
00000000
00000000
00000000
00000000
00000000
00000000
00000000
00000000
00103000
00010000
00100000
,
00010000
00100000
00010000
00100000
01000000
00100000
01000000
00000000
00000000
10000000
00000000
00000000
,
10010000
00000000
00010000
00100000
00010000
00100000
00001000
00000000
,
00010000
00000000
00000000
00011000
00000000
00000000
00001000
00010000
00000100
00001000
00000000
00000000
,
00000100
00000010
00000100
00001000
00000100
00010000
00001000
00000000
00000000
00010000
00001000
00010000
,
00001000
00000000
00000000
01000000
00100000
01000000
00010000
01000000
00001000
00010000
00000000
00000000
,
00001000
00011000
00000000
00010000
,
00011000
00000000
00000000
00010000
00000010
00010000
00000010
00001000
00000010
00001000
00000010
00001000
,
00000010
00000000
00000000
00000100
00000001
00000100
00000001
00000100
00000001
00000100
00000000
00000000
,
00002002
00000000
00000000
00000000
00003003
00000000
00001000
00000010
,
00000100
00000001
00000100
00000010
00010000
00001000
00100000
00010000
,
01000000
00100000
10000000
00000000
00010000
00000000
01000000
00000000
,
01100000
00000000
00000000
00100000
10000000
00100000
10000000
00100000
10000000
00010000
01000000
00010000
,
01000000
00000000
00010000
00000000
01000000
00000000
00010000
00000000
00000000
00000000
00000000
00000000
00100000
00000000
00000000
00010000
00000000
00000000
00010000
00000000
00000000
00001000
00000000
00000000
,
00010000
00010000
01000000
00010000
00010000
00001000
00001000
00000100
,
00000020
00000000
00000000
00000000
00000000
00000000
00000000
00000000
00000000
00000031
00001000
00000001
,
00001000
00000000
00000001
00000000
00001000
00000000
00000001
00000000
00000000
00000000
00000000
00000000
00001000
00000000
00000000
00000010
00000000
00000000
00001000
00000000
00000000
00000010
00000000
00000000
,
00001000
00000100
00001000
00000000
00000100
00010000
00000100
00010000
,
00001000
00000000
00000000
00011000
00000000
00000000
00010000
00001000
01000000
00001000
00000000
00000000
,
01000000
00000000
00000000
01100000
00000000
00000000
10000000
00100000
10000000
00100000
10000000
00100000
,
10000000
00000000
00000000
01000000
00100000
01000000
00100000
01000000
00100000
01000000
00000000
00000000
,
00200000
00000000
00000000
00302000
,
00000000
00000000
00023000
00000000
,
00000000
00030200
00000000
00000000
,
00000320
00000000
00000000
00000030
,
00000000
00000000
00000001
00001000
,
00000010
00000001
00000010
00000000
00010000
00000000
00001000
00000000
,
00020000
00000000
00000000
00000000
00000000
00000000
00030000
00000000
00000000
00010000
00001000
00010000
,
00001000
00100000
00001000
00100000
00010000
00100000
00010000
00000000
00000000
01000000
00100000
01000000
,
00100000
00000000
00000000
10000000
00100000
10000000
00010000
01000000
00010000
01000000
00000000
00000000
,
00200000
00000000
00000000
02000000
,
00000000
00000000
00000000
03300000
00000000
00000000
10000000
00010000
00100000
01000000
10000000
00010000
,
10000000
01000000
00100000
00010000
01000000
00100000
00010000
00001000
00000010
00000100
00001000
00000010
,
00000100
00000000
00000000
00000000
00000001
00000000
00000000
00000000
00000010
00000000
00000000
00000000
00000001
00000000
00000000
00000000
00000100
00000000
00000000
00000000
00000010
00000000
00000000
00000000
00001000
00000000
00000000
00000010
00000000
00000000
00001000
00000000
00000000
00000000
00000000
00000000
00000001
00000000
00000000
00000100
00000000
00000000
00000001
00000000
00000000
00000000
00000000
00000000
,
00000010
00000100
00001000
00000000
00000100
00010000
00000100
00000000
00010000
00001000
00010000
00000000
00001000
00100000
00001000
00000000
,
01000000
00010000
01000000
00000000
00010000
00100000
01000000
00000000
20000000
00000000
00000000
00000000
30100000
01000000
00010000
00100000
,
01000000
00000000
00100000
00001000
00010000
00000000
00001000
00010000
00000010
00000000
00000000
00000000
00001000
00000001
00001000
00000001
,
00001000
00000000
00000000
00000000
,
00000000
00000000
00000000
00000000
;
