#VERSION:0.83;
#TITLE:Florence;
#ARTIST:BEMANI Sound Team "TATSUYA";
#BANNER:Florence.png;
#BACKGROUND:Florence-bg.png;
#CDTITLE:./CDTitles/DDR WORLD.png;
#MUSIC:Florence.ogg;
#SAMPLESTART:68.417;
#SAMPLELENGTH:15;
#BPMS:0=135;
#NOTEDATA:;
#STEPSTYPE:dance-single;
#DIFFICULTY:Beginner;
#METER:2;
#NOTES:
0000
0000
0000
0000
,
0000
0000
0000
0000
,
0000
0000
0000
0000
,
0000
0000
0000
0000
,
0000
0000
0000
0000
,
0001
0000
0000
0000
,
1000
0000
0000
0000
,
0001
0000
0000
0000
,
1000
0000
0000
0000
,
0010
0000
0000
0000
,
0010
0000
0000
0000
,
0010
0000
0010
0000
,
0010
0000
0000
0000
,
0000
0000
0000
0000
,
0010
0000
0000
0000
,
0000
0000
0000
0000
,
0010
0000
0000
0000
,
0000
0000
0000
0000
,
0100
0000
0000
0000
,
0100
0000
0000
0000
,
0100
0000
0100
0000
,
0010
0000
0010
0000
,
1000
0000
0000
0000
,
0000
0000
0000
0000
,
1000
0000
0000
0000
,
0000
0000
0000
0000
,
0001
0000
0000
0000
,
0001
0000
0000
0000
,
0001
0000
0001
0000
,
1000
0000
1000
0000
,
0010
0000
0000
0000
,
0010
0000
0000
0000
,
0100
0000
0000
0000
,
0100
0000
0000
0000
,
0010
0000
0000
0000
,
0100
0000
0000
0000
,
0010
0000
0100
0000
,
0010
0000
0100
0000
,
0000
0000
0001
0000
,
0000
0000
0001
0000
,
0000
0000
0001
0000
,
0000
0000
0001
0000
,
0000
0000
1000
0000
,
0000
0000
1000
0000
,
0000
0000
1000
0000
,
0001
0000
1000
0000
,
0001
0000
1001
0000
,
0000
0000
0000
0000
,
0000
0000
1001
0000
,
0000
0000
0000
0000
,
0000
0000
1000
0000
,
0000
0000
0001
0000
,
0000
0000
0010
0000
,
0000
0000
0100
0000
,
0000
0000
0000
0000
,
1001
0000
0000
0000
;
#NOTEDATA:;
#STEPSTYPE:dance-single;
#DIFFICULTY:Easy;
#METER:5;
#NOTES:
0000
0000
0000
0000
,
0000
0000
0000
0000
,
0000
0000
0000
0000
,
0000
0000
0000
0000
,
0000
0000
0000
0000
,
1000
0100
1000
0000
,
0001
0010
0001
0000
,
0100
0010
0100
0000
,
0010
0000
0100
0100
,
1001
0000
0000
0000
,
1100
0000
0000
0000
,
0110
0000
0011
0000
,
0001
1000
0001
1000
,
0000
0000
0000
0000
,
0002
0000
0000
0000
,
0000
0000
0000
0003
,
0020
0000
0000
0000
,
0000
0000
0000
0030
,
0200
0000
0000
0000
,
0000
0000
0000
0300
,
0020
0000
0000
0030
,
0002
0003
2000
3000
,
0020
0000
0000
0030
,
0200
0000
0000
0300
,
0002
0000
0000
0003
,
2000
0000
0000
3000
,
0002
0000
0000
0003
,
2000
0000
0000
3000
,
0200
0000
0000
0300
,
0020
0030
0200
0300
,
2000
0000
0000
0000
,
0000
0000
0000
3000
,
0002
0000
0000
0003
,
0010
0000
0100
0100
,
1001
1000
0100
1000
,
0011
0010
0001
0010
,
0110
0000
1001
0000
,
0001
0001
1000
1000
,
0000
0000
0001
0010
,
0001
0010
0001
0100
,
0001
0100
0010
1000
,
0010
1000
0100
1000
,
0100
1000
1100
0000
,
0110
0000
0011
0000
,
1001
0000
0001
0100
,
0001
0100
0010
1000
,
0010
1000
0002
0000
,
0000
0000
0000
0000
,
0000
0003
2000
0000
,
0000
0000
0000
0000
,
0000
3000
0001
0100
,
1000
0100
0001
0010
,
0001
0010
0001
0100
,
0010
1000
0002
0003
,
2000
3000
0000
0000
,
2002
0000
0000
0000
,
0000
0000
0000
0000
,
0000
0000
0000
0000
,
0000
0000
3003
0000
;
#NOTEDATA:;
#STEPSTYPE:dance-single;
#DIFFICULTY:Medium;
#METER:11;
#BPMS:0=270,40=135,56=270,88=135,92=67.5,104=270,120=67.5,132=270,148=135,164=270,196=135,198=270,262=135,278=270,310=135,312=67.5;
#NOTES:
0000
0000
0000
0000
,
0000
0000
0000
0000
,
0000
0000
0000
0000
,
0000
0000
0000
0000
,
0000
0000
0000
0000
,
0000
0000
0000
0000
,
0000
0000
0000
0000
,
0000
0000
0000
0000
,
0000
0000
0000
0000
,
0000
0000
0000
0000
,
1000
1000
0001
0001
,
1000
1000
0001
0001
,
1000
1000
0010
0010
,
0100
0100
0010
0010
,
1000
0000
1000
0000
,
0001
0000
0001
0001
,
0100
0000
0100
0000
,
0010
0000
0010
0000
,
1010
0000
0000
0000
,
1001
0000
0000
0000
,
0001
0100
0001
0100
,
0010
1000
0010
0000
,
0000
0000
0000
0000
,
2000
0000
3020
0000
0230
0000
0302
0000
0023
0000
0230
0000
2300
0000
3001
0100
,
0002
0000
0000
0000
0203
0000
0000
0000
0320
0000
0000
0000
2030
0000
0000
0000
3001
0000
0000
1000
0000
0000
0001
0000
0000
0000
0100
0000
0100
0000
0000
0000
,
0002
0000
0000
0000
0023
0000
0000
0000
0230
0000
0000
0000
2300
0000
0000
0000
3010
0000
0000
0100
0000
0000
0010
0000
0000
0000
0000
0000
1000
0000
1000
0000
,
0001
0010
0001
0010
,
0100
1000
0100
0000
,
0010
0100
0010
0000
,
0001
0000
1000
1000
,
0002
0000
0023
0000
0230
0000
2300
0000
3020
0000
0230
0000
2300
0000
3100
1000
,
0200
0000
0000
0000
0320
0000
0000
0000
2030
0000
0000
0000
3002
0000
0000
0000
1003
0000
0000
0001
0000
0000
1000
0000
0000
0000
0000
0000
1001
0000
0000
0000
,
2000
0000
0000
0000
3020
0000
0000
0000
0230
0000
0000
0000
0302
0000
0000
0000
0013
0000
0000
0100
0000
0000
0010
0000
0000
0000
0000
0000
0001
0000
0001
0000
,
1000
1000
0001
0001
,
0010
0100
0010
0000
,
0001
1000
0010
0100
,
0010
0000
0010
0000
,
0200
0000
0000
0300
,
0020
0000
0000
0030
,
2000
0000
0000
3000
,
0002
0000
0000
0003
,
0010
0001
1000
0000
,
0010
0100
0001
0000
,
1000
0001
0100
0000
,
0010
1000
0100
0000
,
0010
0000
0011
0000
,
0110
0000
1100
0000
,
1001
0000
1001
0000
,
1000
0001
1000
0001
,
0000
0000
1000
0100
,
1000
0100
0010
0001
,
1000
0000
0001
0010
,
0001
0010
0100
1000
,
0001
0000
0110
0000
,
1001
0000
0101
0000
,
1010
0000
0000
0000
1000
0000
0000
0001
,
0000
0000
1000
0000
0000
0001
0000
0000
,
1000
0000
0001
0000
,
0001
0000
0010
0100
,
0010
0000
0100
0000
,
0100
0000
1000
0100
,
1000
0000
0100
1000
,
0010
0000
0100
0001
,
0010
0000
0010
0001
,
0100
0001
0010
0001
,
0100
0001
0020
0000
,
0000
0000
0000
0030
,
0000
0000
0100
0000
0000
0100
0000
0000
2002
0000
0000
0000
0000
0000
0000
0000
,
0000
3003
1000
1000
,
0001
0000
0001
0001
1000
0000
0100
0000
,
0001
0100
1000
0100
,
0001
0000
0100
1000
,
0100
1000
0010
1000
,
0010
0000
0010
1000
,
0100
0001
0100
1000
,
0010
0100
1000
0100
,
0001
0010
0100
1000
,
0100
0010
0000
0000
,
2002
0000
0000
0000
,
0000
0000
0000
3003
;
#NOTEDATA:;
#STEPSTYPE:dance-single;
#DIFFICULTY:Hard;
#METER:16;
#BPMS:0=270,40=135,56=270,88=135,92=67.5,104=270,120=67.5,132=270,148=135,164=270,196=135,198=270,262=135,278=270,310=135,312=67.5;
#NOTES:
0000
0000
0000
0000
,
0000
0000
0000
0000
,
0000
0000
0000
0000
,
0000
0000
0000
0000
,
0000
0000
0000
0000
,
0000
0000
0000
0000
,
0000
0000
0000
0000
,
0000
0000
0000
0000
,
0000
0000
0000
0000
,
0000
0000
0000
0000
,
1000
0100
1000
0001
0000
0100
0000
0010
0000
1000
0000
0001
0000
0001
1000
0000
,
0010
0000
0000
0100
0000
0001
0000
1000
0000
0001
0000
0010
0000
0100
0010
0000
,
0001
0010
0001
1000
0000
0010
0000
0100
0000
0001
0000
1000
0000
1000
0000
1000
,
0001
1000
0001
0010
0000
0100
0000
0010
0000
0001
0010
0000
0100
1000
0100
1000
,
0001
0010
0100
0000
0010
0000
0100
0000
,
1000
0100
0010
0000
0100
0000
0010
0000
,
0001
0100
0010
0000
0100
0000
0010
0000
,
1000
0010
0100
0000
0010
0000
0100
0000
,
0001
0010
0100
0000
0100
1000
0100
0000
,
1000
0100
0010
0000
0010
0001
0010
0000
,
0001
0001
1000
1000
,
1000
0001
0010
0100
1000
0001
0010
0100
,
0000
0000
0000
0000
,
1000
0100
0010
0000
0100
0010
0001
0000
0010
0001
0100
0000
0001
0100
0010
0000
0100
0010
1000
0000
0010
1000
0100
0000
0010
0001
0100
0000
0001
0000
1000
0000
,
0001
0100
0010
0000
0100
0010
1000
0000
0010
1000
0100
0000
1000
0100
0010
0000
0100
0010
0001
0000
0010
0001
0100
0000
0010
0000
0100
0000
0110
0000
0000
0000
,
0010
1000
0001
0000
1000
0001
0100
0000
0001
0100
0010
0000
0100
0010
1000
0000
0010
1000
0001
0000
1000
0001
0100
0000
0010
0000
0100
0000
0001
0000
1000
0000
,
0001
1000
0010
0000
1000
0010
0100
0000
,
0001
0100
0001
1000
0001
1000
0001
0010
,
0001
1000
0010
0100
,
0001
1000
0010
1000
0001
1000
0001
0100
,
0001
0010
0001
0000
0001
0100
0001
0000
1000
0100
1000
0000
1000
0010
1000
0000
0010
1000
0010
0000
0010
0001
0010
0000
1000
0001
1000
0000
0001
0000
0100
0000
,
0010
0001
0010
0000
0010
0100
0010
0000
0100
0010
0100
0000
0100
1000
0100
0000
0001
0100
0001
0000
0001
1000
0001
0000
1000
0000
0001
0000
1000
0000
0000
0000
,
0001
0100
1000
0000
0100
0001
0010
0000
1000
0010
0001
0000
1000
0100
0001
0000
0100
1000
0010
0000
0001
0010
1000
0000
0001
0000
0010
0000
0100
0000
1000
0000
,
0001
1000
0100
1000
0001
0000
0000
0000
,
1000
0001
0010
0001
1000
0010
1000
0001
,
1000
0010
0100
0001
,
1000
0100
1000
0001
1000
0010
1000
0001
,
0100
0010
1000
0001
0000
1000
0000
0001
0000
0100
0000
0010
0000
0100
0010
0001
,
1000
0100
0010
1000
0000
0001
0000
1000
0000
0001
0000
1000
0000
0010
0100
1000
,
0001
0010
0100
0001
0000
1000
0000
0001
0000
1000
0000
0001
0000
1000
0100
0010
,
0001
0000
0010
0001
0000
0010
1000
0000
0010
0001
0000
0010
0001
1000
0010
0000
,
1000
0100
0010
0001
,
1000
0000
0100
0000
0010
0001
0010
0001
,
0010
0001
1000
0010
,
1000
0000
0001
0000
1000
0100
1000
0100
,
1000
0001
1000
0000
0001
0100
0001
0000
,
0100
0010
0100
0000
0010
1000
0010
0000
,
0100
1000
0100
0010
0100
0001
0100
0010
,
1000
0100
1000
0001
1000
0010
1000
0001
,
0000
0000
0000
0000
0010
0001
0010
0200
,
0000
0320
0000
2030
0000
3002
0000
0203
,
0000
0310
1000
0010
0100
0010
0001
0020
,
0000
0230
0000
0302
0000
2003
0000
3020
,
0000
0031
0100
0001
1000
0001
0010
0200
,
0000
2300
0000
3020
0000
0230
0000
0302
,
0000
0013
0100
1000
0001
0000
1000
0010
,
0000
0000
1000
0000
0001
0010
0000
0001
,
0000
0010
0100
0010
0100
1000
0100
0020
,
0000
0230
0000
0302
0000
0203
0000
0320
,
0000
0130
0001
0100
0010
0100
1000
0200
,
0000
0320
0000
2030
0000
3020
0000
0032
,
0000
0000
1003
0100
1000
0010
0001
0020
,
0000
0031
0010
2000
0000
3010
1000
0200
,
0000
1300
0100
0002
0000
0103
1000
0010
,
0001
0010
1000
0100
0010
0001
0100
1000
,
0100
0001
0010
1000
0020
0000
0000
0000
,
0000
0000
0000
0000
,
0000
0000
0130
0000
0000
0110
0000
0000
2002
0000
0000
0000
0000
0000
0000
0000
,
0000
3003
1001
0110
,
1001
0000
1000
1000
0001
0000
0001
0000
,
0100
0100
0010
0010
,
0010
1000
0010
0100
0001
0000
1000
0000
,
0001
1000
0100
0010
,
0001
0100
0001
0100
0000
0001
0100
0010
,
0100
1000
0001
0010
0100
0001
0010
0100
,
0001
1000
0010
0001
1000
0100
0001
1000
,
0010
0100
1000
0010
0100
1000
0001
0010
,
1000
0001
0100
0010
0000
0000
0000
0000
,
0020
0000
0000
0000
0000
0000
0000
0000
0000
0000
0000
0000
0000
0200
0000
0000
,
0000
0000
0000
0330
;
#NOTEDATA:;
#STEPSTYPE:dance-double;
#DIFFICULTY:Easy;
#METER:5;
#NOTES:
00000000
00000000
00000000
00000000
,
00000000
00000000
00000000
00000000
,
00000000
00000000
00000000
00000000
,
00000000
00000000
00000000
00000000
,
00000000
00000000
00000000
00000000
,
00011000
00000000
00001000
00000000
,
01001000
00000000
01000000
00000000
,
01100000
00000000
00100000
00000000
,
10100000
00000000
10000000
00000000
,
01100000
00000000
00000000
00000000
,
10010000
00000000
00000000
00000000
,
11000000
00000000
00110000
00000000
,
00100000
00001000
00010000
00001000
,
00000000
00000000
00000000
00000000
,
00020000
00000000
00000000
00000000
,
00000000
00000000
00000000
00030000
,
00000200
00000000
00000000
00000000
,
00000000
00000000
00000000
00000300
,
00000020
00000000
00000000
00000000
,
00000000
00000000
00000000
00000030
,
00000002
00000000
00000000
00000003
,
00002000
00003000
00000020
00000030
,
00020000
00000000
00000000
00000000
,
00000000
00000000
00000000
00030000
,
00002000
00000000
00000000
00000000
,
00000000
00000000
00000000
00003000
,
02000000
00000000
00000000
00000000
,
00000000
00000000
00000000
03000000
,
00200000
00000000
00000000
00300000
,
20000000
30000000
00020000
00030000
,
00200000
00000000
00000000
00000000
,
00000000
00000000
00000000
00300000
,
02000000
00000000
00000000
03000000
,
00100000
00000000
01000000
01000000
,
10010000
10000000
01000000
00010000
,
00001000
00010000
00001000
00010000
,
00000010
00000000
00000100
00000000
,
00000001
00000001
00001000
00001000
,
00000000
00000000
00000001
00000010
,
00000001
00000000
00000100
00000010
,
00000100
00000000
00001000
00010000
,
00001000
00000000
00100000
00010000
,
01000000
00000000
01010000
00000000
,
10100000
00000000
01100000
00000000
,
01001000
00000000
00011000
00000000
,
00010010
00000000
00000010
00001000
,
00000100
00000001
00000200
00000000
,
00000000
00000000
00000000
00000000
,
00000000
00000300
00000020
00000000
,
00000000
00000000
00000000
00000000
,
00000000
00000030
00000001
00000100
,
00001000
00010000
00001000
00000100
,
00001000
00010000
00100000
10000000
,
00100000
00010000
00200000
00300000
,
20000000
30000000
00000000
00000000
,
20020000
00000000
00000000
00000000
,
00000000
00000000
00000000
00000000
,
00000000
00000000
00000000
00000000
,
00000000
00000000
30030000
00000000
;
#NOTEDATA:;
#STEPSTYPE:dance-double;
#DIFFICULTY:Medium;
#METER:11;
#BPMS:0=270,40=135,56=270,88=135,92=67.5,104=270,120=67.5,132=270,148=135,164=270,196=135,198=270,262=135,278=270,310=135,312=67.5;
#NOTES:
00000000
00000000
00000000
00000000
,
00000000
00000000
00000000
00000000
,
00000000
00000000
00000000
00000000
,
00000000
00000000
00000000
00000000
,
00000000
00000000
00000000
00000000
,
00000000
00000000
00000000
00000000
,
00000000
00000000
00000000
00000000
,
00000000
00000000
00000000
00000000
,
00000000
00000000
00000000
00000000
,
00000000
00000000
00000000
00000000
,
00010000
00010000
00001000
00001000
,
00100000
00100000
00010000
00010000
,
01000000
01000000
00001000
00001000
,
00010000
00010000
00000010
00000010
,
00001000
00000000
00001000
00000000
,
00000001
00000000
00000001
00000001
,
00000010
00000000
00000010
00000000
,
00000100
00000000
00000100
00000000
,
00010100
00000000
00000000
00000000
,
00011000
00000000
00000000
00000000
,
00001000
00100000
00010000
00100000
,
00001000
00010000
00001000
00000000
,
00000000
00000000
00000000
00000000
,
00002000
00000000
00203000
00000000
00320000
00000000
20030000
00000000
30200000
00000000
02300000
00000000
03020000
00000000
00130000
00001000
,
00200000
00000000
00000000
00000000
00320000
00000000
00000000
00000000
02030000
00000000
00000000
00000000
03002000
00000000
00000000
00000000
00013000
00000000
00000000
00001000
00000000
00000000
00010000
00000000
00000000
00000000
00000100
00000000
00000100
00000000
00000000
00000000
,
00000020
00000000
00000000
00000000
00000032
00000000
00000000
00000000
00002003
00000000
00000000
00000000
00003200
00000000
00000000
00000000
00000310
00000000
00000000
00000100
00000000
00000000
00000010
00000000
00000000
00000000
00000000
00000000
00000001
00000000
00000001
00000000
,
00000100
00000010
00001000
00000000
,
00000010
00010000
00001000
00000000
,
00100000
00010000
01000000
00010000
,
00100000
00000000
00010000
00010000
,
20000000
00000000
32000000
00000000
03200000
00000000
00320000
00000000
00230000
00000000
00302000
00000000
00023000
00000000
00031000
00010000
,
00002000
00000000
00000000
00000000
00003020
00000000
00000000
00000000
00000032
00000000
00000000
00000000
00002003
00000000
00000000
00000000
00003010
00000000
00000000
00000100
00000000
00000000
00000010
00000000
00000000
00000000
00000000
00000000
00000110
00000000
00000000
00000000
,
00000200
00000000
00000000
00000000
00002300
00000000
00000000
00000000
00023000
00000000
00000000
00000000
00032000
00000000
00000000
00000000
00103000
00000000
00000000
00010000
00000000
00000000
00100000
00000000
00000000
00000000
00000000
00000000
00010000
00000000
00010000
00000000
,
10000000
10000000
00010000
00000000
,
00100000
00100000
01000000
00000000
,
10000000
01000000
10000000
00000000
,
00010000
00000000
00010000
00000000
,
00200000
00000000
00000000
00300000
,
00002000
00000000
00000000
00003000
,
00020000
00000000
00000000
00030000
,
00000200
00000000
00000000
00000300
,
00000010
00000000
00000010
00000000
,
00000100
00000000
00000001
00000100
,
00001000
00000000
00000010
00000000
,
00000100
00000000
00001000
00010000
,
00100000
00000000
01100000
00000000
,
01000000
00000000
00100000
00000000
,
01100000
00000000
10010000
00000000
,
00010000
10000000
00010000
10000000
,
00000000
00000000
00100000
10000000
,
01000000
00000000
10000000
01000000
,
00010000
00000000
01000000
00010000
,
00001000
00000000
00010000
00001000
,
00000010
00000000
00000010
00000001
,
00000100
00000010
00001000
00000000
,
00000001
00000000
00000100
00000000
00000001
00000000
00000000
00001000
,
00000000
00000000
00000001
00000000
00000000
00001000
00000000
00000000
,
00000001
00000000
00000010
00000000
,
00000100
00000000
00010000
00000000
,
00001000
00000000
00100000
00000000
,
00010000
00000000
10000000
01000000
,
00100000
00000000
00010000
10000000
,
01000000
00010000
10000000
00000000
,
00100000
00000000
00010000
10000000
,
00010000
10000000
00010000
00000000
,
00100000
00000000
02000000
00000000
,
00000000
00000000
00000000
03000000
,
00000000
00000000
00010000
00000000
00000000
00010000
00000000
00000000
00022000
00000000
00000000
00000000
00000000
00000000
00000000
00000000
,
00000000
00033000
00010000
00010000
,
00001000
00000000
00001000
00001000
00010000
00000000
00001000
00000000
,
00000010
00000001
00000010
00000001
,
00000100
00000000
00000100
00001000
,
00000100
00001000
00010000
00001000
,
00010000
00000000
00100000
10000000
,
01000000
00000000
00100000
00010000
,
01000000
00000000
00010000
10000000
,
01000000
00010000
00001000
00000010
,
00000001
00001000
00000000
00000000
,
00000220
00000000
00000000
00000000
,
00000000
00000000
00000000
00000330
;
#NOTEDATA:;
#STEPSTYPE:dance-double;
#DIFFICULTY:Hard;
#METER:17;
#BPMS:0=270,40=135,56=270,88=135,92=67.5,104=270,120=67.5,132=270,148=135,164=270,196=135,198=270,262=135,278=270,310=135,312=67.5;
#NOTES:
00000000
00000000
00000000
00000000
,
00000000
00000000
00000000
00000000
,
00000000
00000000
00000000
00000000
,
00000000
00000000
00000000
00000000
,
00000000
00000000
00000000
00000000
,
00000000
00000000
00000000
00000000
,
00000000
00000000
00000000
00000000
,
00000000
00000000
00000000
00000000
,
00000000
00000000
00000000
00000000
,
00000000
00000000
00000000
00000000
,
00010000
00001000
00010000
00000100
00000000
00001000
00000000
00000001
00000000
00000010
00000000
00000001
00000000
00000001
00001000
00000000
,
00000010
00000000
00000000
00000100
00000000
00000010
00000000
00010000
00000000
00001000
00000000
00010000
00000000
00100000
01000000
00000000
,
00010000
01000000
00010000
10000000
00000000
00100000
00000000
01000000
00000000
00010000
00000000
10000000
00000000
00010000
00000000
10000000
,
00010000
10000000
00010000
00100000
00000000
00001000
00000000
00010000
00000000
00000100
00000010
00000000
00000001
00001000
00000001
00000000
,
00000100
00001000
00010000
00001000
,
00000100
00001000
00100000
00010000
,
10000000
01000000
00010000
00001000
,
00010000
00100000
00010000
00001000
,
00000010
00000001
00000010
00000000
00000001
00000100
00000010
00000000
,
00010000
00001000
00010000
00000000
01000000
00100000
00010000
00000000
,
00100000
00100000
01000000
01000000
,
10000000
00010000
00100000
01000000
00100000
00001000
00010000
00001000
,
00000000
00000000
00000000
00000000
,
00010000
00001000
00010000
00000000
00001000
00010000
00001000
00000000
00010000
00000100
00001000
00000000
00000100
00001000
00000001
00000000
00001000
00000001
00001000
00000000
00000001
00001000
00000001
00000000
00001000
00000001
00000010
00000000
00000001
00000000
00001000
00000000
,
00000010
00000100
00000010
00000000
00000100
00000010
00000100
00000000
00000010
00010000
00001000
00000000
00010000
00001000
00100000
00000000
00010000
00100000
00010000
00000000
10000000
01000000
10000000
00000000
00010000
00000000
10000000
00000000
10010000
00000000
00000000
00000000
,
10000000
01000000
00100000
00000000
01000000
00100000
00010000
00000000
00100000
00001000
00010000
00000000
00001000
00010000
00000100
00000000
00001000
00000100
00000010
00000000
00000100
00000010
00000001
00000000
00000100
00000000
00001000
00000000
00010000
00000000
00100000
00000000
,
10000000
00010000
10000000
00010000
00100000
00000000
00000000
00000000
,
01000000
10000000
01000000
00100000
01000000
00010000
01000000
00100000
,
00010000
00100000
00001000
00010000
,
00000100
00010000
00000100
00001000
00000100
00000010
00000100
00000001
,
00000100
00000010
00000100
00000000
00000100
00001000
00000100
00000000
00010000
00000100
00010000
00000000
00010000
00001000
00010000
00000000
00001000
00100000
00001000
00000000
00001000
01000000
00001000
00000000
00100000
00010000
00100000
00000000
00100000
00000000
01000000
00000000
,
10000000
01000000
10000000
00000000
10000000
00100000
10000000
00000000
00010000
00100000
00010000
00000000
00010000
01000000
00010000
00000000
00100000
00001000
00100000
00000000
00001000
00010000
00001000
00000000
00010000
00000000
00001000
00000000
00000010
00000000
00000000
00000000
,
00001000
00000010
00000001
00000000
00000010
00000001
00000100
00000000
00000001
00000100
00001000
00000000
00000100
00001000
00010000
00000000
00001000
00010000
00100000
00000000
00010000
00100000
10000000
00000000
00010000
00000000
00100000
00000000
01000000
00000000
10000000
00000000
,
00010000
01000000
00010000
00100000
00001000
00000000
00000000
00000000
,
00010000
00001000
00010000
00000100
00000010
00000100
00010000
00001000
,
00010000
00100000
10000000
01000000
,
00010000
00001000
00010000
00100000
01000000
00100000
00010000
00001000
,
00010000
00001000
00000000
00000100
00000000
00001000
00000000
00010000
00000000
00100000
00000000
00010000
00000000
10000000
01000000
00010000
,
00100000
00010000
01000000
10000000
00000000
01000000
00000000
00010000
00000000
00001000
00000000
00000010
00000000
00000001
00000010
00001000
,
00000100
00000001
00000100
00001000
00000000
00000010
00000000
00010000
00000000
00001000
00000000
00010000
00000000
00100000
01000000
00010000
,
10000000
00000000
00010000
00100000
00000000
00001000
00010000
00000000
00000100
00001000
00000000
00000001
00000010
00000100
00001000
00000000
,
00000100
00000001
00001000
00000010
,
00000001
00000000
00000100
00000000
00001000
00000100
00001000
00000100
,
00001000
00010000
00100000
00010000
,
10000000
00000000
01000000
00000000
00010000
00100000
00010000
10000000
,
00010000
01000000
00010000
00000000
00100000
00001000
00100000
00000000
,
00001000
00010000
00001000
00000000
00000100
00000010
00000100
00000000
,
00000010
00000001
00000010
00000100
00000010
00001000
00000010
00010000
,
00000100
00001000
00000100
00000010
00000100
00000001
00000100
00000010
,
00000000
00000000
00000000
00000000
00000000
00000000
00000000
00000000
00000000
00000000
00000000
00000000
00000000
00000000
00000000
00000000
00000010
00000000
00000000
00000000
00001000
00000000
00000000
00000000
00000010
00000000
00000000
00000002
00000000
00000000
00000000
00000000
,
00000000
00000203
00000000
00000320
00000000
00000032
00000000
00002003
,
00000000
00003100
00000010
00000100
00000001
00000100
00000010
00000200
,
00000000
00002300
00000000
00023000
00000000
00030200
00000000
00002300
,
00000000
00003100
00010000
00000100
00001000
00000100
00000010
00002000
,
00000000
00023000
00000000
02030000
00000000
03200000
00000000
00302000
,
00000000
00013000
00000100
00000010
00001000
00000000
00000010
00000001
,
00000000
00000000
00000100
00000000
00001000
00010000
00000000
00100000
,
00000000
00010000
00100000
00010000
00100000
10000000
00100000
02000000
,
00000000
03002000
00000000
00023000
00000000
02030000
00000000
03200000
,
00000000
01300000
10000000
01000000
00100000
01000000
00010000
02000000
,
00000000
23000000
00000000
30020000
00000000
00230000
00000000
20300000
,
00000000
00000000
30010000
01000000
00010000
00001000
00010000
00000200
,
00000000
00000310
00000001
00000200
00000000
00000310
00001000
00000200
,
00000000
00001300
00000010
00000002
00000000
00000013
00001000
00000100
,
00000001
00000100
00001000
00000100
00010000
00000100
00000010
00000100
,
00000010
00000001
00000100
00001000
00020000
00000000
00000000
00000000
,
00000000
00000000
00000000
00000000
,
00000000
00000000
00031000
00000000
00000000
00010000
00000000
00000000
00022000
00000000
00000000
00000000
00000000
00000000
00000000
00000000
,
00000000
00033000
01001000
01010000
,
10100000
00000000
10000000
10000000
00010000
00000000
00010000
00000000
,
01000000
01000000
00100000
00100000
,
10000000
00100000
10000000
00100000
10000000
00000000
01000000
00000000
,
00010000
00001000
00010000
00000100
,
00000010
00000001
00000010
00000001
00000000
00000010
00001000
00000001
,
00000100
00001000
00000010
00010000
00000000
00001000
00010000
00001000
,
00100000
00001000
00010000
00100000
00000000
00100000
00010000
00100000
,
01000000
10000000
01000000
00100000
01000000
00001000
00010000
00000010
,
00010000
00001000
00010000
00000100
00000000
00000000
00000000
00000000
,
00020000
00000000
00000000
00000000
00000000
00000000
00000000
00000000
00000000
00000000
00000000
00000000
00000000
00002000
00000000
00000000
,
00000000
00000000
00000000
00033000
;
