
//----- song ID: fizz -----//
#VERSION:0.83;
#TITLE:Fizzing Steps;
#ARTIST:Reku Mochizuki;
#BANNER:Fizzing Steps.png;
#BACKGROUND:Fizzing Steps-bg.png;
#CDTITLE:./CDTitles/DDR WORLD.png;
#MUSIC:Fizzing Steps.ogg;
#SAMPLESTART:57.561;
#SAMPLELENGTH:15;
#BPMS:0=175;
#NOTEDATA:;
#STEPSTYPE:dance-single;
#DIFFICULTY:Beginner;
#METER:2;
#NOTES:
0000
0000
0000
0000
,
0000
0000
0000
0000
,
0000
0000
0000
0000
,
0000
0000
0000
0000
,
0000
0000
0000
0000
,
0000
0000
0000
0000
,
1000
0000
0000
0000
,
1000
0000
0000
0000
,
0001
0000
0000
0000
,
0001
0000
0000
0000
,
0000
0000
1000
0000
,
0000
0000
1000
0000
,
0000
0000
0001
0000
,
0000
0000
0001
0000
,
0000
0000
0010
0000
,
0000
0000
0010
0000
,
0000
0000
0100
0000
,
0000
0000
1000
0000
,
1000
0000
0000
0000
,
0001
0000
0000
0000
,
1000
0000
0000
0000
,
1000
0000
0000
0000
,
0001
0000
0000
0000
,
0001
0000
0000
0000
,
0010
0000
0000
0000
,
0010
0000
0000
0000
,
0001
0000
0000
0000
,
0001
0000
0000
0000
,
1000
0000
0000
0000
,
1000
0000
0000
0000
,
0001
0000
0000
0000
,
1000
0000
0000
0000
,
0001
0000
0000
0000
,
1000
0000
0000
0000
,
0010
0000
0010
0000
,
0010
0000
0000
0000
,
0100
0000
0100
0000
,
0100
0000
0000
0000
,
0001
0000
0001
0000
,
0001
0000
0000
0000
,
1000
0000
1000
0000
,
1000
0000
1000
0000
,
1000
0000
0000
0000
,
0010
0000
0000
0000
,
0100
0000
0000
0000
,
0001
0000
0000
0000
,
0001
0000
0000
0000
,
0010
0000
0000
0000
,
0100
0000
0000
0000
,
1000
0000
0000
0000
,
0001
0000
0000
0000
,
1000
0000
0000
0000
,
0001
0000
0000
0000
,
1000
0000
0000
0000
,
0010
0000
0010
0000
,
0010
0000
0010
0000
,
0010
0000
0000
0000
,
0100
0000
0000
0000
,
0001
0000
0000
0000
,
1000
0000
0000
0000
,
0001
0000
0000
0000
,
0001
0000
0000
0000
,
1000
0000
0000
0000
,
0001
0000
0000
0000
,
1000
0000
0000
0000
,
1000
0000
0000
0000
,
0010
0000
0000
0000
,
0010
0000
0000
0000
,
0100
0000
0000
0000
,
0010
0000
0000
0000
,
0100
0000
0000
0000
,
0100
0000
0000
0000
,
0001
0000
0001
0000
,
0001
0000
0000
0000
,
1000
0000
0000
0000
;
#NOTEDATA:;
#STEPSTYPE:dance-single;
#DIFFICULTY:Easy;
#METER:6;
#NOTES:
0000
0000
0000
0000
,
0000
0000
0000
0000
,
0000
0000
0000
0000
,
0000
0000
0000
0000
,
0000
0000
0000
0000
,
0000
0000
0000
0000
,
1000
0000
1000
0000
,
0001
0000
0001
0000
,
1000
0100
1000
0100
,
0010
0001
0010
0001
,
2000
0000
3001
0000
,
0002
0000
1003
0000
,
2000
0000
3010
0000
,
0020
0000
0130
0000
,
0200
0000
0301
0000
,
0002
0000
1003
0000
,
2000
0000
3100
0000
,
0200
0000
0310
0000
,
0010
0001
0010
0000
,
0100
1000
0100
0000
,
1000
0001
1000
0000
,
0010
0100
0010
0000
,
1000
0100
0010
0000
,
0001
0100
0010
0000
,
1000
0100
0010
0001
,
1000
0001
1000
0000
,
0001
0000
0001
0000
,
0100
0000
0100
0000
,
0010
0000
0010
0000
,
1000
0000
1000
0000
,
0001
0000
0100
0000
,
0010
0000
1000
0000
,
0100
0000
0010
0000
,
0001
0000
1000
0000
,
0001
0010
0001
0010
,
0100
1000
0100
1000
,
0010
0100
0010
0100
,
0001
1000
0001
0000
,
1001
0000
0110
0000
,
1001
0000
0110
0000
,
0001
0010
0100
1000
,
0000
0000
0001
0001
,
1000
0001
0100
0000
,
0001
1000
0100
0000
,
0010
0010
0100
0100
,
1000
0001
1001
0000
,
0001
1000
0010
0000
,
1000
0001
0010
0000
,
0100
0100
0010
0010
,
0001
1000
1001
0000
,
1000
0100
1000
0001
,
0010
0100
0010
0000
,
0001
0100
0001
1000
,
0010
0100
0010
0000
,
1000
0001
0100
0010
,
1000
0100
0010
0000
,
1001
0000
0110
0000
,
1001
0000
1000
1000
,
0001
0100
0010
0000
,
1000
0100
0010
0000
,
0010
0100
0010
0001
,
0100
0010
0100
0000
,
0001
0010
0100
0000
,
1000
0010
0100
0000
,
0100
0010
0100
0001
,
0010
0100
0010
0000
,
0001
0001
0100
0001
,
1000
1000
0010
1000
,
0002
0000
0023
0000
,
0230
0000
2300
0000
,
3001
0100
0001
0000
,
1000
0010
1000
0000
,
0100
0010
0100
0010
,
0001
1000
0001
1000
,
0100
0000
0000
0000
;
#NOTEDATA:;
#STEPSTYPE:dance-single;
#DIFFICULTY:Medium;
#METER:11;
#BPMS:0=175,4=175,40=87.5,56=175;
#NOTES:
0000
0000
0000
0000
,
0000
0000
0000
0000
,
0000
0000
0000
0000
,
0000
0000
0000
0000
,
0000
0000
0000
0000
,
0000
0000
0000
0000
,
1000
0000
1000
0000
,
0100
0000
0100
0000
,
1000
0100
1000
0000
0001
0010
0001
0000
,
1001
0000
0000
0000
,
0002
0103
2000
3100
,
0020
0130
0200
0310
,
1000
0000
0000
0100
0000
0000
0010
0000
0000
0100
0000
0000
0010
0000
0001
0000
,
1000
0000
0000
0010
0000
0000
0100
0000
0000
0010
0000
0000
1000
0000
0001
0000
,
1000
0000
0001
0000
0010
0100
0010
0100
,
0000
1000
0100
0000
1100
0000
0011
0000
,
0001
0000
1000
0000
0010
0100
0010
0100
,
0000
0001
0100
0000
0101
0000
1010
0000
,
0010
0000
0100
0000
0001
1000
0001
1000
,
0000
0010
1000
0000
0110
0000
1001
0000
,
1000
0000
0100
0000
0010
0001
0100
0001
,
0000
0010
0001
0000
0110
0000
1001
0000
,
0002
0000
0023
0000
,
0230
0000
2300
0000
,
3020
0000
0230
0000
,
0302
0000
1000
1003
,
2000
0010
3020
0100
,
0230
0001
0302
0010
,
0023
0100
0230
1000
,
2300
0000
0001
0000
3001
0010
0001
0010
,
0100
0010
0001
0100
,
0010
1000
0100
0000
0010
0000
0011
0000
,
1100
1000
0100
0010
,
0100
1000
0010
0000
1000
0000
1010
0000
,
0110
0000
1001
0000
,
1100
0000
0011
0000
,
0010
0001
0010
0001
1000
0100
1000
0100
,
0020
0000
0000
0030
,
0001
0000
0100
0010
0000
0100
0010
1000
,
0000
0001
0000
1000
0100
0010
0001
1000
,
0001
0000
0010
0100
0000
0010
0100
1000
,
0000
0001
0000
1000
0010
0100
0001
1000
,
0001
0000
1000
0100
0000
0010
0001
0100
,
0000
0010
0000
1000
0100
0010
0100
1000
,
0001
0000
1000
0010
0000
0100
0001
0010
,
0000
0100
0000
1000
0010
0100
0010
1000
,
0001
0000
0100
1000
0000
1000
0100
0001
,
0000
1000
0000
0100
0010
0001
0010
0100
,
1000
0000
0100
0001
0000
0001
0100
1000
,
0000
0001
0000
0100
0010
1000
0010
0100
,
0001
0000
0100
0010
0000
1000
0100
0010
,
0000
0001
0000
1000
0100
0010
0001
1000
,
0001
0000
0010
0100
0000
1000
0010
0100
,
0000
0001
0000
1000
0010
0100
0001
1000
,
0002
0000
0023
0000
0230
0000
0300
2000
,
0000
3200
0000
0320
0000
0000
0031
0000
,
1000
0000
1000
0000
0001
0010
0001
0000
,
0001
0000
0001
0000
1000
0100
1000
0000
,
0000
2000
3200
0320
,
0032
0023
0230
2300
,
3200
0000
0000
0000
0000
1300
0100
1000
,
0000
0000
0000
0000
0001
1001
0000
0000
,
1100
1100
0011
0011
,
1001
0110
1001
0110
,
1000
0000
1000
0000
0001
0010
0001
0000
,
0010
0000
0010
0000
0100
0010
0100
0000
,
0012
1000
0100
1003
,
2010
0001
0100
3001
,
0001
0010
0100
1000
0100
1000
0000
0000
,
0110
1001
0110
1001
,
0200
0000
0000
0000
,
0000
0300
0000
0000
0000
0000
0000
0000
;
#NOTEDATA:;
#STEPSTYPE:dance-single;
#DIFFICULTY:Hard;
#METER:14;
#BPMS:0=175,4=175,40=87.5,56=175;
#NOTES:
0000
0000
0000
0000
,
0000
0000
0000
0000
,
0000
0000
0000
0000
,
0000
0000
0000
0000
,
0000
0000
0000
0000
,
0000
0000
0000
0000
,
1000
1000
0010
0010
,
0100
0100
0001
0001
,
0001
0100
1000
0100
0010
0100
0001
0100
,
0002
0000
0000
0000
0000
0000
0000
0000
0000
0000
0003
0000
1000
0001
0100
0000
,
0020
0000
1030
0100
2000
0000
3010
0100
,
0002
0000
0000
0100
0000
0000
0010
0000
0000
0100
0000
0000
1000
0000
1003
0000
,
2000
0000
3100
0010
0200
0000
0310
0001
,
0020
0000
0000
0000
0000
0000
0100
0000
0000
0000
0000
0000
0130
0000
0000
0000
1000
0000
0100
0000
0010
0000
0001
0000
1000
0000
0100
0000
0010
0001
0010
0001
,
0010
0000
0001
0010
0100
0001
0100
1000
,
0010
0100
0001
0000
0101
0000
1010
0000
,
0010
0000
1000
0010
0100
1000
0100
0001
,
0010
0100
1000
0000
1100
0000
0011
0000
,
1000
0000
0010
0100
0010
0001
0010
1000
,
0100
0001
0100
0000
1100
0000
0101
0000
,
0001
0000
0010
0100
0010
1000
0010
0001
,
0100
1000
0100
0000
0101
0000
1100
0000
,
2000
0010
0000
3100
,
0200
1000
0000
0310
,
0020
0100
0000
0031
,
0002
0010
0000
1003
,
2000
0000
3010
0200
0000
0310
1000
0100
,
0000
0200
0000
0310
0001
0010
0100
1000
,
0002
0000
0013
0200
0000
0310
0001
0100
,
0000
0200
0000
0310
1000
0010
0100
0001
,
1000
0010
0001
1000
0100
0001
1000
0000
,
0001
0010
1000
0001
0100
0000
0110
0000
,
1001
0000
1000
0001
0100
1000
0001
0000
,
0110
0000
0000
0000
1010
0000
0000
0000
0011
0000
0000
0000
0001
0100
0001
0000
,
1000
0000
1000
0100
1100
0000
0001
0010
,
0011
0000
1000
0001
1001
0000
0001
0000
,
0100
0001
0100
0000
0001
0010
0001
0000
0010
0100
0010
0000
0100
1000
0001
0000
,
0000
0000
0000
0000
0000
0000
0000
0000
0001
0010
0001
0010
0001
0010
0001
0000
,
1000
0010
0100
0010
0000
0010
1000
0001
,
0000
0010
0001
0100
0001
0010
0001
0100
,
0001
0010
0100
0010
0000
0010
0001
1000
,
0000
0010
1000
0100
1000
0010
1000
0100
,
1000
0010
0001
0010
0000
0010
0100
0001
,
0000
1000
0100
0010
0100
0001
0100
1000
,
0001
0010
1000
0010
0000
0010
0100
1000
,
0000
0000
0001
0000
0100
0000
0010
0000
0100
0000
0010
1000
0100
0000
1000
0000
,
0001
0100
1000
0100
0010
1000
0100
0010
,
0000
0000
0010
0001
0010
0000
0100
0000
1000
0000
0001
0000
0010
0000
0100
0000
,
1000
0100
0001
0100
0010
0001
0100
0010
,
0000
0000
0010
1000
0010
0000
0100
0000
0001
0000
1000
0000
0010
0000
0100
0000
,
0001
0010
0001
0100
0010
1000
0010
0100
,
0000
0000
0010
0100
0010
0000
1000
0000
0100
0000
0001
0000
0100
0000
1000
0100
,
1000
0000
1000
0000
0100
0000
0100
0000
0010
0000
0010
0000
0001
0010
0001
0010
,
0001
0000
0000
1000
0001
0000
1001
0000
,
0002
0000
0023
0000
0130
1000
0000
0002
,
0000
0103
0001
0010
0200
0000
1300
0000
,
0020
0000
0130
0000
0000
0100
0010
0100
,
1000
0100
0001
0100
0020
0000
0130
0001
,
0000
2000
3200
0320
,
0032
0000
0023
0000
0230
0000
1300
0001
,
0200
0000
0000
0000
0000
0310
0100
0002
,
0000
1003
0000
0000
0001
1001
0000
0000
,
1000
0100
0001
1000
0010
0001
1000
0000
,
0001
0100
1000
0001
0010
1000
0001
0000
,
1000
0100
0001
1000
0010
0001
1000
0000
,
0001
0000
0100
0000
1000
0000
0100
0000
0001
0000
0000
0000
0010
0100
0010
0100
,
0010
0000
0001
0100
0101
0000
0010
0100
,
0110
0000
1000
0100
1100
0000
0001
0000
,
0100
0001
0100
0000
0001
0010
0001
0000
0010
0100
0010
0000
0100
1000
0100
0000
,
0010
0001
0100
0000
0010
1000
0100
0000
0010
0001
1000
0000
0001
0000
0000
0000
,
1001
0000
0000
0000
;
#NOTEDATA:;
#STEPSTYPE:dance-double;
#DIFFICULTY:Easy;
#METER:6;
#NOTES:
00000000
00000000
00000000
00000000
,
00000000
00000000
00000000
00000000
,
00000000
00000000
00000000
00000000
,
00000000
00000000
00000000
00000000
,
00000000
00000000
00000000
00000000
,
00000000
00000000
00000000
00000000
,
10000000
00000000
10000000
00000000
,
01000000
00000000
01000000
00000000
,
00100000
00010000
00100000
00001000
,
00010000
00001000
00010000
00000100
,
00000020
00000000
00000031
00000000
,
00000002
00000000
00000103
00000000
,
00000200
00000000
00001300
00000000
,
00002000
00000000
00013000
00000000
,
00020000
00000000
00130000
00000000
,
00200000
00000000
10300000
00000000
,
20000000
00000000
30010000
00000000
,
00020000
00000000
10030000
00000000
,
10000000
01000000
10000000
00000000
,
00010000
00100000
00010000
00000000
,
00100000
00001000
00010000
00000000
,
00000010
00001000
00000010
00000000
,
00000100
00000001
00000100
00000000
,
00000010
00001000
00000010
00000000
,
00010000
00001000
00100000
00010000
,
10000000
01000000
10000000
00000000
,
00010000
00000000
10000000
00000000
,
01000000
00000000
00010000
00000000
,
00001000
00000000
00000010
00000000
,
00000001
00000000
00000100
00000000
,
00000001
00000000
00000100
00000000
,
00001000
00000000
00010000
00000000
,
00100000
00000000
10000000
00000000
,
01000000
00000000
00010000
00000000
,
00001000
00010000
00001000
00000000
,
00100000
01000000
10000000
01000000
,
00100000
00000000
00010000
00000000
,
00001000
00000000
00000100
00000000
,
00000110
00000000
00001100
00000000
,
00011000
00000000
00110000
00000000
,
00010000
00100000
01000000
10000000
,
00000000
00000000
00010000
00010000
,
10000000
01000000
00010000
00000000
,
00001000
00010000
00000100
00000000
,
00000010
00000010
00000100
00000100
,
00001000
00000001
00001001
00000000
,
00000001
00000100
00001000
00000000
,
00010000
00001000
01000000
00000000
,
00100000
00100000
01000000
01000000
,
00010000
10000000
10010000
00000000
,
10000000
01000000
00100000
00010000
,
00100000
00001000
00010000
00000000
,
00010000
00001000
00000010
00000100
,
00001000
00000001
00000100
00000000
,
00000001
00000100
00000010
00001000
,
00000010
00010000
00001000
00000000
,
00011000
00000000
00110000
00000000
,
01100000
00000000
10000000
10000000
,
00100000
01000000
00010000
00000000
,
00100000
00001000
00010000
00000000
,
00000100
00000010
00000100
00001000
,
00000100
00010000
00001000
00000000
,
00000010
00000100
00001000
00000000
,
00000010
00010000
00001000
00000000
,
01000000
00100000
01000000
00010000
,
01000000
00001000
00010000
00000000
,
00000100
00000100
00010000
00001000
,
01000000
01000000
00001000
00010000
,
00002000
00000000
00003020
00000000
,
00000032
00000000
00002003
00000000
,
00003001
00000100
00000001
00000000
,
00001000
00000010
00001000
00000000
,
00000100
00010000
00000100
00010000
,
00001000
00100000
00001000
00100000
,
01000000
00000000
00000000
00000000
;
#NOTEDATA:;
#STEPSTYPE:dance-double;
#DIFFICULTY:Medium;
#METER:11;
#BPMS:0=175,4=175,40=87.5,56=175;
#NOTES:
00000000
00000000
00000000
00000000
,
00000000
00000000
00000000
00000000
,
00000000
00000000
00000000
00000000
,
00000000
00000000
00000000
00000000
,
00000000
00000000
00000000
00000000
,
00000000
00000000
00000000
00000000
,
10000000
00000000
10000000
00000000
,
01000000
00000000
01000000
00000000
,
00100000
00010000
00100000
00000000
00001000
00010000
00001000
00000000
,
00011000
00000000
00000000
00000000
,
00002000
00023000
00230000
20300000
,
32000000
03020000
00032000
00023000
,
00030100
00000000
00000000
00001000
00000000
00000000
00000010
00000000
00000000
00000100
00000000
00000000
00000001
00000000
00000100
00000000
,
00001000
00000000
00000000
00010000
00000000
00000000
00001000
00000000
00000000
00100000
00000000
00000000
00010000
00000000
01000000
00000000
,
00010000
00000000
10000000
00000000
00010000
00100000
00010000
00100000
,
00000000
00001000
00010000
00000000
00010100
00000000
00001010
00000000
,
00001000
00000000
00000001
00000000
00001000
00000010
00001000
00000010
,
00000000
00010000
00001000
00000000
00101000
00000000
01010000
00000000
,
00010000
00000000
10000000
00000000
01000000
00100000
01000000
00100000
,
00000000
00001000
00010000
00000000
00001100
00000000
00000110
00000000
,
00000010
00000000
00000001
00000000
00000100
00000010
00000100
00000010
,
00000000
00010000
00001000
00000000
00110000
00000000
01100000
00000000
,
20000000
00000000
32000000
00000000
,
03020000
00000000
00032000
00000000
,
00003020
00000000
00000032
00000000
,
00002003
00000000
00000001
00003001
,
00000002
00000100
00000203
00001000
,
00002300
00010000
00023000
00100000
,
00230000
10000000
20300000
00010000
,
30020000
00000000
10000000
00000000
10030000
01000000
10000000
01000000
,
00100000
00001000
00010000
00000100
,
00000010
00000100
00000010
00000000
00000001
00000000
00000101
00000000
,
00001010
00000010
00010000
00001000
,
00100000
00010000
00100000
00000000
01000000
00000000
11000000
00000000
,
00110000
00000000
00011000
00000000
,
00001100
00000000
00000110
00000000
,
00000001
00000100
00000001
00000100
00000010
00001000
00000010
00001000
,
00000200
00000000
00000000
00000300
,
00010000
00000000
00001000
00100000
00000000
00100000
00010000
01000000
,
00000000
00100000
00000000
10000000
01000000
00100000
00010000
00100000
,
00001000
00000000
00010000
00000010
00000000
00000010
00001000
00000100
,
00000000
00000010
00000000
00000001
00000100
00000010
00001000
00000010
,
00001000
00000000
00000100
00010000
00000000
00000100
00010000
00001000
,
00000000
00100000
00000000
00010000
10000000
01000000
00100000
00010000
,
00100000
00000000
00001000
00010000
00000000
00001000
00010000
00000100
,
00000000
00000010
00000000
00000100
00001000
00000100
00000010
00000001
,
00000100
00000000
00001000
00010000
00000000
00010000
00001000
00100000
,
00000000
00010000
00000000
00100000
01000000
10000000
01000000
00100000
,
00001000
00000000
00010000
00001000
00000000
00001000
00010000
00000010
,
00000000
00001000
00000000
00000010
00000100
00000001
00000100
00000010
,
00010000
00000000
00001000
01000000
00000000
00001000
01000000
00100000
,
00000000
10000000
00000000
00010000
00100000
01000000
10000000
01000000
,
00100000
00000000
00001000
00100000
00000000
00001000
00100000
00010000
,
00000000
00001000
00000000
00000100
00001000
00000100
00000010
00000001
,
00002000
00000000
00003200
00000000
00020300
00000000
00030000
00002000
,
00000000
02003000
00000000
03200000
00000000
00000000
10300000
00000000
,
10000000
01000000
00100000
00010000
,
00001000
00000100
00000010
00000001
,
00000000
00000002
00000203
00002300
,
00003200
00000320
00020030
00032000
,
00203000
00000000
00000000
00000000
00000000
00310000
01000000
00010000
,
00000000
00000000
00000000
00000000
10000000
10010000
00000000
00000000
,
11000000
11000000
00110000
00110000
,
00011000
00001100
00000110
00001001
,
00000001
00000100
00000010
00001000
,
00010000
01000000
00100000
10000000
,
20100000
00010000
01000000
30010000
,
00120000
10000000
01000000
10030000
,
10000000
01000000
00100000
00010000
00100000
00001000
00000000
00000000
,
00011000
00001100
00000110
00001001
,
00000200
00000000
00000000
00000000
,
00000000
00000300
00000000
00000000
00000000
00000000
00000000
00000000
;
#NOTEDATA:;
#STEPSTYPE:dance-double;
#DIFFICULTY:Hard;
#METER:14;
#BPMS:0=175,4=175,40=87.5,56=175;
#NOTES:
00000000
00000000
00000000
00000000
,
00000000
00000000
00000000
00000000
,
00000000
00000000
00000000
00000000
,
00000000
00000000
00000000
00000000
,
00000000
00000000
00000000
00000000
,
00000000
00000000
00000000
00000000
,
00000001
00000100
00000010
00001000
,
00000100
00010000
00001000
00100000
,
00010000
00100000
10000000
00100000
00010000
00001000
00000100
00000001
,
00000200
00000000
00000000
00000000
00000000
00000000
00000000
00000000
00000000
00000000
00000300
00000000
00001000
00000100
00001000
00000000
,
00000002
00000000
00000103
00000010
00002000
00000000
00003100
00010000
,
00001000
00000000
00000000
00100000
00000000
00000000
00010000
00000000
00000000
10000000
00000000
00000000
01000000
00000000
01000000
00000000
,
20000000
00000000
31000000
00100000
00020000
00000000
01030000
00001000
,
00010000
00000000
00000000
00000000
00000000
00000000
00000010
00000000
00000000
00000000
00000000
00000000
00001000
00000000
00000000
00000000
00000000
00000000
00000001
00000000
00000000
00000000
00000000
00000000
00001000
00000000
00000100
00000000
00000010
00000001
00000010
00000001
,
00000010
00000000
00000001
00000010
00000100
00010000
00001000
00010000
,
00100000
10000000
01000000
00000000
11000000
00000000
00110000
00000000
,
00010000
00000000
10000000
00100000
01000000
00001000
00010000
00001000
,
00000010
00000001
00000100
00000000
00000101
00000000
00001010
00000000
,
00001000
00000000
00000001
00000100
00001000
00010000
00001000
00000100
,
00001000
00010000
00100000
00000000
01100000
00000000
10010000
00000000
,
00010000
00000000
10000000
01000000
00010000
00001000
00010000
01000000
,
00010000
00001000
00000010
00000000
00000110
00000000
00001001
00000000
,
00000002
00000100
00000000
00001003
,
00002000
00000010
00000000
00013000
,
00020000
01000000
00000000
10030000
,
20000000
00100000
00000000
30010000
,
20000000
00000000
31000000
00200000
00000000
01300000
00100000
00010000
,
00000000
00020000
00000000
00130000
00001000
00010000
00000010
00000100
,
00000002
00000000
00000103
00000020
00000000
00000130
00000010
00001000
,
00000000
00002000
00000000
00003010
00010000
00001000
00100000
00010000
,
00100000
00001000
00010000
00001000
00010000
00000100
00000010
00000000
,
00000010
00000100
00001000
00000100
00000010
00000000
00000110
00000000
,
00011000
00000000
00010000
00100000
10000000
00100000
00010000
00000000
,
00011000
00000000
00000000
00000000
00001100
00000000
00000000
00000000
00000110
00000000
00000000
00000000
00000001
00000100
00000001
00000000
,
00001000
00000000
00000010
00000100
00000110
00000000
00000010
00001000
,
00001100
00000000
00000100
00010000
00011000
00000000
00001000
00100000
,
00010000
00100000
00010000
00000000
10000000
01000000
10000000
00000000
00100000
01000000
00100000
00000000
10000000
00010000
10000000
00000000
,
00000000
00000000
00000000
00000000
00000000
00000000
00000000
00000000
00010000
00100000
00010000
00100000
00010000
00100000
00010000
00000000
,
10000000
01000000
00010000
01000000
00000000
00100000
00001000
00010000
,
00000000
00010000
00001000
00000010
00000001
00000100
00000010
00000100
,
00000001
00000100
00001000
00000100
00000000
00000010
00010000
00001000
,
00000000
00001000
00010000
00100000
10000000
01000000
00100000
01000000
,
10000000
00100000
00010000
00100000
00000000
01000000
00010000
00100000
,
00000000
00100000
00010000
00001000
00000100
00000010
00000001
00001000
,
00000001
00000010
00001000
00000010
00000000
00000100
00001000
00000010
,
00000000
00000010
00000100
00001000
00010000
00100000
10000000
00010000
,
00100000
00010000
10000000
01000000
00010000
01000000
10000000
01000000
,
00000000
00000000
00100000
01000000
00100000
00000000
00000000
00000000
01000000
00000000
00010000
00000000
00001000
00000000
00000010
00000000
,
00000100
00001000
00000001
00000100
00001000
00000100
00000001
00000100
,
00000000
00000000
00000010
00000100
00000010
00000000
00000000
00000000
00000100
00000000
00001000
00000000
00010000
00000000
00100000
00000000
,
10000000
00100000
01000000
00010000
00100000
00001000
00010000
00000100
,
00000000
00000000
00000010
00000100
00000010
00000000
00000000
00000000
00000010
00000000
00000001
00000000
00000100
00000000
00001000
00000000
,
00010000
00000000
00010000
00000000
00001000
00000000
00001000
00000000
00100000
00000000
00100000
00000000
00010000
00100000
00010000
00100000
,
00010000
00000000
00010000
10010000
,
20000000
00000000
30200000
00000000
01300000
00010000
00000000
00020000
,
00000000
00130000
00010000
00001000
00000200
00000000
00000310
00000000
,
00000002
00000000
00001003
00000000
00000000
00001000
00000100
00001000
,
00000001
00000010
00000100
00001000
00000200
00000000
00000310
00000001
,
00000000
00000002
00000023
00000230
,
00002300
00000000
00003020
00000000
00020030
00000000
00031000
00010000
,
00200000
00000000
00000000
00000000
00000000
10300000
00100000
02000000
,
00000000
03010000
00000000
00000000
10000000
10010000
00000000
00000000
,
10000000
01000000
00010000
10000000
00100000
00010000
10000000
00000000
,
10000000
01000000
00100000
00001000
00010000
00000100
00000010
00000000
,
00000001
00000100
00001000
00000001
00000010
00001000
00000001
00000000
,
00000001
00000000
00000100
00000000
00000010
00000000
00010000
00000000
00001000
00000000
00000000
00000000
00010000
00001000
00010000
00001000
,
00010000
00000000
00001000
00100000
00110000
00000000
00100000
01000000
,
01100000
00000000
01000000
10000000
11000000
00000000
10000000
00000000
,
00010000
00100000
00010000
00000000
10000000
01000000
10000000
00000000
01000000
00100000
01000000
00000000
00100000
00010000
00100000
00000000
,
00110000
00011000
00001100
00000110
,
00001001
00000000
00000000
00000000
;
