
//----- song ID: fiac -----//
#TITLE:First Action;
#ARTIST:setu-O;
#BANNER:First Action.png;
#BACKGROUND:First Action-bg.png;
#CDTITLE:./CDTitles/DDR WORLD.png;
#MUSIC:First Action.ogg;
#SAMPLESTART:24.098;
#SAMPLELENGTH:15;
#BPMS:0=170;
#BGSTAGE:3;
#NOTES:
     dance-single:
     :
     Beginner:
     3:
     :
0000
0000
0000
0000
,
0000
0000
0000
0000
,
0000
0000
0000
0000
,
0000
0000
0000
0000
,
0000
0000
0000
0000
,
0000
0000
0000
0000
,
0001
0000
0000
0000
,
0001
0000
0000
0000
,
0010
0000
0000
0000
,
0000
0000
0000
0000
,
0010
0000
0000
0000
,
0010
0000
0000
0000
,
1000
0000
0000
0000
,
1000
0000
0000
0000
,
0010
0000
0000
0000
,
1000
0000
0000
0000
,
0010
0000
0000
0000
,
0000
0000
0000
0000
,
1000
0000
0000
0000
,
1000
0000
0000
0000
,
0100
0000
0000
0000
,
1000
0000
0000
0000
,
1000
0000
0000
0000
,
0010
0000
0000
0000
,
1000
0000
0000
0000
,
0000
0000
0000
0000
,
0010
0000
0000
0000
,
0010
0000
0000
0000
,
0001
0000
0000
0000
,
0010
0000
0000
0000
,
0001
0000
0000
0000
,
0001
0000
0000
0000
,
0100
0000
0000
0000
,
0000
0000
0000
0000
,
0001
0000
0001
0000
,
0010
0000
0000
0000
,
0010
0000
0000
0000
,
0000
0000
0000
0000
,
1000
0000
1000
0000
,
0010
0000
0000
0000
,
1000
0000
0000
0000
,
0000
0000
0000
0000
,
1000
0000
0100
0000
,
1000
0000
0000
0000
,
1000
0000
0000
0000
,
0010
0000
0000
0000
,
0001
0000
0010
0000
,
0001
0000
0000
0000
,
0100
0000
0000
0000
,
0001
0000
0000
0000
,
0002
0000
0000
0000
,
0003
0000
0000
0000
,
0001
0000
0000
0000
,
0010
0000
0000
0000
,
0020
0000
0000
0000
,
0030
0000
0000
0000
,
0010
0000
0000
0000
,
1000
0000
0000
0000
,
2000
0000
0000
0000
,
3000
0000
0000
0000
,
1000
0000
1000
0000
,
0010
0000
0000
0000
,
0020
0000
0000
0000
,
0030
0000
0000
0000
,
1001
0000
0000
0000
,
0000
0000
0000
0000
,
0001
0000
0000
0000
,
0010
0000
0000
0000
,
0001
0000
0001
0000
,
0010
0000
0000
0000
,
1000
0000
0000
0000
,
0000
0000
0000
0000
,
0001
0000
0000
0000
,
0000
0000
0000
0000
,
1000
0000
0000
0000
,
0010
0000
0000
0000
,
1000
0000
1000
0000
,
0010
0000
0000
0000
,
0001
0000
0000
0000
,
0000
0000
0000
0000
,
1000
0000
0000
0000
,
0000
0000
0000
1001
,
0000
0000
0000
0000
;
#NOTES:
     dance-single:
     :
     Easy:
     6:
     :
0000
0000
0000
0000
,
0000
0000
0000
0000
,
0000
0000
0000
0000
,
0000
0000
0000
0000
,
0000
0000
0000
0000
,
0000
0000
0000
0000
,
1000
0000
1000
0100
,
0010
0000
0001
1000
,
0001
0000
0000
0000
,
1000
0001
1000
0000
,
0001
0100
0001
0100
,
0001
1000
0001
0000
,
1000
0010
1000
0010
,
1000
0001
1000
0000
,
0001
0001
0100
0000
,
0001
0001
0010
0000
,
1001
0000
0000
0000
,
0000
0000
0000
0000
,
1000
1000
0100
0000
,
0100
0100
0010
0000
,
0010
0001
1000
0001
,
0100
0010
0100
0000
,
0001
0001
0100
0000
,
0100
0100
0010
0000
,
0010
1000
0001
1000
,
0200
0000
0000
0300
,
1000
0001
0100
0010
,
1000
0001
0010
0100
,
1000
1000
0001
0001
,
0100
0010
0110
0000
,
0001
0100
0001
0100
,
0010
1000
0010
1000
,
0002
0000
0000
0000
,
0003
0000
0000
0000
,
0001
0100
0100
0000
,
0001
0010
0010
0000
,
0001
1000
0001
1000
,
0001
0001
0001
0000
,
1000
0100
0100
0000
,
1000
0010
0010
0000
,
1000
0001
1000
0001
,
1000
1000
1000
0000
,
1001
0000
0110
0000
,
0001
0100
0010
0000
,
1001
0000
0110
0000
,
1000
0100
0010
0000
,
0001
0010
0001
0001
,
1000
0010
1000
1000
,
0001
1000
0001
1000
,
0001
0000
0000
0000
,
0002
0000
0000
0003
,
0200
0000
0000
0300
,
0020
0000
0000
0030
,
2000
0000
0000
3000
,
1000
0000
1000
0000
,
0100
0010
0100
0000
,
1000
0000
0001
0000
,
1000
0000
0000
0000
,
0001
1000
0001
0000
,
1000
0001
1000
0000
,
0001
0100
0001
0000
,
1000
0010
1000
0000
,
0001
0001
0010
0000
,
0100
0100
1000
0000
,
1001
0000
0000
0000
,
0000
0000
0000
0000
,
1001
0000
0110
0000
,
1001
0000
0000
0000
,
1000
0100
0010
0000
,
0001
0100
0010
0000
,
1000
1000
1000
0000
,
0001
0001
0001
0000
,
1000
0010
0100
0010
,
0100
0000
0110
0000
,
0002
0000
0000
0003
,
2000
0000
0000
3000
,
0020
0000
0000
0030
,
0200
0000
0000
0300
,
0001
0010
0100
0010
,
0100
1000
0001
0000
,
1000
0010
0100
0010
,
0100
0001
1000
1000
,
0000
0000
0000
0000
;
#NOTES:
     dance-single:
     :
     Medium:
     9:
     :
0000
0000
0000
0000
,
0000
0000
0000
0000
,
0000
0000
0000
0000
,
0000
0000
0000
0000
,
0000
0000
0000
0000
,
0000
0000
0000
0000
,
1001
0000
0000
0000
0000
0001
0010
0001
,
0000
0000
1000
0000
0000
1000
0000
0000
0100
0000
0000
0100
0000
0000
0000
0000
,
1000
0001
0000
0000
0000
0000
0001
1000
,
0000
1001
0000
0000
0000
0000
0000
0000
,
0001
0000
0100
0000
0010
1000
0001
0000
,
1000
0000
0100
0000
0010
0100
1000
0000
,
0001
0010
0001
0000
1000
0010
1000
0000
,
0002
0203
0320
2030
,
3001
0010
0100
1000
0001
0000
0000
0000
,
1000
0100
0010
0001
1000
0000
0000
0000
,
2002
0000
0000
0000
,
3003
0000
0000
0000
,
1000
0000
1100
0000
0100
0010
0001
0000
,
0100
0000
0010
0000
0100
0010
0100
0000
,
0001
0000
0011
0000
0010
0100
1000
0000
,
0010
0000
0100
0000
0010
0100
0010
0000
,
1000
0000
1010
0000
0010
0100
0001
0000
,
0010
0000
0100
0000
0010
0100
0010
0000
,
0001
0000
0101
0000
0100
0010
1000
0000
,
0200
0000
0300
0000
,
1000
0000
0001
0000
0010
0100
1000
0000
,
0001
0000
0100
0000
0001
1000
0001
0000
,
1000
0000
0010
0000
0100
0001
0010
0000
,
0001
1000
0100
0000
1000
0001
0100
0000
,
0001
0000
1000
0000
0100
0010
0001
0000
,
1000
0000
0010
0000
1000
0001
1000
0000
,
0001
0000
0100
0000
0010
1000
0100
1000
,
0000
0000
0000
0000
,
2000
0000
3000
0000
1000
0100
0010
0000
,
0002
0000
0003
0000
0001
0100
0010
0000
,
2000
0000
3000
0000
1000
0001
0010
0000
,
0002
0000
0003
0000
,
0002
0000
0003
0000
0001
0010
0100
0000
,
2000
0000
3000
0000
1000
0010
0100
0000
,
0002
0000
0003
0000
0001
1000
0100
0000
,
1000
0001
1001
0000
,
1100
1000
1100
0000
,
0011
0001
0011
0000
,
0101
0100
0101
0000
,
1010
1010
0000
0000
,
1000
0010
1000
0010
0100
0000
0000
0000
,
0001
0010
0001
0010
0100
0000
0000
0000
,
1000
0100
0010
0000
0001
0100
0010
1000
,
0000
0000
0000
0000
,
2000
0000
0000
3000
,
0020
0000
0000
0030
,
0200
0000
0000
0300
,
0002
0000
0000
0003
,
0001
0100
0010
1000
,
0001
0010
0100
1000
,
1100
0000
0110
0000
,
0011
0000
1001
0000
,
0001
0100
0001
0100
,
0010
0100
0010
0010
,
1000
0100
1000
0100
,
0010
0100
0010
0010
,
0001
0000
0100
0000
0010
1000
0001
0000
,
1000
0000
0100
0000
0010
0001
1000
0000
,
0002
0000
0000
0000
,
0003
0000
0000
0000
,
1001
0000
1001
0000
,
0110
0000
0000
0000
,
1000
0000
0010
0000
0100
0001
0100
0000
,
0001
0000
0010
0000
0100
1000
0100
0000
,
2000
0010
3020
0100
,
0230
0000
0001
0000
0301
1000
0001
0000
,
1000
0000
0100
0000
0010
0000
0001
1000
,
0001
0000
0100
0010
0100
0000
0110
0000
,
0002
0003
1001
0000
,
0110
0000
1001
0000
,
2000
0000
0000
0000
3000
0010
0000
0010
,
0000
0100
0000
0000
0110
0000
0000
0000
,
0001
1000
0001
1000
0001
0000
0000
0000
,
1000
0001
1000
0001
1000
0000
0000
0000
,
0002
0023
2030
3020
,
0031
0100
0010
0000
1000
0001
1000
1000
,
0000
0000
0000
0000
;
#NOTES:
     dance-single:
     :
     Hard:
     12:
     :
0000
0000
0000
0000
,
0000
0000
0000
0000
,
0000
0000
0000
0000
,
0000
0000
0000
0000
,
0000
0000
0000
0000
,
0000
0000
0000
0000
,
1001
0000
0000
0000
0000
1000
0000
1001
,
0000
0000
0001
0000
0000
0001
0000
0000
0100
0000
0000
0100
0000
0000
0010
0000
,
1000
0010
0000
0000
0000
0000
1000
0100
,
0000
0110
0000
0000
0000
1001
0000
0000
,
1000
0010
0100
0001
0100
0010
1000
0000
,
0001
0010
0100
1000
0001
0010
0100
0000
,
1000
0001
0100
0010
0100
0001
0010
0000
,
0100
1000
0010
0100
0001
1000
0001
0000
,
1000
0100
1000
0100
0001
0100
0001
0100
,
1000
0010
1000
0010
0001
0010
0001
0010
,
2000
0000
0000
0000
,
3000
0000
0000
0000
,
1001
0000
0000
0000
1000
0000
0000
0010
0000
0000
0100
0000
0001
0000
0010
0000
,
0001
0000
0000
0000
1000
0000
0000
0100
0000
0010
0001
0000
0020
0000
0000
0000
,
0031
0000
0000
0000
1000
0000
0000
0001
0000
0000
0100
0000
0010
0000
1000
0000
,
0010
0000
0100
0010
0000
0100
0010
0000
0200
0000
0000
0000
0300
0000
0000
0000
,
0001
0000
0000
0000
1000
0000
0000
0010
0000
0000
1000
0000
0001
0000
0100
0000
,
0001
0000
0000
0000
0010
0000
0000
0001
0000
0010
0001
0000
1000
0000
0100
0000
,
0010
0000
0000
0000
0001
0000
0000
0100
0000
0000
0010
0000
1000
0000
0010
0000
,
0200
0000
0000
0000
0010
0010
0310
0000
,
1001
0000
0000
0000
0001
0000
0000
0100
0000
0000
0010
0000
1000
0000
0100
0000
,
1000
0000
0000
0000
0001
0000
0000
0010
0000
0100
1000
0000
0200
0000
0000
0000
,
1300
0000
0000
0000
0001
0000
0000
1000
0000
0000
0010
0000
0100
0000
0001
0000
,
0100
0000
0010
0100
0000
0010
0100
0000
0020
0000
0000
0000
0030
0000
0000
0000
,
1000
0000
0000
0000
0001
0000
0000
0100
0000
0000
0001
0000
1000
0000
0010
0000
,
1000
0000
0000
0000
0100
0000
0000
1000
0000
0100
1000
0000
0001
0000
0010
0000
,
0100
0000
0000
0000
1000
0000
0000
0010
0000
0000
0100
0000
0001
0000
1001
0000
,
0000
0000
0000
0000
,
1000
0100
0001
0000
0100
0010
0001
0000
,
0100
0001
1000
0010
0100
1000
0100
0000
,
0001
0100
1000
0100
0001
0100
0010
1000
,
0100
0000
0000
0000
0110
0000
0000
0001
0000
1000
0000
0001
0000
1000
0000
0000
,
0001
0100
1000
0000
0100
0010
1000
0000
,
0100
1000
0001
0010
0100
0001
0100
0000
,
1000
0100
0001
0100
1000
0100
0010
0001
,
0100
0000
0100
0010
2000
0000
3001
1000
,
1001
0000
1000
0100
0010
0001
0100
0010
,
1000
0000
0001
0010
1000
0010
0001
0100
,
0020
0000
0130
0010
1000
0010
0001
0010
,
0100
0000
0000
0000
0110
0000
0000
1000
0000
0001
0000
1000
0000
0001
0000
0000
,
1000
0100
1000
0100
0010
0001
0010
0000
,
0001
0100
0001
0100
0010
1000
0010
0000
,
1000
0100
0010
0001
0100
0010
1000
0001
,
0000
0000
0000
0000
,
0002
0000
0100
0000
,
0203
0000
0010
0000
,
0320
0000
1000
0000
,
2030
0000
0001
0000
,
3002
0100
1000
0100
,
2003
0100
0001
0100
,
3002
0010
0203
0010
,
0302
0000
0023
0000
0130
1000
0100
0000
,
1000
0001
0010
0001
1000
0010
1000
0000
,
0001
1000
0100
1000
0001
0100
0001
0000
,
1000
0100
0010
0100
1000
0010
0100
0001
,
0010
0100
0001
0100
0010
0100
1000
0000
,
0001
0100
0010
1000
0001
0100
0010
0000
,
1000
0100
0010
0001
1000
0100
0010
0000
,
2002
0000
0000
0000
,
3003
0000
0000
0000
,
1001
0000
0000
0000
0000
0000
0000
0000
0001
1000
0000
0001
0000
1000
0000
0001
,
0000
0000
0000
0000
,
1000
0010
0100
0001
1000
0100
0010
0100
,
1000
0001
0010
0001
0100
0000
0110
0000
,
0001
0100
0010
1000
0001
1000
0010
0100
,
0001
0010
0100
0010
0100
1000
0001
0100
,
0010
0000
1010
0000
1100
0000
0011
0001
,
1000
0100
0001
0100
1000
0000
1001
0000
,
0002
0000
0000
0000
0003
0000
0000
0000
0001
0000
0000
1000
0000
0000
0001
0000
,
0100
0000
0000
0010
0000
0000
0100
0000
0020
0000
0000
0000
0030
0000
0000
0000
,
1000
0000
0100
0010
0100
0010
0000
0010
,
0001
0000
0100
0000
0000
0100
0000
0000
0010
0000
0000
0010
0000
0000
1000
0000
,
0010
0100
0001
0100
0010
0100
0001
0100
,
0010
1000
0010
0100
0010
1000
0010
0100
,
0001
0010
0100
1000
0010
0100
0001
0010
,
0100
1000
0010
0100
0001
0010
0100
0100
,
0000
0000
0000
0000
;
#NOTES:
     dance-double:
     :
     Easy:
     6:
     :
00000000
00000000
00000000
00000000
,
00000000
00000000
00000000
00000000
,
00000000
00000000
00000000
00000000
,
00000000
00000000
00000000
00000000
,
00000000
00000000
00000000
00000000
,
00000000
00000000
00000000
00000000
,
00011000
00000000
00001000
00010000
,
00100000
00000000
10000000
00010000
,
10000000
00000000
00000000
00000000
,
10000000
01000000
00100000
00000000
,
00001000
00010000
00001000
00000000
,
00010000
00001000
00010000
00000000
,
00001000
00010000
00000100
00001000
,
00000100
00000000
00000110
00000000
,
00000001
00000000
00001000
00000000
,
00000100
00000100
00010000
00000000
,
00011000
00000000
00000000
00000000
,
00000000
00000000
00000000
00000000
,
00001000
00000000
00010000
00000000
,
00100000
01000000
00100000
00000000
,
10000000
00010000
00100000
00000000
,
00010000
10000000
00100000
00000000
,
10000000
00000000
01000000
00000000
,
00010000
00001000
00010000
00000000
,
00001000
00010000
00000100
00000000
,
00000020
00000000
00000000
00000030
,
00000001
00000010
00000100
00001000
,
00000100
00000000
00000110
00000000
,
00000010
00000001
00001000
00000100
,
00010000
00000000
00011000
00000000
,
00001000
00100000
00010000
00000000
,
00100000
01000000
10000000
00000000
,
00020000
00000000
00000000
00000000
,
00030000
00000000
00000000
00000000
,
10000000
00000000
10010000
00000000
,
00010000
01000000
00001000
00000000
,
00010000
00000000
00011000
00000000
,
00001000
00010000
00000100
00000000
,
00000010
00000000
00000110
00000000
,
00000100
00001000
00000001
00000000
,
00000100
00000010
00001000
00000000
,
00000010
00010000
00001000
00000000
,
00001000
00010000
00001000
00100000
,
00010000
01000000
00010000
00000000
,
10000000
01000000
00100000
00010000
,
01000000
00100000
10000000
00000000
,
10000000
00010000
01000000
00001000
,
00010000
00001000
00010000
00000000
,
00001000
00010000
00000010
00001000
,
00000010
00000000
00000000
00000000
,
00000200
00000000
00000000
00000300
,
00000002
00000000
00000000
00000003
,
00002000
00000000
00000000
00003000
,
00000200
00000000
00000000
00000300
,
00010000
00000000
00010000
00000000
,
00001000
00010000
00001000
00000000
,
00010000
00000000
00100000
00000000
,
10000000
00000000
00000000
00000000
,
10000000
00010000
10000000
00000000
,
01000000
00000000
00100000
00000000
,
00001000
00010000
00001000
00000000
,
00010000
00000000
00000010
00000000
,
00001000
00000100
00000010
00000000
,
00000001
00000010
00000100
00000000
,
00002000
00000000
00000000
00000000
,
00003000
00000000
00000000
00000000
,
00001001
00000000
00000001
00000100
,
00001000
00000000
00000000
00000000
,
00011000
00000000
00011000
00000000
,
00010000
00001000
00100000
00000000
,
00010000
01000000
00010000
00000000
,
10000000
01000000
10000000
00000000
,
00010000
00100000
00001000
00010000
,
00001000
00000000
00011000
00000000
,
00020000
00000000
00000000
00030000
,
00000200
00000000
00000000
00000300
,
00002000
00000000
00000000
00003000
,
00000020
00000000
00000000
00000030
,
00000100
00000001
00001000
00000100
,
00010000
00001000
00100000
00000000
,
00010000
10000000
01000000
00100000
,
00010000
01000000
00001000
00010000
,
00000000
00000000
00000000
00000000
;
#NOTES:
     dance-double:
     :
     Medium:
     9:
     :
00000000
00000000
00000000
00000000
,
00000000
00000000
00000000
00000000
,
00000000
00000000
00000000
00000000
,
00000000
00000000
00000000
00000000
,
00000000
00000000
00000000
00000000
,
00000000
00000000
00000000
00000000
,
00011000
00000000
00001000
00000000
00010000
00000000
00000100
00001000
,
00000000
00000010
00000000
00000110
00000000
00000100
00000001
00000100
,
00000001
00000000
00000001
00001000
00000001
00000000
00001000
00000100
,
00000000
00000100
00020000
00000000
00000000
00000000
00030000
00000000
,
00010000
00000000
00001000
00000000
00100000
00000000
00010000
01000000
,
00010000
00000000
00100000
00000000
01000000
00000000
10000000
00010000
,
10000000
00000000
01000000
00000000
00010000
00001000
00010000
00000000
,
00000200
00002300
00003020
00000130
,
00000001
00000100
00000010
00000000
00000100
00000010
00001000
00000000
,
00000010
00010000
00001000
00000000
00010000
00000000
00001000
00000000
,
00022000
00000000
00000000
00000000
,
00033000
00000000
00000000
00000000
,
00011000
00000000
00001000
00000000
00100000
00000000
01000000
00100000
,
01000000
10000000
00010000
01000000
,
10000000
00000000
01000000
00000000
00010000
10000000
00010000
00000000
,
00100000
00001000
00020000
00030000
,
00011000
00000000
00010000
00000000
00000010
00000000
00000100
00000010
,
00000100
00000001
00001000
00000100
,
00000001
00000000
00000100
00000000
00001000
00000001
00001000
00000000
,
00000020
00000000
00000000
00000030
,
00000010
00001000
00000010
00000000
00000100
00000000
00000001
00000000
,
00000010
00000100
00001000
00000000
00000100
00000000
00010000
00000000
,
00001000
00010000
00001000
00000000
01000000
00000000
00010000
00000000
,
00100000
00000000
00010000
00000000
01000000
00100000
10000000
00000000
,
00010000
00000000
01000000
00000000
00100000
10000000
01000000
00000000
,
00100000
00000000
00010000
00000000
00100000
00001000
00010000
00000000
,
00001000
00000000
00010000
00000000
00000010
00001000
00000010
00000100
,
00000000
00000000
00000000
00000000
,
00000002
00000000
00000003
00000000
00000001
00001000
00000100
00000000
,
00002000
00000000
00003000
00000000
00001000
00000100
00010000
00000000
,
00002000
00000000
00003000
00000000
00001000
00100000
00010000
00000000
,
00020000
10030000
10010000
00000000
,
20000000
00000000
30000000
00000000
10000000
00010000
01000000
00000000
,
00020000
00000000
00030000
00000000
00010000
01000000
00001000
00000000
,
00020000
00000000
00030000
00000000
00010000
00000010
00001000
00000000
,
00002000
00003001
00001001
00000000
,
00000011
00000000
00001100
00000000
,
00000001
00000000
00000100
00000000
00001000
00010000
00001000
00000000
,
00011000
00000000
00011000
00000000
,
00001000
00010000
00100000
00000000
,
10100000
00000000
01010000
00000000
,
10000000
00000000
01000000
00000000
00010000
00001000
00010000
00000000
,
00001000
00010000
00001000
00000000
00000010
00000000
00000001
00001000
,
00000000
00000000
00000000
00000000
,
00000002
00000000
00000000
00000003
,
00000200
00000000
00000000
00000300
,
00000020
00000000
00000000
00000030
,
00002000
00000000
00000000
00003000
,
00010000
00000000
01000000
00000000
,
00100000
00000000
10000000
00000000
,
10000000
01000000
00100000
00000000
,
00001000
00010000
00001000
00000000
,
00010000
00001000
00010000
00000010
,
00001000
00000100
00000010
00000000
,
00000001
00000001
00000100
00000100
,
00001000
00010000
00001000
00000000
,
00001000
00000000
00010000
00000000
00100000
01000000
00100000
00000000
,
10000000
00000000
00010000
00000000
00100000
01000000
00100000
00000000
,
00020000
00000000
00000000
00000000
,
00030000
00000000
00000000
00000000
,
10010000
00000000
10000000
01000000
,
00010000
00001000
00010000
00011000
,
00001000
00000000
00010000
00000000
00000010
00001000
00000100
00000000
,
00000010
00000001
00000100
00000001
,
00000010
00000010
00000100
00010000
,
00001000
00001000
01000000
00010000
,
00100000
00010000
00100000
00000000
01000000
10000000
01000000
00000000
,
00100000
00000000
01100000
00000000
01000000
00100000
01000000
00000000
,
00200000
00300000
01100000
00000000
,
10010000
00000000
10000000
00100000
,
00020000
00000000
00031000
00001000
,
00010000
00000100
00010000
00000000
00000010
00001000
00000010
00000000
,
00001000
00000100
00000010
00000000
00000001
00000000
00000100
00000000
,
00000010
00001000
00000010
00000000
00010000
00000000
00001000
00000000
,
00200000
00320000
02030000
03200000
,
10300000
01000000
00100000
00000000
00001000
00010000
00001000
00010000
,
00000000
00000000
00000000
00000000
;
#NOTES:
     dance-double:
     :
     Hard:
     12:
     :
00000000
00000000
00000000
00000000
,
00000000
00000000
00000000
00000000
,
00000000
00000000
00000000
00000000
,
00000000
00000000
00000000
00000000
,
00000000
00000000
00000000
00000000
,
00000000
00000000
00000000
00000000
,
00011000
00000000
00001000
00010000
00100000
10000000
00010000
01000000
,
00000000
00000000
00100000
00000000
00000000
00100000
00000000
00000000
10000000
00000000
00000000
10000000
00000000
00000000
00010000
00000000
,
00100000
01000000
00100000
00001000
00010000
00001000
00010000
00010000
,
00000000
00010000
00000100
00001000
00000010
00000100
00000001
00000000
,
00001000
00000100
00000010
00000000
00000001
00000100
00000010
00000000
,
00001000
00000100
00010000
00001000
00100000
00010000
01000000
00000000
,
00010000
00100000
01000000
00000000
10000000
00100000
01000000
00000000
,
00010000
01000000
00001000
00010000
00000010
00001000
00000100
00000000
,
00000010
00000001
00000100
00000001
00000010
00000000
00001000
00000000
,
00010000
01000000
00100000
01000000
10000000
00000000
00010000
00000000
,
20000000
00000000
00000000
00000000
,
30000000
00000000
00000000
00000000
,
10010000
00000000
00000000
00000000
10000000
00000000
00000000
01000000
00000000
00000000
00010000
00000000
01000000
00000000
00000000
00000000
,
10000000
00000000
00000000
00000000
00100000
00000000
00000000
01000000
00000000
00010000
01000000
00000000
00020000
00000000
00000000
00000000
,
00130000
00000000
00000000
00000000
00001000
00000000
00000000
00010000
00000000
00000000
00001000
00000000
00010000
00000000
00001000
00000000
,
00000010
00000001
00000010
00001000
00000020
00000000
00000030
00000000
,
00000001
00000000
00000000
00000000
00000100
00000000
00000000
00000010
00000000
00000000
00000100
00000000
00001000
00000000
00010000
00000000
,
00001000
00000000
00000000
00000000
00010000
00000000
00000000
00000100
00000000
00010000
00001000
00000000
00010000
00000000
00000000
00000000
,
00001000
00000000
00010000
00000000
01000000
00000000
00000000
10000000
00000000
00000000
00100000
00000000
01000000
00000000
00100000
00000000
,
02000000
00000000
00000000
03000000
,
10010000
00000000
00000000
00000000
10000000
00000000
00000000
00100000
00000000
00000000
00010000
00000000
00100000
00000000
00000000
00000000
,
10000000
00000000
00000000
00000000
01000000
00000000
00000000
00100000
00000000
00010000
01000000
00000000
00020000
00000000
00000000
00000000
,
00130000
00000000
00000000
00000000
00001000
00000000
00000000
00010000
00000000
00000000
00000010
00000000
00001000
00000000
00000100
00000000
,
00000001
00001000
00000010
00000001
00000200
00000000
00000300
00000000
,
00000001
00000000
00000000
00000000
00000010
00000000
00000000
00000100
00000000
00000000
00000010
00000000
00001000
00000000
00010000
00000000
,
00001000
00000000
00000000
00000000
00010000
00000000
00000000
00000010
00000000
00010000
00001000
00000000
00010000
00000000
00000000
00000000
,
00001000
00000000
00010000
00000000
00100000
00000000
00000000
10000000
00000000
00000000
01000000
00000000
00100000
00000000
01100000
00000000
,
00000000
00000000
00000000
00000000
,
10000000
01000000
00010000
00000000
01000000
10000000
00010000
00000000
,
01000000
00100000
00010000
00000000
00001000
00000000
00011000
00000000
,
00010000
00000100
00001000
00000000
00000010
00001000
00000100
00000000
,
00000001
00000000
00000100
00000000
00001000
00000000
00000000
00000001
00000000
00001000
00000000
00000001
00000000
00001000
00000000
00000000
,
00000001
00000100
00001000
00000000
00000100
00000001
00001000
00000000
,
00000100
00000010
00001000
00000000
00010000
00000000
00011000
00000000
,
00001000
01000000
00010000
00000000
00100000
00010000
01000000
00000000
,
10000000
01000000
00010000
10000000
00020000
00000000
00030000
00000000
,
10010000
00000000
10000000
01000000
00100000
01000000
00010000
00001000
,
00010000
00000000
00001000
00010000
00001000
00000010
00000100
00001000
,
00000001
00000000
00000001
00000100
00000010
00001000
00000100
00010000
,
00001000
00000000
00000000
00000000
00010000
00000000
00000000
00000100
00000000
00001000
00000000
00000010
00000000
00000100
00000000
00000000
,
00000001
00000010
00000100
00001000
00000010
00000100
00001000
00000000
,
00010000
00100000
01000000
00010000
00100000
01000000
10000000
00000000
,
00010000
01000000
00100000
01000000
00100000
00010000
00001000
00010000
,
00000000
00000000
00000000
00000000
,
00002000
00000000
00000000
00000000
,
00023000
00000000
00000000
00000000
,
00030020
00000000
00000000
00000000
,
00002030
00000000
00000000
00000000
,
00003002
00000000
00000103
00001000
,
00020000
00000000
00031000
00001000
,
00020000
00100000
00230000
10000000
,
20300000
00000000
30020000
00000000
01030000
00100000
01000000
00000000
,
00010000
10000000
01000000
00100000
00010000
01000000
00100000
00000000
,
10000000
00010000
01000000
00010000
00100000
00001000
00010000
00000000
,
00001000
00010000
00000100
00001000
00000010
00001000
00000100
00000000
,
00000010
00000001
00000100
00000010
00001000
00000100
00000010
00000000
,
00000001
00000100
00000001
00000100
00001000
00000100
00001000
00010000
,
00001000
00010000
00100000
00010000
00100000
10000000
00100000
00000000
,
20020000
00000000
00000000
00000000
,
30030000
00000000
00000000
00000000
,
10010000
00000000
00000000
00000000
10000000
00000000
00100000
00000000
01000000
00010000
00000000
01000000
00000000
00001000
00000000
00010000
,
00000000
00010000
00001000
00000000
00001000
00010000
00011000
00000000
,
00010000
00000010
00001000
00000000
00000100
00000001
00000100
00000000
,
00001000
00000001
00000100
00000010
00000100
00000001
00001000
00000000
,
00000001
00000010
00001000
00000000
00010000
00001000
00010000
00000000
,
00001000
00100000
00010000
00100000
01000000
10000000
00010000
00000000
,
10000000
10100000
01100000
01010000
,
00010000
10000000
01000000
00010000
00001000
00000000
00011000
00000000
,
00020000
00000000
00000000
00000000
00030000
00000000
00000000
00000000
00010000
00000000
00000000
00000100
00000000
00000000
00001000
00000000
,
00000010
00000000
00000000
00000100
00000000
00000000
00000100
00000000
00000020
00000000
00000000
00000000
00000030
00000000
00000000
00000000
,
00000010
00001000
00000100
00000000
00000010
00000001
00000100
00000000
,
00000001
00000000
00000010
00000000
00000000
00000010
00000000
00000000
00000100
00000000
00000000
00000100
00000000
00000000
00001000
00000000
,
00000001
00000100
00000010
00001000
00000100
00010000
00001000
00100000
,
00010000
01000000
00100000
10000000
01000000
10000000
00100000
01000000
,
00010000
00100000
00001000
00010000
00000100
00001000
00000010
00000100
,
00000001
00000000
00000100
00001000
00010000
00000000
00100000
10000000
,
00000000
00000000
00000000
00000000
;
