
//----- song ID: fiwo -----//
#TITLE:Firework;
#ARTIST:Katy Perry;
#BANNER:Firework.png;
#BACKGROUND:Firework-bg.png;
#CDTITLE:./CDTitles/DDR WORLD.png;
#MUSIC:Firework.ogg;
#SAMPLESTART:70.592;
#SAMPLELENGTH:15;
#BPMS:0=124;
#NOTES:
     dance-single:
     :
     Beginner:
     1:
     :
0000
0000
0000
0000
,
0000
0000
0000
0000
,
0000
0000
0000
0000
,
0000
0000
0000
0000
,
0000
0000
0000
0000
,
0001
0000
0000
0000
,
0001
0000
0000
0000
,
0001
0000
0000
0000
,
0001
0000
0000
0000
,
1000
0000
0000
0000
,
1000
0000
0000
0000
,
1000
0000
0000
0000
,
1000
0000
0000
0000
,
0010
0000
0000
0000
,
0010
0000
0000
0000
,
0010
0000
0000
0000
,
0010
0000
0000
0000
,
1000
0000
0000
0000
,
1000
0000
0000
0000
,
1000
0000
0000
0000
,
1000
0000
0000
0000
,
0002
0000
0003
0000
,
0000
0000
0000
0000
,
2000
0000
3000
0000
,
0000
0000
0000
0000
,
0020
0000
0030
0000
,
0000
0000
0000
0000
,
2000
0000
3000
0000
,
0000
0000
0000
0000
,
0001
0000
0000
0000
,
0001
0000
0000
0000
,
1000
0000
0000
0000
,
1000
0000
0000
0000
,
0010
0000
0000
0000
,
0010
0000
0000
0000
,
0010
0000
0000
0000
,
0000
0000
0000
0000
,
1000
0000
1000
0000
,
1000
0000
0000
0000
,
0001
0000
0001
0000
,
0001
0000
0000
0000
,
1001
0000
0000
0000
,
0001
0000
0000
0000
,
1001
0000
0000
0000
,
1000
0000
0000
0000
,
0001
0000
0001
0000
,
0001
0000
0000
0000
,
1000
0000
1000
0000
,
1000
0000
0000
0000
,
1001
0000
0000
0000
,
1000
0000
0000
0000
,
1001
0000
0000
0000
,
0001
0000
0000
0000
,
1000
0000
0000
0000
,
1000
0000
0000
0000
,
0001
0000
0000
0000
,
0001
0000
0000
0000
,
1000
0000
0000
0000
,
1000
0000
0000
0000
,
0010
0000
0000
0000
,
0010
0000
0000
0000
,
0000
0000
0000
0000
;
#NOTES:
     dance-single:
     :
     Easy:
     3:
     :
0000
0000
0000
0000
,
0000
0000
0000
0000
,
0000
0000
0000
0000
,
0000
0000
0000
0000
,
0000
0000
0000
0000
,
1000
0000
0001
0000
,
1000
1000
1000
0000
,
0001
0000
1000
0000
,
0001
0001
0001
0000
,
1000
0000
0010
0000
,
1000
1000
1000
0000
,
0001
0000
0010
0000
,
0001
0001
0001
0000
,
1000
0000
0100
0000
,
1000
1000
1000
0000
,
0001
0000
0100
0000
,
0001
0001
0001
0000
,
1000
0000
0001
0000
,
0010
0010
0010
0000
,
0001
0000
1000
0000
,
0010
0010
0010
0000
,
2000
0000
3000
0000
,
0002
0000
0003
0000
,
2000
0000
3000
0000
,
0002
0000
0003
0000
,
0020
0000
0030
0000
,
0020
0000
0030
0000
,
0002
0000
0003
0000
,
2000
0000
3000
0000
,
0001
0000
0001
0000
,
0002
0000
0003
0000
,
1000
0000
1000
0000
,
2000
0000
3000
0000
,
0010
0000
0010
0000
,
0020
0000
0030
0000
,
0010
0000
0010
0000
,
0020
0000
0030
0000
,
1000
0001
1000
0000
,
0001
1000
0001
0000
,
1000
0010
1000
0000
,
0001
0010
0001
0000
,
2002
0000
3003
0000
,
0000
0000
0110
0000
,
2002
0000
3003
0000
,
0000
0000
1001
0000
,
0001
1000
0001
0000
,
1000
0001
1000
0000
,
0001
0010
0001
0000
,
1000
0010
1000
0000
,
2002
0000
3003
0000
,
0000
0000
0110
0000
,
2002
0000
3003
0000
,
0001
1000
0001
0000
,
2000
0000
0000
3000
,
0001
0001
0001
0000
,
0002
0000
0000
0003
,
1000
1000
1000
0000
,
2000
0000
0000
3000
,
0010
0010
0010
0000
,
0020
0000
0000
0030
,
0100
0100
0100
0100
,
0000
0000
0000
0000
;
#NOTES:
     dance-single:
     :
     Medium:
     7:
     :
0000
0000
0000
0000
,
0000
0000
0000
0000
,
0000
0000
0000
0000
,
0000
0000
0000
0000
,
0000
0000
0000
0000
,
1000
0100
0010
0100
,
1000
0001
0010
0001
,
1000
0100
0010
0001
,
1000
0010
0100
0100
,
0001
0100
0010
0100
,
0001
1000
0010
1000
,
0001
0100
0010
1000
,
0001
0010
0100
0100
,
1000
0100
1000
0010
,
0100
0001
0010
0001
,
1000
0010
0100
0001
,
0010
0100
1000
1000
,
0001
0100
0001
1000
,
0100
1000
0001
0100
,
0010
1000
0001
0010
,
0001
1000
0010
1000
,
0002
0000
0023
0000
,
0230
0000
2300
0000
,
3002
0000
0203
0000
,
0320
0000
2030
0000
,
3020
0000
0230
0000
,
0320
0000
2030
0000
,
3200
0000
0320
0000
,
0032
0000
1003
0000
,
0010
1000
0010
1000
,
0010
0100
0010
0100
,
0001
0100
0001
0100
,
0001
1000
0001
1000
,
0010
0000
1000
0010
0000
1000
0010
0000
,
1000
0001
0010
0100
,
1000
0000
0100
1000
0000
0100
1000
0000
,
0001
0100
0010
1000
,
0001
0010
0001
0010
,
0100
1000
0100
1000
,
0001
0100
0001
0100
,
0010
1000
0010
1000
,
0001
0000
0010
0001
0000
0010
0001
0000
,
1000
0100
0010
0001
,
1000
0000
0010
1000
0000
0010
1000
0000
,
0001
0100
0010
1000
,
0001
0010
0001
0100
,
0001
0010
0001
0001
,
1000
0010
1000
0100
,
1000
0010
1000
1000
,
0001
0000
0100
0001
0000
0100
0001
0000
,
1000
0010
0100
0001
,
1000
0000
0100
1000
0000
0100
1000
0000
,
0001
0010
0100
1000
,
0001
0000
1000
0100
0000
0010
0001
0000
,
1000
0100
0010
0001
,
1000
0000
0001
0100
0000
0010
1000
0000
,
0001
0100
0010
1000
,
0001
0000
1000
0010
0000
0100
0001
0000
,
1000
0010
0100
0001
,
1000
0000
0001
0010
0000
0100
1000
0000
,
0001
0010
0100
1001
,
0000
0000
0000
0000
;
#NOTES:
     dance-single:
     :
     Hard:
     12:
     :
0000
0000
0000
0000
,
0000
0000
0000
0000
,
0000
0000
0000
0000
,
0000
0000
0000
0000
,
0000
0000
0000
0000
,
1001
0000
1000
0100
0010
0001
1000
0000
,
1001
0000
0001
0100
0010
1000
0001
0000
,
0011
0000
0000
0000
0010
0001
0010
0000
0100
0000
1000
0000
0001
0000
0000
0000
,
0100
0010
0100
0001
1000
0100
0010
0000
,
0110
0000
0100
1000
0001
0100
0010
0000
,
0110
0000
0100
0001
1000
0100
0010
0000
,
0110
0000
0000
0000
0100
1000
0100
0000
0010
0000
0001
0000
1000
0000
0000
0000
,
0010
0100
0010
1000
0001
0010
0100
0000
,
1100
0000
1000
0001
0010
0100
2000
0000
,
3100
0100
0010
0001
1000
0100
0020
0000
,
0031
0000
0000
0000
0100
0001
0100
0000
0010
0000
1000
0000
0001
0000
0100
0000
,
0010
1000
0010
0000
0100
0000
0001
0000
1000
0000
0100
0000
0020
0000
0000
0000
,
0031
0000
0100
0001
1000
0100
0020
0000
,
0031
0000
0100
0010
1000
0100
0020
0000
,
0130
0100
1000
0001
0100
0010
2000
0000
,
3001
0000
0010
0100
1000
0010
0100
0020
,
0000
0000
0000
0000
0030
0000
1000
0002
,
0000
0000
0000
0000
0003
0000
0010
0200
,
0000
0000
0000
0000
0300
0000
0100
0020
,
0000
0000
0000
0000
0030
0000
0011
0002
,
0000
0000
0000
0000
0003
0000
0100
0020
,
0000
0000
0000
0000
0030
1000
0100
0020
,
0000
0000
0031
0200
0000
0000
0310
2000
,
0000
0000
0000
0000
3000
0000
0001
1000
0001
0000
0010
0000
0100
0000
1000
0000
,
0020
0000
0000
0000
0000
0000
0130
0002
,
0000
0000
0003
0000
0010
0100
1000
0010
,
0200
0000
0000
0000
0000
0000
0301
2000
,
0000
0000
3000
0000
0010
0100
0001
0010
,
0011
0000
1000
1100
0000
0001
2002
0000
,
3003
0000
1000
0100
0010
0001
0100
0010
,
1010
0000
0001
0101
0000
1000
2002
0000
,
3003
0000
0000
0000
0001
0010
0100
1000
,
0001
0100
0001
0100
0010
1000
0010
1000
,
0001
0010
0001
0010
0100
1000
0100
1000
,
0010
0100
0010
0100
0001
1000
0001
1000
,
0100
0010
0100
0010
0001
1000
0001
1000
,
1020
0000
0130
0102
0000
0013
0210
0000
,
1300
0001
0100
0010
1000
0100
0010
0001
,
0021
0000
0130
2100
0000
3010
0210
0000
,
0301
0010
0100
1000
0001
0100
0010
1000
,
0001
0010
0001
0010
0100
1000
0100
1000
,
0001
0100
0001
0100
0010
1000
0010
1000
,
0001
0010
0001
0010
1000
0010
1000
0010
,
0001
0100
0001
0100
1000
0100
1000
0100
,
1200
0000
0310
2010
0000
3100
0120
0000
,
0031
0010
1000
0010
0001
0100
1000
0100
,
0201
0000
0310
2010
0000
3100
0120
0000
,
0031
0100
1000
0100
0001
0010
1000
0010
,
0012
1000
1003
2100
0001
3001
0201
0010
,
0310
1000
0100
0010
0001
0100
0010
1000
,
1200
0010
0310
0012
0100
0103
0120
1000
,
1030
0100
0001
0100
1000
0010
0001
0010
,
2010
0001
3001
0201
0010
0310
2010
0001
,
3001
1000
0010
0001
0010
1000
0100
0001
,
0201
0010
0310
0012
1000
1003
1020
0130
,
1000
0100
0010
1000
0001
0010
0100
1000
,
0000
0000
0000
0000
;
#NOTES:
     dance-double:
     :
     Easy:
     7:
     :
00000000
00000000
00000000
00000000
,
00000000
00000000
00000000
00000000
,
00000000
00000000
00000000
00000000
,
00000000
00000000
00000000
00000000
,
00000000
00000000
00000000
00000000
,
00010000
00001000
00100000
00010000
,
10000000
00100000
01000000
00000000
,
00010000
10000000
01000000
00100000
,
00001000
00010000
00001000
00000000
,
00001000
00010000
00000010
00001000
,
00000001
00000010
00000100
00000000
,
00001000
00000001
00000100
00000010
,
00010000
00001000
00010000
00000000
,
00001000
00100000
00010000
10000000
,
00100000
01000000
00010000
00000000
,
10000000
01000000
10000000
00010000
,
00100000
00001000
00010000
00000000
,
00010000
00000100
00001000
00000001
,
00000100
00000010
00010000
00001000
,
00100000
00010000
10000000
00100000
,
01000000
00001000
00010000
00001000
,
00020000
00000000
00032000
00000000
,
00023000
00000000
00030200
00000000
,
00002300
00000000
00003002
00000000
,
00000203
00000000
00000302
00000000
,
00002003
00000000
00003020
00000000
,
00020030
00000000
00032000
00000000
,
00203000
00000000
00320000
00000000
,
20030000
00000000
30010000
00000000
,
10000000
01000000
00100000
00001000
,
00010000
00000100
00000010
00000001
,
00000001
00000100
00000010
00010000
,
00001000
01000000
00100000
10000000
,
00100000
00000000
10000000
00100000
00000000
10000000
00100000
00000000
,
00000000
01000000
00001000
00010000
,
00000100
00000000
00001000
00000100
00000000
00001000
00000100
00000000
,
00000000
00000000
00001001
00000000
,
00000001
00000010
00000100
00010000
,
00001000
00100000
01000000
10000000
,
10000000
00100000
01000000
00001000
,
00010000
00000010
00000100
00000001
,
00001000
00000000
00000100
00001000
00000000
00000100
00001000
00000000
,
00000100
00010000
00001000
01000000
,
00010000
00000000
01000000
00010000
00000000
01000000
00010000
00000000
,
10000000
00100000
01000000
00010000
,
10000000
01000000
00100000
00010000
,
00001000
00000100
00000010
00000001
,
00000001
00000100
00000010
00001000
,
00010000
01000000
00100000
10000000
,
00010000
00000000
00100000
00010000
00000000
00100000
00010000
00000000
,
00100000
00001000
00010000
00000010
,
00001000
00000000
00000010
00001000
00000000
00000010
00001000
00000000
,
00000001
00000010
00000100
00001000
,
00000010
00000000
00010000
00001000
00000000
00010000
00000010
00000000
,
00001000
00000100
00010000
00001000
,
00100000
00000000
00001000
00010000
00000000
00001000
00100000
00000000
,
00010000
00100000
01000000
10000000
,
00100000
00000000
01000000
00010000
00000000
10000000
01000000
00000000
,
00100000
00001000
00010000
00000100
,
00000010
00000000
00000100
00001000
00000000
00000001
00000100
00000000
,
00000010
00010000
00001000
00011000
,
00000000
00000000
00000000
00000000
;
#NOTES:
     dance-double:
     :
     Medium:
     9:
     :
00000000
00000000
00000000
00000000
,
00000000
00000000
00000000
00000000
,
00000000
00000000
00000000
00000000
,
00000000
00000000
00000000
00000000
,
00000000
00000000
00000000
00000000
,
00011000
00000000
00001000
00010000
00001000
00010000
00001000
00000000
,
01001000
00000000
01000000
00010000
01000000
00010000
01000000
00000000
,
01100000
00000000
00100000
10000000
00100000
10000000
00100000
00000000
,
01000000
00010000
01000000
00000000
00001000
00010000
00001000
00000000
,
00011000
00000000
00010000
00001000
00010000
00001000
00010000
00000000
,
00010100
00000000
00000100
00001000
00000100
00001000
00000100
00000000
,
00000110
00000000
00000010
00000001
00000010
00000001
00000010
00000000
,
00000100
00001000
00000100
00000000
00010000
00001000
00010000
00000000
,
00011000
00000000
00001000
00100000
00001000
00100000
00001000
00000000
,
00100000
00010000
00100000
00010000
00100000
00010000
00100000
00000000
,
01100000
00000000
01000000
10000000
01000000
10000000
01000000
00000000
,
00100000
00010000
00100000
00000000
00001000
00010000
00001000
00000000
,
00011000
00000000
00010000
00000010
00010000
00000010
00010000
00000000
,
00011000
00000000
00001000
00100000
00001000
00100000
00001000
00000000
,
00010000
00000100
00010000
00000100
00010000
00000100
00010000
00000000
,
00001000
01000000
00001000
00000000
01000000
00010000
01000000
00020000
,
00000000
00000000
00000000
00000000
00030000
00000000
10000000
00200000
,
00000000
00000000
00000000
00000000
00300000
00000000
01000000
00020000
,
00000000
00000000
00000000
00000000
00030000
00000000
00100000
00002000
,
00000000
00000000
00000000
00000000
00003000
00000000
00010000
00000020
,
00000000
00000000
00000000
00000000
00000030
00000000
00001000
00000020
,
00000000
00000000
00000000
00000000
00000030
00000100
00000001
00002000
,
00000000
00000000
00003100
00020000
00000000
00000000
00031000
00200000
,
00000000
00000000
00300000
00000000
00010000
10000000
00010000
00000000
,
00200000
00000000
00000000
00000000
00000000
00000000
01300000
20000000
,
00000000
00000000
30000000
00000000
00100000
01000000
00100000
00000000
,
02000000
00000000
00000000
00000000
00000000
00000000
03001000
00020000
,
00000000
00000000
00030000
00000000
00001000
00010000
00001000
00000000
,
00200000
00000000
01300000
00200000
00000000
01300000
00200000
00000000
,
00300000
00000000
00001000
00000000
00010000
00001000
00010000
00000000
,
00000020
00000000
00000130
00000020
00000000
00000130
00000020
00000000
,
00000030
00000000
00000000
00000000
00001000
00000001
00001000
00000000
,
00001001
00001001
00001001
00001001
,
00001100
00001100
00001100
00001100
,
00010100
00010100
00010100
00010100
,
00011000
00011000
00011000
00011000
,
00101000
00000000
00000000
01100000
00000000
00000000
11000000
00000000
,
00000000
10010000
10010000
10010000
,
10100000
00000000
00000000
01100000
00000000
00000000
01010000
00000000
,
00000000
00000000
10010000
00000000
00010000
10000000
00010000
00000000
,
10010000
10010000
10010000
10010000
,
01010000
01010000
01010000
01010000
,
01001000
01001000
01001000
01001000
,
00011000
00011000
00011000
00011000
,
00010010
00000000
00000000
00000110
00000000
00000000
00000101
00000000
,
00000000
00001001
00001001
00001001
,
00000011
00000000
00000000
00000110
00000000
00000000
00001100
00000000
,
00000000
00010100
00010100
00010100
,
00000100
00000000
00000010
00000001
00000000
00001000
00000200
00000000
,
00000000
00000300
00010000
00001000
00010000
00001000
00010000
00000000
,
00001000
00000000
01000000
00010000
00000000
10000000
00100000
00000000
,
00000000
10100000
10100000
10100000
,
10000000
00000000
00010000
01000000
00000000
00001000
00020000
00000000
,
00000000
00030000
00001000
00010000
00001000
00010000
00001000
00000000
,
00010000
00000000
00000100
00001000
00000000
00000001
00000200
00000000
,
00000310
00000000
00010000
00000000
00001000
00010000
00001000
00010000
,
00000000
00000000
00000000
00000000
;
#NOTES:
     dance-double:
     :
     Hard:
     12:
     :
00000000
00000000
00000000
00000000
,
00000000
00000000
00000000
00000000
,
00000000
00000000
00000000
00000000
,
00000000
00000000
00000000
00000000
,
00000000
00000000
00000000
00000000
,
00011000
00000000
00001000
01000000
00010000
10000000
01000000
00000000
,
01100000
00000000
00100000
00001000
00010000
00000010
00001000
00000000
,
00001001
00000000
00000001
00000010
00000100
00010000
00001000
00000000
,
00010000
00010000
00001000
01000000
00010000
10000000
01000000
00000000
,
01100000
00000000
00100000
01000000
00010000
00001000
00010000
00000000
,
00011000
00000000
00001000
00010000
00000010
00001000
00000010
00000000
,
00000110
00000000
00000010
00000100
00001000
00010000
00001000
00000000
,
00010000
00010000
00001000
00100000
01000000
10000000
00010000
00000000
,
01010000
00000000
01000000
00100000
00010000
00001000
00020000
00000000
,
00031000
00001000
00010000
01000000
10000000
00100000
00020000
00000000
,
00031000
00000000
00010000
00001000
00000100
00001000
00010000
00001000
,
00010000
01000000
00010000
00001000
00000100
00001000
00020000
00000000
,
00031000
00000000
00100000
01000000
10000000
00100000
00020000
00000000
,
00031000
00000000
00000100
00000001
00000010
00001000
00020000
00000000
,
00031000
00001000
00010000
01000000
00100000
00010000
20000000
00000000
,
30010000
00000000
01000000
00100000
10000000
01000000
00100000
00002000
,
00000000
00000000
00000000
00000000
00003000
00000000
00010000
00000020
,
00000000
00000000
00000000
00000000
00000030
00000000
00001000
00000002
,
00000000
00000000
00000000
00000000
00000003
00000000
00000100
00000020
,
00000000
00000000
00000000
00000000
00000030
00000000
00010000
00002000
,
00000000
00000000
00000000
00000000
00003000
00000000
01000000
00200000
,
00000000
00000000
00000000
00000000
00300000
10000000
01000000
00020000
,
00000000
00000000
00031000
00000020
00000000
00000000
00000031
00000200
,
00000000
00000000
00000300
00000000
00000010
00010000
00001000
00000100
,
00000020
00000000
00000000
00000000
00000000
00000000
00000130
00000002
,
00000000
00000000
00000003
00000000
00000010
00001000
00010000
00000100
,
00000020
00000000
00000000
00000000
00000000
00000000
00000031
00002000
,
00000000
00000000
00003000
00000000
00000010
00000100
00001000
00010000
,
00021000
00000000
01030000
02100000
00000000
13000000
20020000
00000000
,
30030000
00000000
10000000
01000000
00100000
00010000
00001000
00000100
,
00000012
00000000
00001003
00001020
00000000
00000130
00000202
00000000
,
00000303
00000000
00000000
00000000
00000001
00000010
00000100
00001000
,
00000010
00001000
00000010
00001000
00000100
00010000
00000100
00010000
,
00001000
01000000
00001000
01000000
00010000
00100000
00010000
00100000
,
01000000
10000000
01000000
10000000
00010000
01000000
00010000
01000000
,
00001000
00010000
00001000
00010000
00000100
00001000
00000100
00001000
,
00001200
00000000
00000310
00002010
00000000
00013000
00012000
00000000
,
00003100
00000000
00000010
00000100
00001000
00010000
00100000
01000000
,
01020000
00000000
10030000
12000000
00000000
03100000
00120000
00000000
,
10030000
01000000
00100000
00010000
00001000
00000100
00000010
00000001
,
00001000
00000010
00001000
00000010
00000100
00001000
00000100
00001000
,
00010000
00001000
00010000
00001000
00100000
00010000
00100000
00010000
,
10000000
01000000
10000000
01000000
00010000
01000000
00010000
01000000
,
00010000
00001000
00010000
00001000
00000100
00001000
00000100
00001000
,
00001200
00000000
00000301
00000021
00000000
00001030
00012000
00000000
,
00003100
00000001
00000010
00000100
00001000
00010000
00100000
01000000
,
12000000
00000000
03010000
00021000
00000000
00130000
02100000
00000000
,
03100000
00010000
00001000
00010000
01000000
00010000
00001000
00010000
,
00210000
00000000
10300000
12000000
00000000
03010000
00012000
00000000
,
00003100
00000001
00000010
00001000
00010000
00100000
10000000
01000000
,
01020000
00000000
00031000
00001200
00000000
00000301
00000021
00000000
,
00001030
00010000
00100000
00010000
00001000
00000100
00001000
00010000
,
02010000
00000000
13000000
10200000
00000000
00310000
00012000
00000000
,
00003100
00000001
00000010
00001000
00010000
01000000
10000000
00100000
,
00120000
00000000
00031000
00001020
00000000
00000031
00000201
00000000
,
00000310
00000100
00001000
00010000
01000000
00100000
00001000
00010000
,
00000000
00000000
00000000
00000000
;
