
//----- song ID: expl -----//
#TITLE:エクスプロウル;
#ARTIST:晴いちばん;
#TITLETRANSLIT:Explore;
#ARTISTTRANSLIT:Haru-ichiban;
#BANNER:Explore.png;
#BACKGROUND:Explore-bg.png;
#CDTITLE:./CDTitles/bm IIDX 32 Pinky Crush.png;
#MUSIC:Explore.ogg;
#SAMPLESTART:48.292;
#SAMPLELENGTH:15;
#BPMS:0=164;
#NOTES:
     dance-single:
     :
     Beginner:
     2:
     :
0000
0000
0000
0000
,
0000
0000
0000
0000
,
0000
0000
0000
0000
,
0000
0000
0000
0000
,
0000
0000
0000
0000
,
0001
0000
0000
0000
,
0001
0000
0000
0000
,
1000
0000
0000
0000
,
0010
0000
0000
0000
,
1000
0000
0000
0000
,
0000
0000
0000
0000
,
0010
0000
0000
0000
,
0000
0000
0000
0000
,
0100
0000
0000
0000
,
0000
0000
0000
0000
,
0002
0000
0000
0000
,
0003
0000
0000
0000
,
1000
0000
0000
0000
,
0001
0000
0000
0000
,
1000
0000
0000
0000
,
0001
0000
0000
0000
,
1000
0000
0000
0000
,
0100
0000
0000
0000
,
1000
0000
0000
0000
,
0100
0000
0000
0000
,
2000
0000
0000
0000
,
3000
0000
0000
0000
,
0002
0000
0000
0000
,
0003
0000
0000
0000
,
1000
0000
0000
0000
,
0001
0000
0000
0000
,
1000
0000
0000
0000
,
0001
0000
0000
0000
,
2002
0000
3003
0000
,
0000
0000
0000
0000
,
1000
0000
0000
0000
,
0001
0000
0001
0000
,
0000
0000
0000
0000
,
1000
0000
0000
0000
,
0001
0000
0000
0000
,
1000
0000
0000
0000
,
2002
0000
3003
0000
,
0000
0000
0000
0000
,
1000
0000
0000
0000
,
0001
0000
0000
0000
,
1000
0000
0000
0000
,
0000
0000
0000
0000
,
0010
0000
0000
0000
,
0000
0000
0000
0000
,
1000
0000
0000
0000
,
0000
0000
0000
0000
,
0100
0000
0000
0000
,
0000
0000
0000
0000
,
1000
0000
0000
0000
,
0001
0000
0000
0000
,
1000
0000
0000
0000
,
0001
0000
0000
0000
,
1000
0000
0000
0000
,
0010
0000
0000
0000
,
1000
0000
0000
0000
,
0010
0000
0000
0000
,
1000
0000
0000
0000
,
0001
0000
0000
0000
,
1000
0000
0000
0000
,
0100
0000
0000
0000
,
1000
0000
0000
0000
,
0001
0000
0000
0000
,
0002
0000
0000
0000
,
0003
0000
0000
0000
,
1000
0000
0000
0000
,
0001
0000
0000
0000
,
1000
0000
0000
0000
,
0010
0000
0010
0000
,
0000
0000
0000
0000
,
1000
0000
0000
0000
,
0001
0000
0000
0000
,
1000
0000
0000
0000
,
1001
0000
0000
0000
,
0001
0000
0000
0000
,
1000
0000
0000
0000
,
0001
0000
0000
0000
,
1001
0000
0000
0000
,
0000
0000
0000
0000
;
#NOTES:
     dance-single:
     :
     Easy:
     7:
     :
0000
0000
0000
0000
,
0000
0000
0000
0000
,
0000
0000
0000
0000
,
0000
0000
0000
0000
,
0000
0000
0000
0000
,
1000
0100
0010
0001
,
0010
0100
1000
0001
,
1000
0010
0100
0001
,
0100
0010
1000
0001
,
2000
0000
3002
0000
,
1003
0100
1000
0000
,
0001
0100
0001
1000
,
0020
0000
0000
0030
,
1000
0100
1000
0001
,
0100
0001
1000
0001
,
0020
0000
0230
0000
,
0310
0000
1001
0000
,
0001
0100
0001
1000
,
0010
1000
0001
0000
,
1000
0100
1000
0010
,
0200
0000
0000
0300
,
0001
1000
0100
0010
,
0001
0100
0010
1000
,
0001
0010
0100
0010
,
0002
0000
0000
0003
,
2000
0000
0000
0000
,
3200
0000
0000
0000
,
0320
0000
0000
0000
,
0032
0000
0000
0000
,
1003
0000
0001
0000
,
1000
0001
1000
0001
,
1000
0000
0010
0100
,
0010
0000
2000
3001
,
1000
0100
0010
0001
,
1000
0010
0100
0001
,
1000
0001
0010
0100
,
2000
3100
0002
0103
,
1000
0010
1000
0001
,
0010
0001
1000
0100
,
1000
0000
0001
0100
,
0001
1000
0001
1000
,
0100
1000
0001
0100
,
0010
1000
0001
0100
,
0010
1000
0001
0010
,
0100
1000
0001
0010
,
0001
0000
0001
0000
,
1000
0000
1000
0000
,
0010
0000
0010
0000
,
0100
0000
0100
0000
,
0002
0000
0000
0000
,
2003
0000
0000
0000
,
3020
0000
0000
0000
,
0130
0000
1001
0000
,
0001
0100
0010
0100
,
0001
0010
0100
0000
,
1000
0001
0010
0100
,
2000
0000
0000
3000
,
0100
0010
0001
1000
,
0010
0100
0001
1000
,
0100
0010
0001
1000
,
0020
0030
1000
0100
,
0010
0001
1000
0001
,
0100
0010
0100
0010
,
1000
0001
0100
0010
,
1000
0001
0010
0100
,
1000
0001
0010
0010
,
0001
1000
0010
0010
,
0200
0000
0320
0000
,
1030
0001
0010
0100
,
1000
0000
0100
0000
0010
0000
0000
1001
,
0000
1000
0010
0200
,
0300
0001
1000
0100
,
0020
0130
0020
0031
,
0010
0100
1000
0001
,
0100
0010
1000
0001
,
2000
0000
3001
1000
,
0100
0010
0100
1000
,
0001
0100
0001
0010
,
0100
1000
0010
1000
,
0001
0010
1000
0010
,
0001
0100
1000
0100
,
0002
0000
0000
0000
,
0000
0000
0000
0000
,
0000
0003
0000
0000
0000
0000
0000
0000
,
0000
0000
0000
0000
;
#NOTES:
     dance-single:
     :
     Medium:
     12:
     :
0000
0000
0000
0000
,
0000
0000
0000
0000
,
0000
0000
0000
0000
,
0000
0000
0000
0000
,
0000
0000
0000
0000
,
1000
0010
0100
0002
0000
0013
0100
1000
,
0001
0010
0100
2000
0000
3010
0100
0001
,
1000
0010
0100
0002
0000
0013
0100
1000
,
0001
0100
0010
2000
0000
3010
0100
0000
,
0002
0000
0000
0000
2003
0000
0000
0000
3010
0000
0000
1000
0000
0000
0001
0000
,
1000
0100
2000
0000
3002
0000
0003
1000
,
0001
0000
0000
0010
0000
0000
0001
0000
1000
0000
0000
0010
0000
0000
1000
0000
,
0002
0000
0000
0000
0000
0000
0003
0100
,
0002
0000
1003
0020
0000
0230
0000
0302
,
0000
0013
0200
0000
1300
0000
0001
0000
,
0020
0000
0000
0230
0000
0000
0320
0000
,
0032
0000
0000
0000
0000
0000
0000
0000
1003
0000
0000
1000
0000
0000
1000
0000
,
0001
0000
0000
0000
0020
0000
0000
0000
0130
0000
0000
0010
0000
0000
0001
0000
,
1000
0001
0020
0000
0230
0000
0300
1000
,
0100
0000
0000
0010
0000
0000
0100
0000
0020
0000
0000
0000
0032
0000
0000
0000
,
2003
0000
0000
0000
0000
0000
3000
0001
,
0100
0000
0010
2000
0000
3002
0000
0203
,
0000
0310
2000
0000
3001
0000
1000
0010
,
1000
0000
0000
0000
0010
0000
0100
0000
0010
0000
0000
1000
0000
0000
0002
0000
,
0000
0000
0000
0000
0000
0003
0000
0000
,
0021
0000
0000
0230
0000
0000
0320
0000
,
0032
0000
0000
0000
0003
0000
1000
0100
,
0020
0000
0000
0230
0000
0000
0320
0000
,
0032
0000
0003
2000
,
3001
0000
0000
0000
0000
0000
0100
0000
0010
0000
0000
0100
0000
0000
0001
0000
,
2000
3200
0302
0203
,
1300
0000
0000
0000
0000
0000
0010
0000
0100
0000
0000
0010
0000
0000
0020
0000
,
0000
0030
2000
3001
,
1000
0100
1000
0010
1000
0000
0001
0100
,
0000
0001
0010
0001
2000
0000
3001
0000
,
0000
1000
0100
1000
0001
0100
0001
1000
,
0002
0103
2000
3100
,
0001
0010
0100
0010
0001
0000
0100
0020
,
0000
0130
0010
2000
0000
3001
1000
0001
,
0200
0000
0000
0000
0300
0000
0001
0000
1000
0000
0000
0100
0000
0000
1000
0000
,
0000
0001
0100
0001
1000
0000
1100
0000
,
0101
0000
1001
0000
1000
0010
0100
0001
,
0010
0100
1000
0002
0000
0013
0100
0010
,
0001
0100
0010
2000
0000
3010
0100
0010
,
1000
0100
0010
0002
0000
0013
0100
0000
,
1001
0000
1000
0000
0001
0020
0000
0230
,
0000
2300
0000
3002
0000
0103
0010
0100
,
0020
0000
0130
0002
0000
2003
0000
3200
,
0000
0000
0000
0000
0300
0000
1000
0001
,
0020
0000
0031
0200
0000
0302
0000
0023
,
0000
0230
0000
2300
0000
3010
0100
0001
,
2000
0000
3100
2000
0000
0000
3020
0000
,
2030
0000
0000
0000
0000
0000
0000
0000
3001
0000
0000
0001
0000
0000
0001
0000
,
0200
0000
0000
0000
0320
0000
0000
0000
1030
0000
0000
0001
0000
0000
1000
0000
,
0010
0000
0100
0000
0002
0000
0000
0000
0013
0100
0000
0000
0000
0000
1000
0000
,
0100
0000
0000
0010
0000
0000
0100
0000
0020
0000
0000
0000
0032
0000
0000
0000
,
2003
0000
0000
0000
0000
0000
3000
0100
,
0010
0001
1000
0020
0000
0230
0000
0302
,
0000
0013
0200
0000
1300
0000
0001
0010
,
0001
0000
0000
0000
0010
0000
0100
0000
0010
0000
0000
0001
0000
0000
2000
0000
,
0000
0000
3000
0000
0001
0100
0001
0010
,
0001
0000
1000
0100
1000
0010
0100
0001
,
1000
0000
0001
0000
0100
0000
0000
0000
0001
1000
0000
0001
0000
0000
1000
0000
,
0002
0003
1000
0010
1000
0100
0010
0001
,
1000
0000
0000
0001
0000
0001
0000
1000
0000
0001
1000
0000
1001
0000
0000
0000
,
0001
0100
0010
1000
0001
0010
0100
1000
,
1000
0010
0100
0001
1000
0100
0010
0001
,
2000
0000
0000
0000
0001
0000
0000
0000
0001
0000
0000
0001
0000
0000
3001
0000
,
1000
0010
0100
0010
2000
0000
3002
0000
,
1003
0100
1000
0010
1000
0000
0001
1001
,
0000
0001
0010
0001
2000
0000
3001
0000
,
0000
1000
0010
1000
0001
0010
0001
1000
,
2001
3100
0012
1003
,
0010
1000
0100
0010
0002
0000
0103
2000
,
0000
3100
0001
0020
0000
1030
0010
0001
,
2000
0000
0000
0000
3000
0000
0010
0000
0100
0000
0000
0010
0000
0000
2000
0000
,
0000
3100
0001
0100
1000
0000
1010
0000
,
0101
0000
1001
0000
0001
0010
0100
0001
,
1000
0010
0001
0200
0000
1300
0100
0001
,
0010
0001
0100
0020
0000
0031
0010
0100
,
0001
0010
1000
0020
0000
0031
1000
0000
,
2002
0000
0000
0000
,
0000
0000
0000
0000
,
0000
3003
0000
0000
0000
0000
0000
0000
,
0000
0000
0000
0000
;
#NOTES:
     dance-single:
     :
     Hard:
     15:
     :
0000
0000
0000
0000
,
0000
0000
0000
0000
,
0000
0000
0000
0000
,
0000
0000
0000
0000
,
0000
0000
0000
0000
,
1000
0010
0100
0002
0000
0013
1000
0010
,
0001
0100
0010
2000
0000
3100
0010
0001
,
0100
0001
1000
0020
0000
1030
0010
0001
,
0010
1000
0100
0002
0000
0103
1000
0000
,
0001
0000
0000
0000
0001
0000
0000
0000
1000
0000
0000
1000
0000
0000
1000
0000
,
0000
0000
0010
0000
0000
0010
0000
0000
0100
0000
0000
0100
0000
0000
0100
0000
,
0001
0000
0000
0000
0001
0000
0000
0000
0010
0000
0000
0010
0000
0000
0010
0000
,
0000
0000
0100
0000
0000
0100
0000
0000
1000
0000
0000
1000
0000
0000
1000
0000
,
0001
0000
0000
0000
0100
0000
0000
0000
0010
0000
0000
1000
0000
0000
0100
0000
,
0000
0000
1000
0000
0000
0010
0000
0000
0100
0000
0000
0001
0000
0000
0010
0000
,
0100
0000
0000
0000
0010
0000
0000
0000
0001
0000
0000
1000
0000
0000
0001
0000
,
2000
0000
0000
0000
0000
3000
0000
0000
1001
0000
0000
1001
0000
0000
1001
0000
,
1000
0000
0001
0000
0100
0000
0010
0000
1000
0000
0001
0100
0001
0000
0100
0000
,
0010
0000
1000
0000
0010
1000
0010
0000
1000
0000
0001
0100
0001
0000
1000
0000
,
0001
0000
1000
0001
1000
0000
0010
0000
0100
0000
0010
0100
0010
0000
1000
0000
,
0001
0000
0100
0000
0010
0100
0001
0000
1000
0000
0100
0010
0001
0000
1000
0000
,
0001
0000
0100
0000
0010
0000
1000
0000
0001
0000
0010
0100
0010
0000
0001
0000
,
1000
0000
0010
1000
0010
1000
0010
0000
0100
0001
0100
0001
0100
0000
0001
0000
,
1000
0000
0010
0100
0001
0000
1000
0100
0010
0000
0001
0100
0010
0000
1000
0000
,
0010
0200
0302
0023
2030
3002
0203
2300
,
3020
0000
0000
1000
0000
1000
1000
0000
,
2030
0000
0000
0010
0000
0000
0010
0000
0000
0000
0000
0000
3200
0000
0000
0000
,
0320
0000
0000
0001
0000
0000
0230
0000
,
0320
0000
0000
0001
0000
0000
0001
0000
0031
0000
0000
0000
1001
0000
0000
0000
,
1000
0000
0001
0100
0001
0000
0100
0000
0001
0000
1000
0100
1000
0000
0100
0000
,
1000
0100
1000
0100
1000
0001
1000
0001
0100
0001
0100
0001
0100
0000
0000
0000
,
0002
0000
0000
0000
0000
0000
0000
0000
0000
0000
0000
0003
0000
0000
0010
0000
,
0000
0000
0110
0000
0110
0000
0000
0000
0010
0000
0100
0010
0100
0000
0000
0000
,
1000
0000
0000
0000
0101
0000
0001
0000
1000
0000
0100
1000
0100
0000
1000
0000
,
0001
0000
0100
0001
0100
0000
0001
0000
1000
0001
1000
0000
0010
0000
0100
0000
,
0001
0100
0001
0100
0001
0000
0100
0000
0010
1000
0010
1000
0010
0000
1000
0000
,
0001
0010
0100
0000
1000
0001
0100
0000
0010
1000
0001
0000
0010
0100
1000
0000
,
0001
0000
0100
0000
0010
0000
1000
0000
0001
0010
0001
0000
1000
0010
1000
0000
,
0010
0100
0010
0100
0010
0000
0100
0000
0001
1000
0001
1000
0001
0000
1000
0000
,
0001
0010
0001
0010
0001
0010
0001
0000
1000
0100
1000
0100
1000
0000
1001
0000
,
0000
0000
0001
1000
0001
0000
0000
0000
1100
0000
0000
0000
0101
0000
0000
0000
,
0010
0000
1001
0000
1000
0001
0100
0001
,
0010
0100
1000
0002
0000
0103
0010
0001
,
0010
1000
0100
0020
0000
0031
0010
1000
,
0010
0001
0100
2000
0000
3100
0001
0000
,
0101
0000
0000
0101
0000
0000
0000
0000
,
1010
0000
0000
1010
0000
0000
2002
3003
,
1100
0000
0000
0011
0000
0000
0000
0000
,
0010
0001
0010
0001
1000
0001
1000
0001
1000
0100
1000
0100
1000
0000
0000
0000
,
1100
0000
0000
0011
0000
0000
0000
0101
,
0000
0000
0000
1010
0000
0000
1001
0000
,
0011
0000
0000
1100
0000
0000
0101
0000
,
1001
0000
0000
0000
0000
0000
0000
0000
1001
0000
0000
1001
0000
0000
1001
0000
,
0001
0000
1000
0000
0100
0000
0010
0000
0001
0000
1000
0100
1000
0000
0100
0000
,
0010
0000
0001
0000
0010
0001
0010
0000
0001
0000
1000
0100
1000
0000
0001
0000
,
1000
0000
0001
1000
0001
0000
0010
0000
0100
0000
0010
0100
0010
0000
0001
0000
,
1000
0000
0100
0000
0010
0100
1000
0000
0001
0000
0100
0010
1000
0000
0001
0000
,
1000
0000
0100
0000
0010
0000
0001
0000
1000
0000
0010
0100
0010
0000
1000
0000
,
0001
0000
0010
0001
0010
0001
0010
0000
0100
1000
0100
1000
0100
0000
1000
0000
,
0001
0000
0010
0100
1000
0000
0001
0100
0010
0000
1000
0100
0010
0000
0001
0000
,
1000
0000
0100
0000
0010
0100
0010
0000
0001
0000
0010
0000
1000
0000
0010
0000
,
0001
0000
0000
0000
1000
0000
1000
0000
0001
0100
0010
1000
0000
0001
0000
0001
,
1000
0000
0100
0000
0001
0100
0000
1000
0100
0010
0001
1000
0000
0002
0003
0000
,
1001
0000
0000
0000
1000
0100
0010
0000
0001
0100
0010
0000
1000
0100
0010
0100
,
1000
0000
0000
0001
0000
0001
0000
0010
0000
0100
1000
0010
0100
0000
0000
0000
,
1001
0000
0000
0000
1000
0100
1000
0100
0000
1000
0020
0030
0001
0000
0010
0100
,
0010
0000
0200
0300
0001
0000
1000
0100
0000
0010
0100
0010
0100
0010
0100
0000
,
1001
0000
0000
0000
1000
0001
1000
0000
0001
0000
0000
0001
0000
0000
0001
0000
,
0010
1000
0001
0100
2000
0000
3002
0000
,
1003
0010
0001
0010
1000
0000
0001
1100
,
0000
1000
0010
0001
1000
0100
0001
0000
,
0100
0001
0100
0001
0100
0000
0001
0000
1000
0100
1000
0100
1000
0000
0100
0000
,
1000
0010
0100
0000
0001
0010
0100
0000
1000
0010
0001
0000
0010
1000
0100
0000
,
0010
0000
0001
0000
0100
0000
0010
0000
1000
0010
1000
0010
1000
0000
0001
0000
,
0010
0001
0010
0001
0010
0000
0100
1000
0100
1000
0100
0000
1000
0000
0001
0000
,
1000
0001
1000
0001
1000
0001
1000
0000
0010
0100
0010
0100
0010
0000
1001
0000
,
0000
0000
1000
0001
1000
0000
0000
0000
0101
0000
0000
0000
1100
0000
0000
0000
,
0010
0000
1001
0000
0001
1000
0100
0010
,
0001
0100
1000
0002
0000
1003
0100
0001
,
0010
0001
0100
0020
0000
0031
1000
0100
,
0010
0000
1000
0000
0100
0000
0020
0000
0000
0000
1030
0000
0010
0100
0010
0000
,
0220
0000
0000
0000
,
0000
0000
0000
0000
,
0000
0330
0000
0000
0000
0000
0000
0000
,
0000
0000
0000
0000
;
#NOTES:
     dance-double:
     :
     Easy:
     7:
     :
00000000
00000000
00000000
00000000
,
00000000
00000000
00000000
00000000
,
00000000
00000000
00000000
00000000
,
00000000
00000000
00000000
00000000
,
00000000
00000000
00000000
00000000
,
10000000
01000000
00100000
00010000
,
01000000
00001000
00010000
00000100
,
00001000
00000010
00000100
00000001
,
00000010
00001000
00010000
00001000
,
02000000
00000000
03020000
00000000
,
10030000
01000000
10000000
00000000
,
00010000
01000000
00001000
00010000
,
00000020
00000000
00000000
00000030
,
00001000
00000001
00000100
00000010
,
00001000
00000001
00000010
00000100
,
00002000
00000000
00003020
00000000
,
00010030
00000000
00011000
00000000
,
00001000
01000000
00010000
10000000
,
00100000
01000000
00010000
00000000
,
10000000
01000000
00100000
00001000
,
00020000
00000000
00000000
00030000
,
00001000
00010000
00000100
00001000
,
00000010
00000100
00000001
00001000
,
00000100
00000010
00000100
00010000
,
00002000
00000000
00000000
00003000
,
00200000
00000000
00000000
00000000
,
00320000
00000000
00000000
00000000
,
20030000
00000000
00000000
00000000
,
32000000
00000000
00000000
00000000
,
13000000
00000000
01000000
00000000
,
00100000
00010000
00100000
00010000
,
00100000
00000000
00001000
00010000
,
00000010
00000000
00002000
00003001
,
00001000
00000100
00000010
00000001
,
00001000
00000010
00010000
00001000
,
01000000
00010000
10000000
00100000
,
20000000
31000000
00020000
01030000
,
10000000
00100000
00010000
00001000
,
00010000
00000100
00001000
00000001
,
00000100
00000000
00000001
00001000
,
00000010
00010000
00001000
00100000
,
00010000
10000000
00100000
01000000
,
00010000
00100000
00001000
00010000
,
00000010
00001000
00000001
00000100
,
00000001
00000010
00001000
00010000
,
00001000
00000000
00001000
00000000
,
00010000
00000000
00010000
00000000
,
00100000
00000000
00100000
00000000
,
01000000
00000000
01000000
00000000
,
00020000
00000000
00000000
00000000
,
20030000
00000000
00000000
00000000
,
30200000
00000000
00000000
00000000
,
00310000
00000000
00001000
00000000
,
00010000
00001000
00010000
01000000
,
10000000
00100000
01000000
00000000
,
00100000
10000000
01000000
00010000
,
00002000
00000000
00000000
00003000
,
00010000
00001000
00000100
00000001
,
00000010
00000100
00001000
00000001
,
00000100
00001000
00010000
00100000
,
20000000
30000000
00010000
01000000
,
00100000
10000000
00010000
10000000
,
01000000
00100000
01000000
00100000
,
00010000
01000000
00100000
10000000
,
01000000
00100000
00001000
00010000
,
00000100
00001000
00000010
00000010
,
00010000
00001000
00100000
00100000
,
00020000
00000000
20030000
00000000
,
30010000
00100000
01000000
10000000
,
00010000
00000000
01000000
00000000
00100000
00000000
00000000
10010000
,
00000000
10000000
00100000
02000000
,
03000000
00100000
00010000
00001000
,
00020000
00031000
00200000
00310000
,
00100000
01000000
10000000
00010000
,
01000000
00100000
00010000
00001000
,
00020000
00000000
00031000
00010000
,
00000100
00001000
00000100
00000010
,
00000001
00000100
00000001
00000010
,
00000100
00001000
00000010
00010000
,
00001000
01000000
00100000
00010000
,
00001000
00010000
01000000
10000000
,
00020000
00000000
00000000
00000000
,
00000000
00000000
00000000
00000000
,
00000000
00030000
00000000
00000000
00000000
00000000
00000000
00000000
,
00000000
00000000
00000000
00000000
;
#NOTES:
     dance-double:
     :
     Medium:
     12:
     :
00000000
00000000
00000000
00000000
,
00000000
00000000
00000000
00000000
,
00000000
00000000
00000000
00000000
,
00000000
00000000
00000000
00000000
,
00000000
00000000
00000000
00000000
,
10000000
00100000
01000000
00020000
00000000
00130000
01000000
00010000
,
00001000
00000010
00000100
00002000
00000000
00003010
00000100
00000001
,
00001000
00000010
00000100
00000002
00000000
00000013
00001000
00010000
,
00001000
01000000
00100000
20000000
00000000
30100000
01000000
00000000
,
00020000
00000000
00000000
00000000
20030000
00000000
00000000
00000000
30100000
00000000
00000000
10000000
00000000
00000000
00010000
00000000
,
00100000
01000000
00020000
00000000
00032000
00000000
00003000
00010000
,
00000100
00000000
00000000
00001000
00000000
00000000
00000001
00000000
00000100
00000000
00000000
00000010
00000000
00000000
00001000
00000000
,
00000002
00000000
00000000
00000000
00000000
00000000
00000003
00000100
,
00000020
00000000
00010030
00002000
00000000
00203000
00000000
00320000
,
00000000
10030000
00200000
00000000
01300000
00000000
00010000
00000000
,
00200000
00000000
00000000
00320000
00000000
00000000
00032000
00000000
,
00003200
00000000
00000000
00000000
00000000
00000000
00000000
00000000
00001300
00000000
00000000
00001000
00000000
00000000
00001000
00000000
,
00000001
00000000
00000000
00000000
00000020
00000000
00000000
00000000
00000130
00000000
00000000
00000010
00000000
00000000
00000001
00000000
,
00001000
00000001
00000020
00000000
00000230
00000000
00000300
00001000
,
00000100
00000000
00000000
00010000
00000000
00000000
00001000
00000000
00200000
00000000
00000000
00000000
00320000
00000000
00000000
00000000
,
20030000
00000000
00000000
00000000
00000000
00000000
30000000
00010000
,
01000000
00000000
00100000
00020000
00000000
00032000
00000000
00003200
,
00000000
00000310
00002000
00000000
00003001
00000000
00001000
00000010
,
00001000
00000000
00000000
00000000
00000010
00000000
00000100
00000000
00000010
00000000
00000000
00001000
00000000
00000000
00000002
00000000
,
00000000
00000000
00000000
00000000
00000000
00000003
00000000
00000000
,
00000021
00000000
00000000
00000230
00000000
00000000
00000320
00000000
,
00000032
00000000
00000000
00000000
00000003
00000000
00001000
00000100
,
00020000
00000000
00000000
00032000
00000000
00000000
00203000
00000000
,
00320000
00000000
00030000
20000000
,
30010000
00000000
00000000
00000000
00000000
00000000
01000000
00000000
00100000
00000000
00000000
01000000
00000000
00000000
00010000
00000000
,
20000000
32000000
03020000
00032000
,
00013000
00000000
00000000
00000000
00000000
00000000
00000010
00000000
00001000
00000000
00000000
00000010
00000000
00000000
00000020
00000000
,
00000000
00000030
00002000
00003001
,
00001000
00000100
00010000
00001000
00100000
00000000
00010000
01000000
,
00000000
00010000
00100000
00001000
00020000
00000000
00030100
00000000
,
00000000
00001000
00000010
00000100
00000001
00000010
00001000
00010000
,
00002000
01003000
00002000
00103000
,
00010000
00100000
01000000
10000000
00100000
00000000
01000000
00200000
,
00000000
01300000
00010000
20000000
00000000
31000000
00010000
00001000
,
00020000
00000000
00000000
00000000
00030000
00000000
00001000
00000000
00010000
00000000
00000000
00000100
00000000
00000000
00001000
00000000
,
00000000
00000001
00000010
00001000
00010000
00000000
01010000
00000000
,
11000000
00000000
10010000
00000000
10000000
00100000
01000000
00010000
,
00100000
00001000
00010000
00000020
00000000
00000130
00000001
00001000
,
00000010
00000100
00000001
00000020
00000000
00000130
00010000
00001000
,
00100000
00010000
10000000
00200000
00000000
01300000
00010000
00000000
,
10010000
00000000
10000000
00000000
00010000
00200000
00000000
02300000
,
00000000
23000000
00000000
30020000
00000000
01030000
00001000
00010000
,
00000020
00000000
00000130
00000002
00000000
00002003
00000000
00003200
,
00000000
00000000
00000000
00000000
00000300
00000000
00001000
00000001
,
00000020
00000000
00000031
00000200
00000000
00002300
00000000
00023000
,
00000000
00230000
00000000
20300000
00000000
30100000
01000000
00010000
,
00200000
00000000
00301000
00020000
00000000
00000000
00030020
00000000
,
00002030
00000000
00000000
00000000
00000000
00000000
00000000
00000000
00003001
00000000
00000000
00000001
00000000
00000000
00000001
00000000
,
00000200
00000000
00000000
00000000
00000320
00000000
00000000
00000000
00001030
00000000
00000000
00000001
00000000
00000000
00001000
00000000
,
00000010
00000000
00010000
00000000
00002000
00000000
00000000
00000000
00103000
00010000
00000000
00000000
00000000
00000000
10000000
00000000
,
01000000
00000000
00000000
00100000
00000000
00000000
01000000
00000000
00200000
00000000
00000000
00000000
00302000
00000000
00000000
00000000
,
00023000
00000000
00000000
00000000
00000000
00000000
00030000
00000100
,
00000010
00000001
00000010
00002000
00000000
00023000
00000000
02030000
,
00000000
03100000
00020000
00000000
10030000
00000000
00010000
00100000
,
00010000
00000000
00000000
00000000
00100000
00000000
01000000
00000000
00100000
00000000
00000000
00010000
00000000
00000000
20000000
00000000
,
00000000
00000000
30000000
00000000
00010000
01000000
00001000
00010000
,
00000010
00000000
00001000
00000100
00010000
00001000
01000000
00010000
,
10000000
00000000
00010000
00000000
01000000
00000000
00000000
00000000
00010000
10000000
00000000
00010000
00000000
00000000
10000000
00000000
,
00020000
00030000
10000000
00100000
10000000
01000000
00010000
00001000
,
00010000
00000000
00000000
00001000
00000000
00001000
00000000
00010000
00000000
00001000
00010000
00000000
00011000
00000000
00000000
00000000
,
00001000
00010000
00000010
00001000
00000100
00010000
00001000
01000000
,
00010000
00100000
00001000
00010000
00000100
00001000
00000010
00010000
,
00002000
00000000
00000000
00000000
00010000
00000000
00000000
00000000
00010000
00000000
00000000
00010000
00000000
00000000
00013000
00000000
,
00001000
00100000
00010000
10000000
02000000
00000000
03200000
00000000
,
00310000
01000000
00001000
00010000
00000010
00000000
00001000
00001001
,
00000000
00000001
00000010
00001000
00020000
00000000
00031000
00000000
,
00000000
00010000
00000010
00001000
00000010
00010000
00001000
01000000
,
00200000
10300000
00200000
00310000
,
00100000
10000000
01000000
00010000
00002000
00000000
00013000
00000020
,
00000000
00000130
00000001
00000020
00000000
00001030
00000010
00000001
,
00002000
00000000
00000000
00000000
00003000
00000000
00000010
00000000
00000100
00000000
00000000
00001000
00000000
00000000
00020000
00000000
,
00000000
00031000
00010000
01000000
10000000
00000000
10100000
00000000
,
00110000
00000000
00011000
00000000
00010000
00001000
01000000
00100000
,
10000000
01000000
00010000
00002000
00000000
00013000
01000000
10000000
,
00100000
00010000
00001000
00200000
00000000
00301000
00010000
00000100
,
00001000
00000010
00000001
00000020
00000000
00001030
00000001
00000000
,
00002002
00000000
00000000
00000000
,
00000000
00000000
00000000
00000000
,
00000000
00003003
00000000
00000000
00000000
00000000
00000000
00000000
,
00000000
00000000
00000000
00000000
;
#NOTES:
     dance-double:
     :
     Hard:
     15:
     :
00000000
00000000
00000000
00000000
,
00000000
00000000
00000000
00000000
,
00000000
00000000
00000000
00000000
,
00000000
00000000
00000000
00000000
,
00000000
00000000
00000000
00000000
,
10000000
00100000
01000000
00020000
00000000
00130000
01000000
00100000
,
00001000
00010000
00000100
00002000
00000000
00003001
00000100
00001000
,
00010000
00100000
01000000
00200000
00000000
10300000
01000000
00010000
,
00001000
00000100
00000001
00002000
00000000
00003100
00000010
00000000
,
00000001
00000000
00000000
00000000
00000001
00000000
00000000
00000000
00001000
00000000
00000000
00001000
00000000
00000000
00001000
00000000
,
00000000
00000000
00000010
00000000
00000000
00000010
00000000
00000000
00010000
00000000
00000000
00010000
00000000
00000000
00010000
00000000
,
00001000
00000000
00000000
00000000
00001000
00000000
00000000
00000000
00100000
00000000
00000000
00100000
00000000
00000000
00100000
00000000
,
00000000
00000000
00010000
00000000
00000000
00010000
00000000
00000000
10000000
00000000
00000000
10000000
00000000
00000000
10000000
00000000
,
01000000
00000000
00000000
00000000
00010000
00000000
00000000
00000000
00001000
00000000
00000000
00000010
00000000
00000000
00000001
00000000
,
00000000
00000000
00000100
00000000
00000000
00001000
00000000
00000000
00010000
00000000
00000000
00100000
00000000
00000000
10000000
00000000
,
01000000
00000000
00000000
00000000
00010000
00000000
00000000
00000000
00001000
00000000
00000000
00000010
00000000
00000000
00000001
00000000
,
00002000
00000000
00000000
00000000
00000000
00003000
00000000
00000000
00000001
00000000
00000000
00000001
00000000
00000000
00000001
00000000
,
00001000
00000000
00000100
00000000
00000010
00000000
00001000
00000000
00010000
00000000
01000000
00100000
01000000
00000000
10000000
00000000
,
00010000
00000000
01000000
00000000
00100000
01000000
00100000
00000000
10000000
00000000
00010000
01000000
00010000
00000000
01000000
00000000
,
00001000
00000000
00010000
00001000
00010000
00000000
00000010
00000000
00001000
00000000
00000001
00000100
00000001
00000000
00001000
00000000
,
00000010
00000000
00000100
00000000
00000001
00001000
00000100
00000000
00010000
00000000
00001000
01000000
00010000
00000000
10000000
00000000
,
00100000
00000000
01000000
00000000
00001000
00000000
00010000
00000000
00000010
00000000
00001000
00000001
00001000
00000000
00000100
00000000
,
00000010
00000000
00000001
00000010
00000001
00000010
00000001
00000000
00001000
00000100
00001000
00000100
00001000
00000000
00000001
00000000
,
00000100
00000000
00000010
00010000
00001000
00000000
00100000
00010000
10000000
00000000
00100000
01000000
00010000
00000000
10000000
00000000
,
00100000
02000000
03020000
00230000
00302000
00023000
00230000
02300000
,
03200000
00000000
00000000
01000000
00000000
01000000
01000000
00000000
,
02300000
00000000
00000000
00010000
00000000
00000000
00010000
00000000
00000000
00000000
00000000
00000000
03002000
00000000
00000000
00000000
,
00023000
00000000
00000000
00000010
00000000
00000000
00030200
00000000
,
00002300
00000000
00000000
00000100
00000000
00000000
00000100
00000000
00003100
00000000
00000000
00000000
00001001
00000000
00000000
00000000
,
00001000
00000000
00000001
00000100
00000001
00000000
00001000
00000000
00000100
00000000
00010000
00001000
00010000
00000000
00001000
00000000
,
00100000
00010000
00100000
00000000
00010000
10000000
00010000
00000000
10000000
01000000
10000000
00000000
00010000
00000000
00000000
00000000
,
20000000
00000000
00000000
00000000
00000000
00000000
00000000
00000000
00000000
00000000
00000000
30000000
00000000
00000000
00100000
00000000
,
00000000
00000000
01100000
00000000
01100000
00000000
00000000
00000000
00100000
00000000
01000000
00100000
01000000
00000000
00000000
00000000
,
00010000
00000000
00000000
00000000
11000000
00000000
10000000
00000000
00010000
00000000
01000000
00010000
01000000
00000000
00001000
00000000
,
00010000
00000000
00000100
00001000
00000100
00000000
00000010
00000000
00000001
00000000
00000100
00000000
00001000
00000000
00010000
00000000
,
00001000
00100000
01000000
00010000
00001000
00000100
00000010
00001000
,
00000010
00000100
00001000
00000000
00010000
00000000
00001000
00000000
00100000
01000000
00010000
00000000
00001000
00000000
00010000
00000000
,
01000000
10000000
00100000
00010000
00001000
00000000
00000100
00000001
,
00001000
00000100
00001000
00000000
00000001
00000000
00000100
00000000
00000010
00001000
00000010
00000000
00010000
00000000
00001000
00000000
,
00100000
00010000
00100000
00010000
00100000
00000000
00010000
00000000
10000000
01000000
10000000
01000000
10000000
00000000
10010000
00000000
,
00000000
00000000
10000000
00010000
10000000
00000000
00000000
00000000
01010000
00000000
00000000
00000000
00011000
00000000
00000000
00000000
,
00000010
00000000
00001001
00000000
00001000
00000010
00000100
00000001
,
00000010
00001000
00010000
00002000
00000000
01003000
00100000
00010000
,
00100000
10000000
01000000
00200000
00000000
00301000
00010000
00000100
,
00000010
00000001
00000100
00002000
00000000
00013000
00100000
00000000
,
10100000
00000000
00000000
10010000
00000000
00000000
00000000
00000000
,
01010000
00000000
00000000
01001000
00000000
00000000
00022000
00033000
,
00010100
00000000
00000000
00001010
00000000
00000000
00000000
00000000
,
00000010
00001000
00000010
00000000
00010000
00001000
00010000
00000000
00001000
00100000
00001000
00000000
00100000
00010000
00100000
00000000
,
00110000
00000000
00000000
00011000
00000000
00000000
00000000
00001010
,
00000000
00000000
00000000
00000011
00000000
00000000
00001001
00000000
,
00001100
00000000
00000000
00011000
00000000
00000000
01010000
00000000
,
10010000
00000000
00000000
00000000
00000000
00000000
00000000
00000000
10000000
00000000
00000000
10000000
00000000
00000000
10000000
00000000
,
00010000
00000000
01000000
00000000
00100000
00000000
00010000
00000000
00001000
00000000
00000100
00000010
00000100
00000000
00000001
00000000
,
00001000
00000000
00000100
00000000
00000010
00000100
00000010
00000000
00000001
00000000
00001000
00000100
00001000
00000000
00000100
00000000
,
00010000
00000000
00001000
00010000
00001000
00000000
00100000
00000000
00010000
00000000
10000000
01000000
10000000
00000000
00010000
00000000
,
00100000
00000000
01000000
00000000
10000000
00010000
01000000
00000000
00001000
00000000
00010000
00000100
00001000
00000000
00000001
00000000
,
00000010
00000000
00000100
00000000
00010000
00000000
00001000
00000000
00100000
00000000
00010000
10000000
00010000
00000000
01000000
00000000
,
00100000
00000000
10000000
00100000
10000000
00100000
10000000
00000000
00010000
01000000
00010000
01000000
00010000
00000000
10000000
00000000
,
01000000
00000000
00100000
00001000
00010000
00000000
00000010
00001000
00000001
00000000
00000010
00000100
00001000
00000000
00000001
00000000
,
00001000
00000000
00000010
00000000
00010000
00001000
01000000
00000000
00100000
00000000
00010000
00000000
00001000
00000000
00010000
00000000
,
01000000
00000000
00000000
00000000
10000000
00000000
10000000
00000000
00010000
01000000
00100000
01000000
00000000
00010000
00000000
00010000
,
10000000
00000000
01000000
00000000
00100000
00010000
00000000
01000000
00010000
01000000
00001000
00010000
00000000
00000200
00000300
00000000
,
00001001
00000000
00000000
00000000
00000001
00000100
00000010
00000000
00001000
00000100
00000010
00000000
00000100
00001000
00000100
00010000
,
00001000
00000000
00000000
01000000
00000000
01000000
00000000
00010000
00000000
00100000
10000000
00010000
01000000
00000000
00000000
00000000
,
10010000
00000000
00000000
00000000
10000000
01000000
10000000
01000000
00000000
10000000
00200000
00300000
00010000
00000000
00100000
01000000
,
00100000
00000000
02000000
03000000
00010000
00000000
10000000
01000000
00000000
00100000
01000000
00100000
01000000
00100000
01000000
00000000
,
10010000
00000000
00000000
00000000
00010000
10000000
00010000
00000000
00100000
00000000
00000000
00100000
00000000
00000000
00100000
00000000
,
01000000
10000000
00100000
01000000
00200000
00000000
20300000
00000000
,
30100000
00010000
00001000
00010000
01000000
00000000
10000000
01010000
,
00000000
00010000
00100000
00001000
00010000
00000010
00001000
00000001
,
00001000
00000100
00001000
00000100
00001000
00000000
00000100
00000000
00010000
00001000
00010000
00001000
00010000
00000000
00001000
00000000
,
00010000
00000100
00001000
00000000
00000001
00001000
00000100
00000000
00010000
00001000
00100000
00000000
00010000
10000000
00100000
00000000
,
10000000
00000000
00010000
00000000
00100000
00000000
01000000
00000000
10000000
00010000
10000000
00010000
10000000
00000000
00010000
00000000
,
00100000
00001000
00100000
00000000
00001000
00010000
00001000
00000000
00010000
00000010
00010000
00000000
00000010
00001000
00000010
00000000
,
00001000
00000001
00001000
00000001
00001000
00000000
00000001
00000000
00000010
00000100
00000010
00000100
00000010
00000000
00001001
00000000
,
00000000
00000000
00000001
00001000
00000001
00000000
00000000
00000000
00001100
00000000
00000000
00000000
00011000
00000000
00000000
00000000
,
00100000
00000000
10010000
00000000
00010000
01000000
00001000
00100000
,
00010000
01000000
00100000
20000000
00000000
30010000
01000000
00100000
,
00010000
00001000
00000100
00000020
00000000
00001030
00000001
00000010
,
00000100
00000000
00001000
00000000
00010000
00000000
00200000
00000000
00000000
00000000
01300000
00000000
10000000
01000000
10000000
00000000
,
20020000
00000000
00000000
00000000
,
00000000
00000000
00000000
00000000
,
00000000
30030000
00000000
00000000
00000000
00000000
00000000
00000000
,
00000000
00000000
00000000
00000000
;
