
//----- song ID: elrt -----//
#TITLE:El ritmo te controla;
#ARTIST:Jeanette Herrera;
#BANNER:El ritmo te controla.png;
#BACKGROUND:El ritmo te controla-bg.png;
#CDTITLE:./CDTitles/DDR II.png;
#MUSIC:El ritmo te controla.ogg;
#SAMPLESTART:50.847;
#SAMPLELENGTH:15;
#BPMS:0=118;
#BGSTAGE:2;
#NOTES:
     dance-single:
     :
     Beginner:
     2:
     :
0000
0000
0000
0000
,
0000
0000
0000
0000
,
0000
0000
0000
0000
,
0000
0000
0000
0000
,
0000
0000
0000
0000
,
0010
0000
0010
0000
,
0010
0000
0000
0000
,
0100
0000
0100
0000
,
0100
0000
0000
0000
,
0001
0000
0000
0000
,
0001
0000
0000
0000
,
1000
0000
0000
0000
,
1000
0000
0000
0000
,
0010
0000
0000
0000
,
0010
0000
0000
0000
,
0100
0000
0000
0000
,
0100
0000
0000
0000
,
0001
0000
0001
0000
,
0001
0000
0000
0000
,
1000
0000
1000
0000
,
1000
0000
0000
0000
,
0001
0000
0001
0000
,
0001
0000
0000
0000
,
1000
0000
1000
0000
,
1000
0000
0000
0000
,
0001
0000
0001
0000
,
0100
0000
0010
0000
,
1000
0000
1000
0000
,
0010
0000
0100
0000
,
0001
0000
0001
0000
,
0010
0000
0100
0000
,
1000
0000
1000
0000
,
0001
0000
0001
0000
,
0100
0000
0100
0000
,
0001
0000
1000
0000
,
0010
0000
0010
0000
,
1000
0000
0001
0000
,
0100
0000
0100
0000
,
0001
0000
1000
0000
,
0010
0000
0010
0000
,
1000
0000
0001
0000
,
0100
0000
0000
0000
,
0100
0000
0000
0000
,
0100
0000
0000
0000
,
0100
0000
0010
0010
,
0000
0000
0000
0000
;
#NOTES:
     dance-single:
     :
     Easy:
     6:
     :
0000
0000
0000
0000
,
0000
0000
0000
0000
,
0000
0000
0000
0000
,
0000
0000
0000
0000
,
0000
0000
0000
0000
,
0001
0001
1000
0010
,
0100
0100
0001
1000
,
0010
0010
0100
0001
,
1000
1000
0220
0330
,
0001
0000
1000
0001
,
0100
0000
0100
0001
,
1000
0000
1000
0100
,
0010
0000
0001
0000
,
0001
0000
1000
0010
,
0100
0000
0001
0010
,
0100
0000
1000
0001
,
0100
0000
0020
0130
,
0001
0010
0001
0010
,
0100
1000
0100
1000
,
0001
0100
0001
0100
,
0010
1000
0001
0000
,
1000
0100
0010
0100
,
1000
0100
0010
0001
,
0100
0010
1000
0000
,
0010
0100
0220
0330
,
0010
1001
0100
1001
,
0001
0010
0100
1000
,
0010
1001
0100
1001
,
1000
0010
0100
0000
,
0001
0110
0001
0110
,
1000
0100
0010
0001
,
1000
0110
1000
0110
,
0001
0010
0220
0330
,
1000
0101
1000
0101
,
1000
0100
0010
0001
,
1000
0011
1000
0011
,
1000
0100
0010
0000
,
0001
1100
0001
1100
,
0001
0010
0100
1000
,
0001
1010
0001
1010
,
0001
0100
0220
0330
,
0010
0000
0010
1000
,
0001
0001
0010
0100
,
1000
1000
0001
0100
,
0010
0000
0010
0000
2000
0000
3001
0001
,
0000
0000
0000
0000
;
#NOTES:
     dance-single:
     :
     Medium:
     9:
     :
0000
0000
0000
0000
,
0000
0000
0000
0000
,
0000
0000
0000
0000
,
0000
0000
0000
0000
,
0000
0000
0000
0000
,
1000
0000
1000
0100
0010
0000
0010
0100
,
1000
0000
1000
0001
0100
0000
0100
0001
,
1000
0000
0001
0010
0100
0000
0100
0010
,
0001
0000
0000
0001
0000
0000
1000
0100
1000
0100
0000
0000
,
1000
0000
0001
0000
0001
0000
0001
0100
,
0010
0000
1000
0000
1000
0000
1000
0100
,
0010
0000
0001
0000
0001
0000
0001
0100
,
0010
0000
0010
0000
0010
0000
0001
0010
,
1000
0000
0100
0000
0010
0000
0001
1000
,
0010
0000
0100
0000
0001
0000
1000
0100
,
0010
0000
0100
0000
1000
0000
0001
0100
,
0010
0000
0000
1000
0000
0000
0001
0000
0200
0000
0000
0000
0310
0000
0000
0000
,
0120
0000
1000
0000
0130
0000
0001
0010
,
0200
0000
1000
0000
0310
0000
1000
0100
,
0020
0000
0001
0000
0130
0000
0001
0010
,
0100
0000
1000
0000
0001
0100
0001
0100
,
0010
0000
1000
0000
0001
0000
1000
0100
,
0001
0000
0100
0000
0100
0000
1000
0010
,
0001
0010
0010
0100
,
0010
0000
0000
1001
0000
0000
0001
0010
0001
0010
0000
0000
,
1001
0000
0001
0100
0010
0000
1000
0000
,
1000
0100
0001
0000
0001
0100
1000
0000
,
1000
0000
0010
0100
0001
0000
0010
0000
,
0001
0100
1000
0100
0001
0000
1001
0000
,
1000
0000
1000
0010
0100
0000
0001
0000
,
0001
0010
1000
0000
1000
0010
0001
0000
,
0001
0000
0100
0010
1000
0000
0001
0000
,
1000
0010
0001
0010
0200
0000
0310
0000
,
1001
0000
1000
0001
0010
0000
0100
0000
,
0001
0100
1000
0000
1000
0010
0001
0000
,
0010
0000
1000
0001
0100
0000
0010
0000
,
0001
0010
1000
0100
0001
0000
0110
0000
,
1001
0000
0001
1000
0100
0000
0010
0000
,
1000
0010
0001
0000
0001
0100
1000
0000
,
0100
0000
0001
1000
0010
0000
0100
0000
,
1000
0100
0001
0010
1000
0000
0110
0000
,
0001
0000
0001
0010
0100
0000
0100
1000
,
0001
0000
0001
0100
0010
0000
0010
0000
,
1000
0000
1000
0100
0010
0000
0010
0100
,
1000
0000
0000
0000
0000
0000
1000
0000
0000
0000
0000
0000
0001
0000
0100
0000
0001
0000
0100
0000
0000
0010
0000
0000
,
0000
0000
0000
0000
;
#NOTES:
     dance-single:
     :
     Hard:
     12:
     :
0000
0000
0000
0000
,
0000
0000
0000
0000
,
0000
0000
0000
0000
,
0000
0000
0000
0000
,
0000
0000
0000
0000
,
0001
0000
0000
1000
0100
0000
1000
0000
0010
0000
0000
0100
0010
0000
1000
0000
,
0001
0000
0000
0100
0001
0000
0010
0000
0011
0000
0000
0010
0100
0000
1000
0000
,
0010
0000
0000
0100
0001
0000
1000
0000
0100
0000
0000
1000
0010
0000
0100
0000
,
0102
0000
0000
0000
0000
0000
0013
0000
0000
0000
0000
0000
0001
0000
0010
0000
0100
0000
1000
0000
0000
0010
0000
0000
,
1000
0000
0000
0001
0000
0000
0100
0000
0000
0010
0100
0000
0001
0000
0010
0000
,
0100
0000
0000
1000
0000
0000
0010
0000
0000
1000
0001
0000
0100
0000
0001
0000
,
0010
0000
0000
0100
0000
0000
1000
0000
0000
0001
0100
0000
0001
0000
0010
0000
,
0100
0000
1000
0000
0001
1000
0100
0010
,
0021
0000
0000
0100
0000
0000
0031
0000
0000
0001
0010
0000
0100
0000
1000
0000
,
0020
0000
0000
0100
0000
0000
1030
0000
0000
1000
0010
0000
0100
0000
0001
0000
,
0021
0000
0000
1000
0000
0000
0031
0000
0000
1000
0010
0000
0100
0000
0001
0000
,
1000
0000
0000
0000
0000
0000
0000
0000
0000
0100
0000
0000
0000
0000
0000
0000
0000
0000
0010
0000
0000
0000
0000
0000
0001
0000
0000
0000
0010
0000
0000
0000
0100
0000
0000
0000
1000
0000
0000
0000
0000
0000
0010
0000
0000
0000
0000
0000
,
0100
0000
0000
0001
0000
0000
0011
0000
0000
1000
0000
0000
0010
0000
0100
0000
,
0001
0000
0000
0010
0000
0000
0200
0000
0000
0000
0301
0000
0100
0000
1000
0000
,
0010
0000
0000
0100
0000
0000
0020
0000
0000
0000
0031
0000
0010
0000
1000
0000
,
1100
0000
0000
0110
0000
0000
0011
0000
0000
0000
0001
0000
1000
0000
0010
0000
,
0210
0000
0000
1000
0000
0000
0301
0000
0000
0000
0001
0000
1000
0000
0100
0000
,
0210
0000
0000
0001
0000
0000
1300
0000
0000
0000
0100
0000
1000
0000
0010
0000
,
0120
0000
0000
0001
0000
0000
1030
0000
0000
0000
0001
0000
0010
0000
0100
1000
,
0100
0000
0000
0000
0000
0000
0100
0000
0000
0000
0000
0000
1000
0000
0100
0000
0010
0000
0001
0000
0000
1000
0000
0000
,
1001
0000
0000
1000
0100
0000
0000
0001
0100
0000
0000
1000
0100
0000
0000
0001
,
0100
1000
0010
0001
0010
1000
0100
1000
,
1001
0000
0000
0001
0010
0000
0000
1000
0010
0000
0000
0001
0010
0000
0000
1000
,
0010
0001
0100
0010
1010
0000
0001
0100
,
0110
0000
0000
0001
0100
0000
0000
1000
0100
0000
0000
0001
0010
0000
0000
1000
,
0010
0001
0100
1000
0100
0001
0010
0100
,
1100
0000
0000
0001
0010
0000
0000
1000
0010
0000
0000
0001
0100
0000
0000
1000
,
0100
0000
0000
0001
0000
0000
0010
0000
0000
0100
0000
0000
1000
0000
0010
0000
0100
0000
0001
0000
0000
0010
0000
0000
,
0011
0000
1100
0001
1010
0000
0101
0000
,
0001
0010
1000
0010
0001
0100
1000
0100
,
1010
0000
0101
1000
0011
0000
1100
0001
,
0100
0001
0010
0001
0100
0000
0010
0100
,
0101
0000
0000
0010
1000
0000
0001
0000
0110
0000
0000
0001
1000
0000
0010
0000
,
1000
0100
0001
0100
1000
0010
0001
0010
,
0110
0000
0000
0001
1000
0000
0100
0000
0011
0000
0000
1000
0010
0000
0100
0000
,
0001
0000
0000
0010
0000
0000
0010
0000
0000
0001
0000
0000
0010
0000
0100
0000
1000
0000
0010
0000
0000
0100
0000
0000
,
0001
0000
0000
1000
0100
0000
1000
0000
0010
0000
0000
0100
0010
0000
1000
0000
,
0001
0000
0000
0010
0001
0000
0010
0000
0100
1000
0000
1000
0010
0000
0100
0000
,
0001
0000
0000
0010
0001
0000
0010
0000
0100
0000
0000
1000
0010
0000
0100
0000
,
0102
0000
0000
0000
0000
0000
0013
0000
0000
0000
0000
0000
0001
0000
0010
0000
0100
0000
1000
0000
0000
1001
0000
0000
,
0000
0000
0000
0000
;
#NOTES:
     dance-single:
     :
     Challenge:
     14:
     :
0000
0000
0000
0000
,
0000
0000
0000
0000
,
0000
0000
0000
0000
,
0000
0000
0000
0000
,
0000
0000
0000
0000
,
0001
0000
0000
1000
0100
0000
1000
0010
0100
0000
0000
0001
0010
0000
0001
0100
,
0010
0000
0000
1000
0100
0000
1000
0010
0100
0000
0000
0001
0010
0000
0100
1000
,
0010
0000
0000
0100
0001
0000
0010
0001
1000
0000
0000
0100
1000
0000
0001
0100
,
0110
0000
0000
0000
0000
0000
0000
0000
0000
0000
0000
0000
0000
0000
0000
0000
0000
0000
0000
0000
0000
0000
0000
0000
1001
0000
0000
0000
0000
0000
0000
0000
0000
0000
0000
0000
0000
0000
0000
0000
0000
0000
0000
0000
0000
0000
0000
0000
0001
0000
0000
0000
0000
0000
0000
0000
0100
0000
0000
0000
0000
0000
0000
0000
0010
0000
0000
0000
0000
0000
0000
0000
1000
0000
0000
0000
0000
0000
0000
0000
0000
0000
0000
0000
0100
0000
0000
1000
0000
0000
0100
0000
0000
0000
0000
0000
,
1000
0000
0000
0000
0000
0000
0010
0000
0000
0000
0000
0000
0100
0000
0000
0000
0000
0000
0001
0000
0010
0001
0010
0000
0100
0000
0000
0000
1000
0000
0000
0000
,
0010
0000
0000
0100
0000
0000
0001
0000
0000
0010
0100
0000
1000
0000
0010
0000
,
0110
0000
0000
0100
0000
0000
0001
0000
0000
0010
0100
0000
1000
0000
0001
0000
,
0100
0000
0000
0000
0000
0000
0000
0000
0001
0000
0000
0000
0000
0000
0000
0000
0001
0000
0000
0000
1000
0000
0000
0000
0100
0000
0000
0000
0010
0000
0001
0010
,
0001
0000
0000
1000
0000
0000
0010
0000
0000
0100
0001
0000
0010
0000
0100
1000
,
0001
0000
0000
0100
0000
0000
0001
0000
0000
0010
0001
0000
1000
0000
0010
0100
,
0110
0000
0000
0001
0000
0000
1000
0000
0000
0010
0100
0000
0001
0000
1000
0100
,
0010
0000
0000
0000
0000
0000
0000
0000
0000
0001
0000
0000
0000
0000
0000
0000
0000
0000
0010
0000
0000
0000
0000
0000
0100
0000
0000
0000
1000
0000
0000
0000
0010
0000
0000
0000
0100
0000
0000
0000
0000
0000
0101
0000
0000
0000
0000
0000
,
1001
0000
0000
0010
0000
0000
1001
0000
0000
0001
0010
0100
1000
0001
0100
0010
,
0100
0000
0000
0001
0000
0000
0011
0000
0000
0000
0001
1000
0010
0100
0010
1000
,
0001
0000
0000
0010
0000
0000
1100
0000
0000
1000
0010
0100
0001
1000
0100
0010
,
0001
0000
0000
1000
0000
0000
1001
0000
0000
0000
0001
0010
0001
0100
0010
0100
,
0001
0000
0000
0011
0000
0000
1100
0000
0000
0000
1000
0010
1000
0100
0010
0100
,
1000
0000
0000
1010
0000
0000
0101
0000
0000
0000
0001
0010
0100
1000
0100
0010
,
0001
0000
0000
0000
0000
0000
1000
0000
0000
0000
0010
0100
0010
0000
0000
0000
0000
0000
0000
0000
1000
0000
0001
0000
0100
0000
0001
0000
0010
0000
0100
1000
,
0100
0000
0000
0000
0000
0000
0010
0000
0000
0000
0000
0000
0001
0000
0100
0000
0001
0000
0011
0000
0000
1100
0000
0000
,
1001
0000
1000
0100
0010
0000
0011
0000
1001
0000
0001
0100
0010
0000
1010
0000
,
1000
0100
1000
0001
1000
0010
1000
0001
0100
0001
1000
0001
0010
0001
1000
0100
,
0011
0000
0100
1000
0010
0000
0110
0000
1010
0000
0100
0001
0010
0000
0110
0000
,
0100
1000
0010
1000
0001
0100
0001
0010
0100
0000
1000
0000
0001
0000
1000
0010
,
0100
0000
0101
0000
1001
0000
0001
0010
0100
0000
1100
0000
1001
0000
1000
0010
,
0100
0010
1000
0001
0010
0001
1000
0010
0100
0010
1000
0001
0010
0001
0100
0010
,
1010
0000
1001
0000
1100
0000
0100
0010
0001
0000
1001
0000
0011
0000
0010
0100
,
1000
0000
0000
0010
0000
0000
1000
0000
0000
0100
0000
0000
1000
0000
0000
0010
0000
0000
0100
0000
0000
0001
0000
0000
0010
0000
0000
0000
0100
0000
0000
0000
1000
0000
0000
0000
1001
0000
0000
0000
0000
0000
0001
0000
0000
0100
0000
0000
,
0010
0000
0001
0010
1000
0000
0100
0010
1000
0000
0010
0001
1000
0000
0010
0100
,
1000
0100
0001
0010
0100
1000
0010
0001
0010
1000
0100
0010
0001
0100
1000
0100
,
0001
0000
0010
0100
0001
0000
0100
1000
0010
0000
0100
1000
0100
0000
0001
0010
,
0100
0001
0100
1000
0010
0100
0001
0010
0100
0000
1000
0000
0010
0000
1000
0100
,
0001
0000
0100
1000
0010
0000
0100
0001
0010
0000
1000
0010
0001
0000
0100
0010
,
1000
0100
0010
1000
0010
0001
0100
1000
0100
0010
1000
0001
0010
0100
1000
0010
,
0001
0000
0010
1000
0100
0000
0010
0001
0100
0000
1000
0100
0001
0000
0010
0100
,
1000
0000
0000
0010
0000
0000
0001
0000
0000
0010
0000
0000
1000
0000
0000
0100
0000
0000
0001
0000
0000
0100
0000
0000
1000
0000
0000
0000
0010
0000
0000
0000
0100
0000
0000
0000
0001
0000
0000
0000
0000
0000
0010
0000
0000
0000
0000
0000
,
0100
0000
0000
1000
0010
0000
0100
0001
1000
0000
0000
0100
1000
0000
0010
0100
,
0001
0000
0000
0010
0001
0000
0010
0000
0100
1000
0000
1000
0010
0000
0100
0001
,
1000
0000
0000
0100
1000
0000
0010
0100
0001
0000
0000
1000
0100
0000
0010
0001
,
0100
0000
0000
0000
0000
0000
0100
0000
0000
0000
0000
0000
0001
0000
0010
0000
0100
0000
1000
0000
0000
1001
0000
0000
,
0000
0000
0000
0000
;
#NOTES:
     dance-double:
     :
     Easy:
     5:
     :
00000000
00000000
00000000
00000000
,
00000000
00000000
00000000
00000000
,
00000000
00000000
00000000
00000000
,
00000000
00000000
00000000
00000000
,
00000000
00000000
00000000
00000000
,
00001000
00001000
00010000
00000100
,
00001000
00001000
00000010
00010000
,
00001000
00001000
00100000
00010000
,
01000000
01000000
20020000
30030000
,
00010000
00000000
10000000
01000000
,
00100000
00000000
00001000
00010000
,
00010000
00000000
00000010
00001000
,
00000100
00000000
00001000
00000000
,
00000001
00000000
00000001
00000100
,
00000010
00000000
00010000
00001000
,
00001000
00000000
01000000
00010000
,
00100000
00000000
00020000
00030000
,
10010000
00000000
10000000
01000000
,
00010000
00000000
00001000
00010000
,
00010000
00000000
00001000
00000010
,
00000001
00000000
00001000
00001000
,
00000001
00000000
00000001
00000100
,
00001000
00000000
00010000
00001000
,
00001000
00000000
00010000
00100000
,
10000000
00010000
20020000
30030000
,
00100000
00100000
01000000
00010000
,
10000000
00100000
00010000
00001000
,
00000100
00000010
00010000
00001000
,
00001000
00000010
00000001
00000000
,
00000100
00000100
00000010
00001000
,
00000001
00000010
00001000
00010000
,
01000000
00100000
00001000
00010000
,
00010000
00100000
02200000
03300000
,
10000000
01000000
00100000
00001000
,
00010000
01000000
00010000
00001000
,
00000100
00001000
00010000
00010000
,
00001000
00000010
00000001
00000000
,
00000001
00000100
00000010
00010000
,
00001000
00000100
00001000
00010000
,
01000000
00010000
00001000
00001000
,
00010000
00100000
20000000
30000000
,
01000000
00000000
00100000
00000000
,
00010000
00010000
00100000
00001000
,
00010000
00000000
00010000
00000100
,
00001000
00000000
00001000
00000000
00000200
00000000
00000310
00000010
,
00000000
00000000
00000000
00000000
;
#NOTES:
     dance-double:
     :
     Medium:
     9:
     :
00000000
00000000
00000000
00000000
,
00000000
00000000
00000000
00000000
,
00000000
00000000
00000000
00000000
,
00000000
00000000
00000000
00000000
,
00000000
00000000
00000000
00000000
,
00001000
00000000
00010000
00000100
00001000
00000000
00001000
00000100
,
00000010
00000000
00000010
00001000
00010000
00000000
00001000
01000000
,
00010000
00000000
00010000
00100000
01000000
00000000
10000000
01000000
,
00010000
00001000
00022000
00033000
,
00010000
00000000
00000100
00000000
00001000
00000000
00000010
00000100
,
00000001
00000000
00001000
00000000
00000100
00000000
00010000
00001000
,
00010000
00000000
01000000
00000000
00100000
00000000
00010000
10000000
,
00100000
00100000
01000000
00010000
,
10000000
00000000
01000000
00000000
00010000
00000000
00001000
00000010
,
00000100
00000000
00010000
00000000
00001000
00000000
00000100
00000001
,
00000010
00000100
00001000
00000010
,
00010000
00000000
00000000
00001000
00000000
00000000
00010000
00000000
00002000
00000000
00000000
00000000
00003000
00000000
00000000
00000000
,
00011000
00000000
00001000
00000000
00001000
00000000
00010000
01000000
,
10000000
00000000
00100000
00000000
00100000
00000000
10000000
00100000
,
00010000
00000000
00001000
00000000
00001000
00000000
00010000
00001000
,
00000100
00000000
00000100
00000000
00000100
00000001
00001000
00000001
,
00001000
00000000
00000100
00000000
00010000
00000000
00001000
00010000
,
00100000
00000000
00100000
00000000
00100000
00000000
00100000
00010000
,
00001000
00010000
01000000
10000000
,
10100000
01010000
00001000
00010000
,
00000010
00001010
00100000
00110000
,
00001000
00000000
00010000
00001000
00000010
00000000
00001000
00010000
,
00000010
00001010
00100000
00110000
,
00001000
00010000
00100000
00010000
00001000
00000000
00000000
00000000
,
00100000
00110000
00000010
00001010
,
00010000
00000000
00001000
00010000
00100000
00000000
00010000
00001000
,
00100000
00110000
00000010
00001010
,
00010000
00001000
00010000
00000100
00001000
00000000
00001001
00000000
,
00000110
00000000
00001001
00000000
00000001
00000100
00001000
00000000
,
00010000
00001000
00010000
00001000
00000010
00001000
00010000
00000000
,
00001000
00000000
00100000
01000000
10000000
00000000
00010000
00000000
,
10000000
00100000
00010000
00100000
10000000
00000000
10010000
00000000
,
01100000
00000000
10010000
00000000
10000000
01000000
00010000
00000000
,
00001000
00010000
00001000
00010000
00100000
00010000
00001000
00000000
,
00001000
00000000
00010000
00000100
00000010
00000000
00000001
00000000
,
00001000
00000010
00000001
00000010
00001000
00000000
00001001
00000000
,
00000001
00000000
00000001
00000010
00000100
00000000
00001000
00000000
,
00000010
00000000
00000010
00010000
00001000
00000000
00001000
00000000
,
00010000
00000000
00010000
01000000
10000000
00000000
00100000
00000000
,
00010000
00000000
00000000
00000000
00000000
00000000
00001000
00000000
00000000
00000000
00000000
00000000
00010000
00000000
00001000
00000000
00010000
00000000
00001000
00000000
00000000
00010000
00000000
00000000
,
00000000
00000000
00000000
00000000
;
#NOTES:
     dance-double:
     :
     Hard:
     12:
     :
00000000
00000000
00000000
00000000
,
00000000
00000000
00000000
00000000
,
00000000
00000000
00000000
00000000
,
00000000
00000000
00000000
00000000
,
00000000
00000000
00000000
00000000
,
00010000
00000000
00000000
00001000
00010000
00000000
00000010
00000000
00001000
00000000
00000000
00000100
00001000
00000000
00000100
00000000
,
00000010
00000000
00000000
00000001
00000010
00000000
00000001
00000000
00000100
00000000
00000000
00000010
00010000
00000000
00001000
00000000
,
00100000
00000000
00000000
00010000
00100000
00000000
01000000
00000000
10000000
00000000
00000000
01000000
00010000
00000000
00001000
00000000
,
00020000
00000000
00000000
00000000
00000000
00000000
00031000
00000000
00000000
00000000
00000000
00000000
00010000
00000000
00001000
00000000
00010000
00000000
00001000
00000000
00000000
00010000
00000000
00000000
,
00001000
00000000
00000000
00010000
00000000
00000000
00000010
00000000
00000000
00001000
00000100
00000000
00000010
00000000
00000001
00000000
,
00000100
00000000
00000000
00000010
00000000
00000000
00001000
00000000
00000000
00000100
00010000
00000000
00001000
00000000
00010000
00000000
,
00100000
00000000
00000000
01000000
00000000
00000000
00010000
00000000
00000000
00100000
00010000
00000000
01000000
00000000
00100000
00000000
,
00010000
00000000
00001000
00000000
00000010
00000001
00000010
00000100
,
00001000
00000000
00000000
00000010
00000000
00000000
00010000
00000000
00000000
00001000
00010000
00000000
01000000
00000000
10000000
00000000
,
00100000
00000000
00000000
01000000
00000000
00000000
00010000
00000000
00000000
00100000
01000000
00000000
00010000
00000000
00001000
00000000
,
00000010
00000000
00000000
00000001
00000000
00000000
00000100
00000000
00000000
00000010
00010000
00000000
00001000
00000000
00010000
00000000
,
01000000
00000000
00000000
00000000
00000000
00000000
00000000
00000000
00000000
00100000
00000000
00000000
00000000
00000000
00000000
00000000
00000000
00000000
00001000
00000000
00000000
00000000
00000000
00000000
00010000
00000000
00000000
00000000
00001000
00000000
00000000
00000000
00010000
00000000
00000000
00000000
00001000
00000000
00000000
00000000
00000000
00000000
00010000
00000000
00000000
00000000
00000000
00000000
,
00001000
00000000
00000000
01000000
00000000
00000000
10000000
00000000
00000000
01000000
00000000
00000000
00100000
00000000
00010000
00000000
,
00001000
00000000
00000000
00000010
00000000
00000000
00000002
00000000
00000000
00000000
00000103
00000000
00001000
00000000
00010000
00000000
,
01000000
00000000
00000000
10000000
00000000
00000000
00200000
00000000
00000000
00000000
00310000
00000000
00001000
00000000
00010000
00000000
,
01000000
00000000
00000000
00100000
00000000
00000000
00010000
00000000
00000000
00000000
01000000
00000000
00100000
00000000
00010000
00000000
,
00001000
00000000
00000000
00000010
00000000
00000000
00000210
00000000
00000000
00000000
00010300
00000000
01000000
00000000
10000000
00000000
,
00100000
00000000
00000000
01000000
00000000
00000000
02100000
00000000
00000000
00000000
03001000
00000000
00010000
00000000
00001000
00000000
,
00000010
00000000
00000000
00000001
00000000
00000000
00000200
00000000
00000000
00000000
00000310
00000000
00001000
00000000
00000001
00000000
,
00000100
00000000
00000000
00000000
00000000
00000000
00000010
00000000
00000000
00000000
00000000
00000000
00001000
00000000
00000100
00000000
00001000
00000000
00000100
00000000
00000000
00010000
00000000
00000000
,
00001010
00000000
00001010
00000001
00001100
00000000
00010010
00000000
,
00010000
00000100
00000010
00001000
00010000
01000000
10000000
00010000
,
00110000
00000000
00110000
00001000
01010000
00000000
00101000
00000000
,
00001000
01000000
00100000
00010000
00001000
00000000
00000010
00000100
,
00001100
00000000
00001100
00010000
00001010
00000000
00001001
00000000
,
00000001
00000010
00001000
00010000
01000000
10000000
00100000
01000000
,
01010000
00000000
00110000
00001000
01010000
00000000
00110000
00100000
,
00001000
00000000
00000000
00000100
00000000
00000000
00000010
00000000
00000000
00010000
00000000
00000000
00001000
00000000
00010000
00000000
00001000
00000000
00010000
00000000
00000000
00000100
00000000
00000000
,
00001000
00000000
00000000
00000010
00010000
00000000
01000000
00000000
00100000
00000000
00000000
00001000
00010000
00000000
00001000
00000000
,
00010000
01000000
10000000
00100000
00010000
00001000
00000100
00000001
,
00000010
00000000
00000000
00000010
00001000
00000000
00010000
00000000
00100000
00000000
00000000
01000000
00100000
00000000
01000000
00000000
,
00001000
00000000
00010000
00000000
00001000
00000000
00000010
00000000
00000001
00000000
00000000
00001000
00000010
00000000
00000100
00000000
,
00001000
00000000
00000000
00010000
01000000
00000000
10000000
00000000
00100000
00000000
00000000
00010000
00001000
00000000
00010000
00000000
,
00000100
00000001
00000100
00001000
00000010
00010000
01000000
10000000
,
00100000
00000000
00000000
01000000
00010000
00000000
00100000
00000000
00001000
00000000
00000000
00010000
00000010
00000000
00000100
00000000
,
00000001
00000000
00000000
00000010
00000000
00000000
00000100
00000000
00000000
00001000
00000000
00000000
00000010
00000000
00000100
00000000
00000001
00000000
00000010
00000000
00000000
00001000
00000000
00000000
,
00010000
00000000
00000000
00001000
01000000
00000000
00010000
00000000
00100000
00000000
00000000
01000000
10000000
00000000
01000000
00000000
,
00010000
00000000
00000000
00001000
00010000
00000000
00001000
00000000
00000010
00000001
00000000
00000001
00000100
00000000
00001000
00000000
,
00010000
00000000
00000000
00000100
00000010
00000000
00001000
00000000
00010000
00000000
00000000
00000100
00001000
00000000
00000010
00000000
,
00010000
00000000
00000000
00000000
00000000
00000000
00011000
00000000
00000000
00000000
00000000
00000000
01000000
00000000
00010000
00000000
00001000
00000000
00000010
00000000
00000000
00011000
00000000
00000000
,
00000000
00000000
00000000
00000000
;
#NOTES:
     dance-double:
     :
     Challenge:
     14:
     :
00000000
00000000
00000000
00000000
,
00000000
00000000
00000000
00000000
,
00000000
00000000
00000000
00000000
,
00000000
00000000
00000000
00000000
,
00000000
00000000
00000000
00000000
,
00001000
00000000
00000000
00010000
00000100
00000000
00000010
00001000
00010000
00000000
00000000
00001000
01000000
00000000
00100000
00010000
,
00001000
00000000
00000000
00100000
01000000
00000000
10000000
01000000
00010000
00000000
00000000
00001000
00000010
00000000
00000001
00000010
,
00000100
00000000
00000000
00010000
00001000
00000000
00000100
00001000
00010000
00000000
00000000
00100000
00010000
00000000
00001000
00000000
,
00101000
00000000
00000000
00000000
00000000
00000000
00000000
00000000
00000000
00000000
00000000
00000000
00000000
00000000
00000000
00000000
00000000
00000000
00000000
00000000
00000000
00000000
00000000
00000000
00012000
00000000
00000000
00000000
00000000
00000000
00000000
00000000
00000000
00000000
00000000
00000000
00000000
00000000
00000000
00000000
00000000
00000000
00000000
00000000
00000000
00000000
00000000
00000000
00003100
00000000
00000000
00000000
00000000
00000000
00000000
00000000
00001000
00000000
00000000
00000000
00000000
00000000
00000000
00000000
00010000
00000000
00000000
00000000
00000000
00000000
00000000
00000000
01000000
00000000
00000000
00000000
00000000
00000000
00000000
00000000
00000000
00000000
00000000
00000000
10000000
00000000
00000000
00000000
00000000
00000000
01000000
00000000
00000000
10000000
00000000
00000000
,
01000000
00000000
00000000
00000000
00000000
00000000
00100000
00000000
00000000
00000000
00000000
00000000
00001000
00000000
00000000
00000000
00000000
00000000
00010000
00000000
00001000
00010000
00001000
00000000
00010000
00000000
00000000
00000000
00000010
00000000
00000000
00000000
,
00001000
00000000
00000000
00000100
00000000
00000000
00010000
00000000
00000000
00010000
00001000
00000000
01000000
00000000
00100000
00000000
,
00010000
00000000
00000000
00001000
00000000
00000000
00000010
00000000
00000000
00000001
00000010
00000000
00000100
00000000
00010000
00000000
,
01000000
00000000
00000000
00000000
00000000
00000000
00000000
00000000
10000000
00000000
00000000
00000000
00000000
00000000
00000000
00000000
00100000
00000000
00000000
00000000
01000000
00000000
00000000
00000000
00010000
00000000
00000000
00000000
10000000
00000000
00100000
01000000
,
00100000
00000000
00000000
00010000
00000000
00000000
00001000
00000000
00000000
00010000
00000100
00000000
00000010
00000000
00000001
00000000
,
00000100
00000000
00000000
00001000
00000000
00000000
00010000
00000000
00000000
00100000
00010000
00000000
00001000
00000000
00010000
00000000
,
01000000
00000000
00000000
10000000
00000000
00000000
00100000
00000000
00000000
00010000
00001000
00000000
00000010
00000000
00000100
00000000
,
00010000
00000000
00000000
00000000
00000000
00000000
00000000
00000000
00000000
00001000
00000000
00000000
00000000
00000000
00000000
00000000
00000000
00000000
00021000
00000000
00000000
00000000
00000000
00000000
01030000
00000000
00000000
00000000
00010000
00000000
00000000
00000000
00001000
00000000
00000000
00000000
00000100
00000000
00000000
00000000
00000000
00000000
00000001
00000000
00000000
00000000
00000000
00000000
,
00000011
00000000
00000000
00000110
00000000
00000000
00001100
00000000
00000000
00010000
00001000
00000000
00000100
00000000
00001000
00010000
,
01000000
00000000
00000000
11000000
00000000
00000000
10100000
00000000
00000000
00000000
00100000
00000000
00010000
00000000
00001000
00010000
,
01000000
00000000
00000000
00010000
00000000
00000000
00002000
00000000
00000000
00000000
00003100
00000000
00000001
00000000
00000010
00000100
,
00001000
00000000
00000000
00000010
00000000
00000000
00010000
00000000
00000000
00000000
00001000
00010000
00100000
01000000
00010000
10000000
,
00100000
00000000
00000000
00010000
00000000
00000000
00001000
00000000
00000000
00000000
00010000
00001000
00000100
00000010
00001000
00000100
,
00000010
00000000
00000000
00001000
00000000
00000000
00010000
00000000
00000000
00000000
00001000
00010000
00001000
00100000
00010000
01000000
,
00100000
00000000
00000000
00000000
00000000
00000000
10000000
00000000
00000000
00000000
00010000
10000000
00010000
00000000
00000000
00000000
00000000
00000000
00000000
00000000
01000000
00000000
00000000
00000000
00010000
00000000
00000000
00000000
00100000
00000000
00001000
00010000
,
00001000
00000000
00000000
00000000
00000000
00000000
00021000
00000000
00000000
00000000
00000000
00000000
01030000
00000000
00010000
00000000
00001000
00000000
00000100
00000000
00000000
00000010
00000000
00000000
,
00010010
00000000
00000000
00010000
00001000
00000000
00000010
00000000
00000110
00000000
00000000
00000100
00010000
00000000
01000000
00000000
,
10000000
00100000
00010000
00000000
00001000
00000000
00100000
00000000
00001000
00000010
00000001
00000000
00000100
00000000
00001000
00000000
,
01001000
00000000
00000000
00001000
00010000
00000000
01000000
00000000
11000000
00000000
00000000
10000000
00100000
00000000
00010000
00000000
,
00001000
00000010
00001000
00010000
00100000
00010000
00001000
00100000
,
00101000
00000000
00000000
00001000
00010000
00000000
00100000
00000000
01100000
00000000
00000000
01000000
00001000
00000000
00000100
00000000
,
00000001
00000010
00001000
00000000
00100000
00000000
00001000
00000000
00010000
00100000
10000000
00000000
01000000
00000000
00010000
00000000
,
00010100
00000000
00000000
00010000
00001000
00000000
00000100
00000000
00000101
00000000
00000000
00000001
00000010
00000000
00001000
00000000
,
00011000
00000000
00000000
00010000
00000000
00000000
00100000
00000000
00000000
10000000
00000000
00000000
01000000
00000000
00010000
00000000
00001000
00000000
00000010
00000000
00000000
00000001
00000000
00000000
,
00000101
00000000
00000000
00000100
00001000
00000000
01000000
00000000
01010000
00000000
00000000
00010000
10000000
00000000
01000000
00000000
,
10000000
00100000
01000000
00010000
10000000
01000000
00010000
00001000
00000010
00000001
00001000
00000010
00000100
00000000
00000001
00000100
,
00001000
00000000
00000000
00010000
00100000
00000000
10000000
01000000
00010000
00000000
00000000
00001000
00000010
00000000
00000001
00000100
,
00001000
00000000
00010000
00000000
00100000
00000000
01000000
00000000
00010000
00000000
00000000
00100000
00010000
00000000
01000000
00100000
,
10000000
00000000
00000000
01000000
00010000
00000000
00000100
00000000
00001100
00000000
00000000
00001000
00000001
00000000
00000010
00000000
,
00000001
00000010
00000100
00001000
00000001
00000100
00001000
00010000
00100000
10000000
00010000
00100000
01000000
00000000
10000000
01000000
,
00010000
00000000
00000000
00000010
00001000
00000000
00000001
00000100
00001000
00000000
00000000
00100000
00010000
00000000
10000000
01000000
,
00010000
00000000
00000000
00001000
00000000
00000000
00000100
00000000
00000000
00000001
00000000
00000000
00000010
00000000
00001000
00000000
00010000
00000000
01000000
00000000
00000000
10000000
00000000
00000000
,
00100000
00000000
00000000
01000000
00010000
00000000
00100000
00001000
00010000
00000000
00000000
00001000
00000100
00000000
00000001
00000010
,
00000100
00000000
00000000
00001000
00000001
00000000
00000100
00000000
00001000
00010000
00000000
00100000
10000000
00000000
00010000
00100000
,
01000000
00000000
00000000
00010000
00001000
00000000
00000100
00000001
00000010
00000000
00000000
00000100
00001000
00000000
00000010
00010000
,
00011000
00000000
00000000
00000000
00000000
00000000
00012000
00000000
00000000
00000000
00000000
00000000
00003100
00000000
00001000
00000000
00010000
00000000
01000000
00000000
00000000
11000000
00000000
00000000
,
00000000
00000000
00000000
00000000
;
