
//----- song ID: eira -----//
#TITLE:Eira;
#ARTIST:DJ TOTTO;
#BANNER:Eira.png;
#BACKGROUND:Eira-bg.png;
#CDTITLE:./CDTitles/RB Reflesia.png;
#MUSIC:Eira.ogg;
#SAMPLESTART:23.258;
#SAMPLELENGTH:15;
#BPMS:0=93,20=186,180=93,196=186;
#NOTES:
     dance-single:
     :
     Beginner:
     4:
     :
0000
0000
0000
0000
,
0000
0000
0000
0000
,
0000
0000
0000
0000
,
0000
0000
0000
0000
,
0000
0000
0000
0000
,
0001
0000
0000
0000
,
0001
0000
0000
0000
,
1000
0000
0000
0000
,
1000
0000
0000
0000
,
0010
0000
0000
0000
,
0010
0000
0000
0000
,
0200
0000
0000
0000
,
0300
0000
0000
0000
,
0001
0000
0000
0000
,
1000
0000
0000
0000
,
0010
0000
0000
0000
,
0100
0000
0000
0000
,
0001
0000
0000
0000
,
1000
0000
0000
0000
,
0001
0000
0000
0000
,
1001
0000
0000
0000
,
1000
0000
0000
0000
,
0100
0000
0000
0000
,
0010
0000
0000
0000
,
0001
0000
0000
0000
,
1000
0000
0000
0000
,
0010
0000
0000
0000
,
0100
0000
0000
0000
,
0110
0000
0000
0000
,
0001
0000
0001
0000
,
0001
0000
0000
0000
,
0001
0000
0001
0000
,
0001
0000
0000
0000
,
1000
0000
0000
0000
,
0010
0000
0000
0000
,
0100
0000
0000
0000
,
0001
0000
0000
0000
,
1000
0000
1000
0000
,
1000
0000
0000
0000
,
1000
0000
1000
0000
,
1000
0000
0000
0000
,
0001
0000
0000
0000
,
0010
0000
0000
0000
,
0100
0000
0000
0000
,
1000
0000
0001
0000
,
2002
0000
0000
0000
,
0000
0000
0000
0000
,
3003
0000
0000
0000
,
0000
0000
0000
0000
,
0001
0000
0001
0000
,
0001
0000
0000
0000
,
1000
0000
1000
0000
,
1000
0000
0000
0000
,
0010
0000
0010
0000
,
0100
0000
0100
0000
,
0020
0000
0000
0000
,
0030
0000
0000
0000
,
1000
0000
0001
0000
,
1000
0000
0000
0000
,
0010
0000
0100
0000
,
0010
0000
0000
0000
,
1000
0000
0001
0000
,
0100
0000
0000
0000
,
0001
0000
1000
0000
,
0010
0000
0000
0000
,
1000
0000
0100
0000
,
0010
0000
0000
0000
,
0001
0000
0100
0000
,
0010
0000
0000
0000
,
1000
0000
1000
0000
,
0001
0000
0001
0000
,
0100
0000
0100
0000
,
0020
0000
0000
0000
,
0030
0000
0000
0000
,
0000
0000
0000
0000
,
0000
0000
0000
0000
,
0000
0000
0000
0000
,
2000
0000
0000
3000
0000
0000
0000
0000
,
0002
0000
0000
0003
0000
0000
0000
0000
,
0200
0000
0000
0300
0000
0000
0000
0000
,
0020
0000
0000
0030
0000
0000
0000
0000
,
2002
0000
0000
3003
0000
0000
0000
0000
,
0000
0000
0000
0000
;
#NOTES:
     dance-single:
     :
     Easy:
     8:
     :
0000
0000
0000
0000
,
0000
0000
0000
0000
,
0000
0000
0000
0000
,
0000
0000
0000
0000
,
0000
0000
0000
0000
,
0001
1000
0010
0100
,
0001
0001
0010
0100
,
1000
0001
0100
0010
,
1000
1000
0100
0010
,
0001
1000
0001
0100
,
0002
0023
0230
2300
,
3001
0000
0000
0000
,
0001
0000
1000
0000
0010
0010
0000
0000
,
1000
0100
1000
0010
,
0100
0001
0010
0000
,
0010
0001
1000
0010
,
0100
0010
1000
0000
,
0001
0010
0001
0010
,
0100
1000
0001
0000
,
0002
0103
2000
3100
,
0110
0000
0000
0000
,
0001
0101
1000
1100
,
0001
0100
0010
0000
,
1000
1010
0001
0011
,
1000
0010
0100
0001
,
1000
1000
0100
0100
,
0010
0010
0001
0001
,
0011
1000
0110
0001
,
2002
0000
0000
3003
0000
0000
0000
0000
,
1000
0000
1000
0000
0001
0000
0001
0001
,
0000
0100
0000
0100
0000
0100
0000
0001
,
0000
0001
0000
0001
0001
0000
1000
0000
,
1000
1000
1001
0000
,
0001
0100
1000
0000
,
0100
0001
0010
0000
,
0100
1000
0010
0000
,
0001
0010
1000
0000
,
0001
0000
0001
0000
1000
0000
1000
1000
,
0000
0010
0000
0010
0000
0010
0000
1000
,
0000
1000
0000
1000
1000
0000
0001
0000
,
0001
0100
1001
0000
,
1000
0010
0001
0000
,
0010
0100
0001
0000
,
0010
0100
1000
0000
,
1000
0010
0100
0001
,
2001
3200
0320
0032
,
0203
2300
3200
0302
,
0023
0230
0302
0203
,
2300
3020
0030
0000
,
1000
1000
0001
0001
,
0100
0100
0010
0010
,
0100
0100
0001
0001
,
0010
0010
0001
0100
,
0001
0010
0100
1000
,
0010
0100
0001
1000
,
2002
0000
0000
0000
,
3003
0000
0000
0000
0100
0100
0000
0000
,
0001
0010
0100
1000
,
0010
0010
0100
0001
,
1000
1000
0100
0010
,
0001
0100
1000
0100
,
0001
0011
1000
1100
,
0001
0101
1000
1010
,
0002
0023
0230
2300
,
3020
0000
0130
0000
,
0001
1001
0100
0110
,
0001
1000
0100
1000
,
0010
0100
0001
1000
,
0010
0000
0000
0100
0000
0000
1001
0000
0000
0000
0000
0000
0000
0000
0000
0000
,
2000
0100
0001
3010
,
0002
0100
1000
0013
,
1100
0001
0101
1000
,
0220
0000
0330
0000
,
0102
0000
0000
1003
0000
0000
0000
0000
,
2100
0000
0000
3001
0000
0000
0000
0000
,
0102
0000
0000
0013
0000
0000
0000
0000
,
2100
0000
0000
3010
0000
0000
0000
0000
,
0210
0000
0000
0301
0000
0000
0000
0000
,
0120
0000
0000
0031
0000
0000
0000
0000
,
0120
0000
0000
1030
0000
0000
0000
0000
,
0210
0000
0000
1300
0000
0000
0000
0000
,
0001
1000
0001
2000
0000
0000
0000
0000
,
0000
0000
0000
0000
,
0000
0000
0000
0000
,
0000
0000
0000
0000
,
3000
0000
0000
0000
,
0000
0000
0000
0000
;
#NOTES:
     dance-single:
     :
     Medium:
     11:
     :
0000
0000
0000
0000
,
0000
0000
0000
0000
,
0000
0000
0000
0000
,
0000
0000
0000
0000
,
0000
0000
0000
0000
,
0001
1000
0010
0100
,
0001
0000
0010
0000
0001
1000
0100
0000
,
1000
0010
0100
0001
,
0010
0000
0100
0000
1000
0001
0100
0000
,
0002
0023
0230
2300
,
3001
0100
0010
0100
0001
0010
0100
0000
,
2002
0000
0000
3003
,
1000
0000
0001
0000
0100
0100
0000
0000
,
0001
0010
0001
0000
1000
0100
1000
0000
,
0001
0000
0100
0010
0000
0010
1000
0000
,
0001
0010
0100
0000
0010
0100
1000
0000
,
0001
0100
0001
1000
,
0100
1000
0001
0000
0100
0001
1000
0000
,
0001
0000
0100
0010
0000
0100
0010
0000
,
1000
0001
0100
0000
0001
0010
0100
0000
,
2000
0000
3000
0000
,
1000
0100
1000
0000
0001
0100
0010
0000
,
1000
0000
0001
0100
0000
0100
0010
0000
,
1000
0001
0010
0000
0100
1000
0001
0000
,
1000
0000
0001
0100
0001
0010
0100
0000
,
1000
1000
0001
0001
,
2000
3002
0103
0110
,
0001
0010
0100
1000
0010
0100
0001
0000
,
2002
0000
0000
3003
0000
0000
0000
0000
,
0001
0000
1000
0000
0001
0001
1000
1000
,
0000
0010
0010
0100
0100
0100
0000
0001
,
0001
1000
1000
0001
0001
0000
0100
0100
,
0010
0010
0100
0100
0001
0000
0000
0000
,
0001
0100
0010
0000
,
1000
0000
0001
0000
0100
0010
0001
0010
,
2000
0000
3100
0000
,
0001
0000
0000
0010
0000
0000
0100
0000
0000
1000
0000
0000
0010
0000
0000
0000
,
1000
0000
0001
0000
1000
1000
0001
0001
,
0000
0100
0100
0010
0010
0100
0000
0001
,
0001
1000
1000
0001
0001
0000
0100
0100
,
0010
0010
0100
0100
0001
0000
0000
0000
,
1000
0100
0010
0000
,
0001
0000
1000
0000
0100
0010
1000
0010
,
0002
0000
0103
0000
,
1000
0000
0000
0010
0000
0000
0100
0000
0000
0001
0000
0000
0010
0000
0000
0000
,
0200
0302
0203
2300
,
3020
0032
0023
0230
,
0302
0023
0230
2300
,
3020
0230
0300
0000
,
0001
1000
0001
0010
,
0100
0000
1000
0000
0010
0100
0001
0000
,
1000
0100
1000
0010
,
0100
0000
0001
0000
0010
0100
1000
0000
,
0002
0203
0320
2030
,
3001
0010
0100
1000
0010
1000
0001
0000
,
2002
0000
0000
3003
,
1000
0000
0001
0000
0100
0100
0000
0000
,
0001
0000
0100
0001
0010
0000
0001
0000
,
1000
0000
0100
1000
0010
0000
1000
0000
,
0001
0100
0010
0000
1000
0100
0010
0000
,
0001
1000
0001
1000
0010
0100
0001
0000
,
1000
0000
0020
0100
0000
1030
0001
0000
,
0001
0000
0200
0010
0000
0301
1000
0000
,
0002
0023
0130
1100
,
0002
0000
1003
0000
,
0001
0000
0010
0001
0100
0000
0001
0000
,
1000
0000
0010
1000
0100
0000
1000
0000
,
0001
1000
0010
0000
0100
0001
1000
0000
,
0001
0000
0000
0100
0000
0000
0010
0000
2000
0000
0000
0000
3000
0000
0000
0000
,
1000
0000
0002
0010
0000
2003
0010
0000
,
3001
0000
2000
0100
0000
3002
0100
0000
,
1003
0100
1000
0100
0010
0001
1000
0010
,
0200
0000
0020
0000
,
0330
0000
0000
0000
,
0000
0000
0000
0000
,
0000
0000
0000
0000
,
0000
0000
0000
0000
,
0001
0100
0010
2000
0000
0000
3000
0000
,
1000
0100
0010
0002
0000
0000
0003
0000
,
0001
0100
0010
2000
0000
0000
3000
0000
,
1000
0100
0010
0002
0000
0000
0003
0000
,
0100
0001
0010
2000
0000
0000
0000
0000
,
0000
0000
0000
0000
,
0000
0000
0000
0000
,
0000
0000
0000
0000
,
3000
0000
0000
0000
,
0000
0000
0000
0000
;
#NOTES:
     dance-single:
     :
     Hard:
     16:
     :
0000
0000
0000
0000
,
0000
0000
0000
0000
,
0000
0000
0000
0000
,
0000
0000
0000
0000
,
0000
0000
0000
0000
,
0001
1000
0001
0100
0010
0100
0001
1000
,
0001
0010
0100
0010
0001
1000
0010
0010
,
1000
0001
1000
0010
0100
0010
1000
0001
,
1000
0100
0010
0100
1000
0001
0100
0100
,
0001
0010
0001
1000
0010
1000
0001
0010
,
0001
1000
0001
1000
0001
0000
0010
0000
0100
1000
0100
1000
0100
1000
0001
0100
,
0020
0000
0030
0001
0010
1000
0100
0001
,
0100
1000
0010
0100
0001
1001
0000
0000
,
1000
0100
1000
0000
0100
0000
0010
0001
0010
0000
0100
0000
1000
0001
1000
0000
,
0010
0000
0100
0001
1000
0000
0200
0000
0000
0300
1000
0000
0002
0000
0000
0003
,
1000
0010
1000
0000
0010
0000
0100
0001
0100
0000
0010
0000
1000
0001
1000
0000
,
0100
0000
0010
0000
0001
0000
0100
0010
0000
0010
1000
0000
0001
0000
0010
0000
,
0100
1000
0100
0000
0010
0000
0001
0100
0001
0000
1000
0000
0100
0010
0100
0000
,
1000
0000
0001
0100
0001
0000
0020
0000
0000
0030
0100
0000
2000
0000
0000
3000
,
0001
0100
0001
0000
0010
0000
0001
0100
0001
0000
0010
0000
0100
0000
1000
0000
,
1001
0000
0000
0001
0001
0010
0100
1000
,
0001
1000
0100
0000
1000
0000
0001
0100
0010
0000
0100
0000
0001
1000
0100
0000
,
0010
0000
0001
0010
0100
0000
2000
0000
0000
3000
0010
0000
0200
0000
0000
0300
,
0001
1000
0010
0000
1000
0000
0001
0010
0100
0000
0010
0000
0001
1000
0010
0000
,
0100
0000
0001
0000
0100
0000
0010
1000
0000
1000
0001
0000
1000
0000
0100
0010
,
0001
0001
0100
0100
1000
1000
0100
0100
,
0010
0010
1000
1000
0001
0001
0010
0010
,
0001
0000
0001
0000
1000
0000
1000
0000
0001
1000
0001
1000
0001
1000
0001
1000
,
0002
0000
0000
0003
0000
0000
0000
0000
,
1000
0010
1010
0000
1000
0001
0010
0011
,
0000
0010
0100
1000
1000
1010
0000
0010
,
0010
0100
0001
0001
0011
0000
0010
0100
,
1000
0000
1000
0000
0010
0000
0010
0000
0110
0000
0000
0000
0100
0010
0100
0000
,
0001
0000
0010
0100
1000
0000
0001
0000
,
1000
0000
0000
0010
0000
0000
1000
0000
0001
0010
0100
0000
1000
0000
0010
0000
,
0001
0010
1000
0100
0010
1000
0010
0001
,
0100
0000
0100
0000
0010
0000
1000
0000
0001
0000
0100
0001
1000
0000
0000
0000
,
0001
0100
0101
0000
1001
1000
0100
1100
,
0000
0110
0010
0001
0001
0101
0000
0110
,
0100
0010
1000
1000
1100
0000
1001
0001
,
0010
0000
1000
0000
0010
0000
0001
0000
1001
0000
0000
0000
1000
0100
1000
0000
,
0010
0000
0100
0001
0010
0000
0100
0000
,
1000
0000
0000
0010
0000
0000
1000
0000
0001
0010
0100
0000
1000
0000
0010
0000
,
0100
0000
0001
0010
1000
0010
0100
1000
,
0001
0000
0000
0100
0000
0000
0010
0000
0000
1000
0000
0000
0001
0010
0100
1000
,
0002
0203
0320
0032
0023
2030
3200
0302
,
0203
0320
0032
2003
3020
0230
2300
3200
,
0302
0023
2030
3020
,
0032
2003
3000
0000
,
0010
1000
1000
0001
0100
0100
0001
0010
,
0010
0100
1000
1000
0010
0100
0100
0001
,
1000
0100
0100
0010
0001
0001
0100
0010
,
0010
1000
0001
0001
0100
0010
1000
0001
,
0010
0100
1000
0001
0100
0010
1000
1000
,
0001
1000
0001
1000
0001
0000
1000
0000
0001
0100
0001
0100
0001
0100
0001
0100
,
0020
0000
0030
0001
0010
1000
0100
0001
,
0100
1000
0010
0100
0001
1001
0000
0000
,
0001
0010
0001
0000
1000
0000
0010
0100
0010
0000
1000
0000
0001
0010
0001
0000
,
0100
0000
0010
0000
1000
0000
0001
0010
0000
0100
1000
0000
0010
0000
0100
0000
,
0001
1000
0100
0000
1000
0000
0001
0000
0100
0010
0000
0010
1000
0000
0001
0000
,
0010
0001
0010
0000
0001
0000
1000
0100
1000
0000
0100
0000
0010
0000
0001
0000
,
0100
0010
1000
0010
0100
0001
0010
0100
,
1000
0001
0100
0010
0100
0001
1000
0000
,
0001
0010
0100
0000
1000
0010
0100
0000
0001
0000
0010
0000
0100
0000
1000
0000
,
2001
0000
0010
0000
0001
0001
3001
0000
,
1000
0001
0010
0000
0100
0000
0010
0001
1000
0000
0010
0000
0100
0001
0010
0000
,
0100
0000
1000
0000
0010
0000
0100
0001
0000
1000
0100
0000
0010
0000
0001
0000
,
1000
0000
0100
0000
0001
0000
0100
0000
0010
0001
0000
0001
0100
0000
0010
0000
,
0110
0000
0000
1010
0000
0000
2002
0000
0000
0000
0000
0000
3003
0000
0000
0000
,
1000
0100
0010
0100
1000
0010
0100
0010
,
1000
0100
0001
0100
1000
0010
0001
0010
,
1000
0000
1000
0000
0001
0000
0001
0000
1000
0001
1000
0001
1000
0100
0010
0001
,
2000
0000
3000
0000
,
0002
0000
0000
0013
0000
0000
0000
0000
,
0200
0000
0000
1300
0000
0000
0000
0000
,
0020
0000
0000
0130
0000
0000
0000
0000
,
0002
0000
0000
1003
0000
0000
0000
0000
,
0001
0100
0001
0100
0000
0001
0100
0001
0100
0000
0001
0100
0000
0010
0000
1000
,
0000
0000
0001
0000
1000
0010
1000
0010
0000
0100
0000
0001
0000
1000
0100
0000
,
1000
0100
1000
0100
0000
1000
0100
1000
0100
0000
1000
0100
0000
0010
0000
0001
,
0000
0000
1000
0000
0001
0100
0001
0100
0000
0001
0000
0010
0000
0100
1000
0000
,
0010
0001
0010
2000
0000
0000
0000
0000
,
0000
0000
0000
0000
,
0000
0000
0000
0000
,
0000
0000
0000
0000
,
3000
0000
0000
0000
,
0000
0000
0000
0000
;
#NOTES:
     dance-single:
     :
     Challenge:
     17:
     :
0000
0000
0000
0000
,
0000
0000
0000
0000
,
0000
0000
0000
0000
,
0000
0000
0000
0000
,
0000
0000
0000
0000
,
0001
0010
0001
0100
0010
1000
0002
0100
,
0000
0013
0001
1000
0100
1000
0010
0000
,
1000
0100
1000
0010
0100
0001
2000
0100
,
0000
3010
1000
0001
0100
0001
0010
0001
,
1000
0010
0100
0001
0010
0100
1000
0001
,
1000
0001
0100
0010
1000
0001
1000
0100
0010
0001
1000
0010
0100
0001
1000
0100
,
0020
0000
0000
0000
0030
0000
0100
1000
0001
0100
0001
0010
0100
1000
0010
0100
,
0002
0000
2000
3003
1001
1001
0000
0000
,
0001
0100
0010
1000
0001
0000
0010
0100
1000
0100
0010
0000
0001
1000
0100
1000
,
0010
0000
1000
0001
0010
0000
2000
0000
0000
0000
3010
0000
0001
0000
0000
0000
,
1000
0100
0010
0001
1000
0000
0010
0100
0001
0100
0010
0000
1000
0001
0100
0001
,
0010
0000
0100
0000
0010
0000
0001
1000
0000
1000
0010
0000
1000
0000
0001
0000
,
0100
0001
1000
0001
0010
0000
0100
1000
0010
1000
0001
0000
0100
0010
1000
0001
,
0010
0000
0001
1000
0010
0000
0002
0000
0000
0000
0013
0000
1000
0000
0000
0000
,
0001
0100
0010
1000
0000
0001
0010
0100
1000
0000
0010
0100
0010
0000
0001
0000
,
0010
1000
0100
0000
0001
0000
0100
0000
1000
0000
0010
0000
0100
0000
0001
0000
,
0010
0100
1000
0001
0100
0000
0010
1000
0001
1000
0100
0000
0010
0001
0100
0010
,
1000
0000
0100
1000
0010
0000
0002
0000
0000
0000
0013
0000
1000
0000
0000
0000
,
0010
0100
0001
1000
0100
0000
0010
0001
1000
0001
0100
0000
0010
1000
0100
0010
,
0001
0000
0100
0000
0010
0000
1000
0001
0000
0001
0100
0000
0010
0000
1000
0000
,
0001
0001
0100
0100
0010
0010
1000
0001
,
0011
0000
1000
0000
1100
0000
0001
0010
0000
0100
1000
0000
0001
0000
1000
0000
,
0010
0100
0001
1000
0100
0010
0001
0100
0001
1000
0100
0010
0001
1000
0010
0100
,
0002
0000
0000
0010
0000
1003
1001
0000
,
0001
0001
0101
0000
1000
1000
0100
0110
,
0000
0001
1000
1000
0010
1010
0000
1000
,
0001
0001
0100
0001
0011
0000
0010
0010
,
0001
0001
1000
0001
2002
0000
0000
3003
,
1001
0000
0000
0000
0001
0100
0020
1000
,
0000
0000
0130
0000
0010
0000
1000
0000
0001
0010
0100
1000
0001
0100
0010
1000
,
0001
0000
1000
0100
0020
0000
0001
0000
0000
0000
0100
0000
0000
0000
1030
0010
,
0001
0000
0000
1001
0000
0000
1000
0000
0001
1000
0100
1000
0001
0000
0000
0000
,
1000
1000
1100
0000
0001
0001
0100
0110
,
0000
1000
0001
0001
0010
0011
0000
0001
,
1000
1000
0100
1000
1010
0000
0010
0010
,
1000
1000
0001
1000
2002
0000
0000
3003
,
1001
0000
0000
0000
1000
0100
0020
0001
,
0000
0000
0130
0000
0010
0000
0001
0000
1000
0010
0100
0001
1000
0100
0010
0001
,
1000
0000
0001
0100
0010
0000
1000
0000
0001
0000
0000
0011
0000
0000
0001
0100
,
0010
0000
0000
1010
0000
0000
1000
0001
0010
0100
1000
0001
0100
0010
0100
0010
,
2000
3200
0302
2003
3002
0203
2300
3020
0032
2003
3002
0023
0230
0302
0023
0230
,
2300
3020
0230
2300
3002
0023
2030
3002
0203
0302
2003
3200
0320
0032
2003
3002
,
0203
2300
3002
2003
3200
0302
0023
2030
3002
2003
3020
0230
2300
3020
0230
0302
,
0023
0230
0302
2003
3020
0032
2003
3200
0000
0000
0000
0000
0000
0000
0000
0000
,
0310
0001
1000
0100
1000
0001
0200
0010
,
0000
0301
1000
0100
0010
0001
1000
0000
,
0010
1000
0001
0100
0001
1000
0200
0010
,
0000
1300
0001
0100
0010
1000
0100
1000
,
0001
0100
0010
1000
0100
0010
0001
1000
,
0001
1000
0100
0010
0001
1000
0001
0100
0010
1000
0001
0010
0100
1000
0001
0100
,
0020
0000
0000
0000
0030
0000
0100
0001
1000
0100
1000
0010
0100
0001
1000
0100
,
0020
0000
0000
0000
0230
0000
0000
0000
0310
0001
0100
0000
0010
0000
1000
0000
,
0001
1000
0010
0100
1000
0000
0001
0010
1000
0001
0010
0000
0100
1000
0010
0100
,
0001
0000
1000
0000
0100
0000
0010
0001
0000
0001
1000
0000
0010
0000
0100
0000
,
0001
1000
0100
0000
0010
0000
0100
1000
0001
0100
0000
0010
1000
0000
0001
0000
,
1000
0001
0010
0100
0001
0000
1000
0010
0001
1000
0010
0000
1000
0000
0001
0000
,
0100
0001
0010
1000
0000
1000
0010
0001
,
1000
0001
0100
1000
0000
1000
0100
0001
,
1000
0010
0100
0001
1000
0100
0001
0100
1000
0000
1000
0000
0001
0000
0001
0000
,
0200
0000
0000
0000
0310
0000
0100
0000
0001
0010
0100
0000
1000
0000
0010
0100
,
0001
1000
0100
0010
1000
0000
0001
0100
1000
0001
0100
0000
0010
1000
0100
0010
,
0001
0000
1000
0000
0010
0000
0100
0001
0000
0001
1000
0000
0010
0000
0100
0000
,
0001
0010
0100
1000
0001
1000
0010
0100
0001
1000
0000
0100
0010
0000
0001
0000
,
0011
0000
0000
1001
0000
0000
1100
0000
0001
0100
0001
0100
0001
0100
0001
0100
,
0010
0000
1000
0001
0010
0000
1000
0000
0010
0001
1000
0000
0010
0000
0100
0000
,
1001
0000
0001
1000
0100
0000
0001
0000
0100
1000
0001
0000
1000
0010
0100
0001
,
1000
0100
0010
0001
1000
0010
0001
1000
0100
0001
1000
0100
0010
0001
1000
0001
,
0200
0000
0000
0000
0300
0000
1000
0100
0001
0000
0000
0000
0000
0000
1000
0000
,
2100
0000
0000
3001
0000
0000
0000
0000
,
0102
0000
0000
1003
0000
0000
0000
0000
,
2001
0000
0000
0000
0000
0000
3100
0000
0010
0000
0001
1000
0000
0000
0001
0100
,
0010
0000
1000
0001
0000
0000
0010
0000
0001
1000
0000
0001
1000
0000
1000
0000
,
0100
0010
0100
0010
0000
0001
0100
0010
1000
0000
0001
0010
0000
0001
0000
0100
,
0000
0000
0110
0000
0001
1000
0100
0010
0000
0100
0000
0100
0000
1000
0001
0000
,
0100
0010
0100
0010
0000
1000
0100
0010
0001
0000
1000
0010
0000
1000
0000
0100
,
0000
0000
0110
0000
1000
0001
0100
0010
0000
0100
0000
0100
0001
1000
0100
1000
,
0010
0100
0001
1000
0001
0010
2000
0000
0000
0000
0000
0000
0000
0000
0000
0000
,
0000
0000
0000
0000
,
0000
0000
0000
0000
,
0000
0000
0000
0000
,
3000
0000
0000
0000
,
0000
0000
0000
0000
;
#NOTES:
     dance-double:
     :
     Easy:
     8:
     :
00000000
00000000
00000000
00000000
,
00000000
00000000
00000000
00000000
,
00000000
00000000
00000000
00000000
,
00000000
00000000
00000000
00000000
,
00000000
00000000
00000000
00000000
,
00001000
00010000
00001000
00001000
,
00010000
00001000
00010000
00010000
,
00000100
00001000
00000010
00010000
,
00001000
01000000
00010000
00100000
,
01000000
10000000
00010000
00010000
,
01000000
00100000
10000000
10010000
,
02200000
00000000
00000000
00000000
,
03300000
00000000
00000000
00000000
00001000
00010000
00000000
00000000
,
00000100
00000010
00000001
00001000
,
00000010
00000100
00000001
00000000
,
00000001
00000100
00001000
00010000
,
00100000
01000000
00010000
00000000
,
00010000
10000000
00100000
01000000
,
00010000
10000000
01000000
00000000
,
10000000
00100000
00010000
00001000
,
00010000
00001000
00000010
00000000
,
00000001
00000011
00001000
00001100
,
00010000
00001000
01000000
00000000
,
00100000
10100000
00010000
00110000
,
00001000
00010000
00000100
00000010
,
00000001
00000001
00000100
00000100
,
00001000
00001000
00010000
00010000
,
01000000
11000000
10000000
10100000
,
00200000
00000000
00000000
00300000
00000000
00000000
00000000
00000000
,
10000000
00000000
10000000
00000000
00010000
00000000
00010000
00010000
,
00000000
01000000
00000000
01000000
00000000
01000000
00000000
00001000
,
00000000
00001000
00000000
00001000
00001000
00000000
00010000
00000000
,
00010000
00010000
00011000
00000000
,
00001000
00000100
00000001
00000000
,
00000001
00000010
00000100
00000000
,
00010000
00001000
00100000
00000000
,
00001000
00000100
00000010
00000000
,
00001000
00000000
00001000
00000000
00000001
00000000
00000001
00000001
,
00000000
00000100
00000000
00000100
00000000
00000100
00000000
00000010
,
00000000
00000010
00000000
00000010
00000010
00000000
00010000
00000000
,
00010000
00001000
00011000
00000000
,
00010000
01000000
10000000
00000000
,
00100000
01000000
00010000
00000000
,
10000000
01000000
00010000
00000000
,
00000010
00000100
00000001
00001000
,
00000002
00000023
00002030
00023000
,
00032000
00003200
00002300
00023000
,
02030000
23000000
30200000
00320000
,
00032000
00203000
00300000
00000000
,
01000000
01000000
10000000
10000000
,
00100000
00100000
00010000
00010000
,
00001000
00001000
00010000
00010000
,
00000100
00000010
00000001
00001000
,
00000010
00001000
00000100
00010000
,
00001000
00100000
00010000
01000000
,
00002000
00000000
00000000
00000000
,
00003000
00000000
00000000
00000000
00010000
00010000
00000000
00000000
,
00001000
00000010
00000001
00000001
,
00000100
00001000
00010000
01000000
,
10000000
10000000
00100000
00010000
,
00001000
00000010
00000100
00010000
,
00001000
00000100
00000001
00000001
,
00000010
00001000
00010000
01000000
,
21000000
30010000
01020000
10030000
,
00200000
00000000
01300000
00000000
,
00001000
00010000
00000100
00000010
,
00001000
00000010
00000001
00000100
,
00001000
00010000
01000000
10000000
,
00100000
00000000
00000000
01000000
00000000
00000000
10010000
00000000
00000000
00000000
00000000
00000000
00000000
00000000
00000000
00000000
,
10000000
00100000
00010000
00002000
,
00100000
00010000
00103000
00000000
,
00012000
00103000
00021000
00030100
,
00022000
00000000
00033000
00000000
,
00012000
00000000
00000000
01003000
00000000
00000000
00000000
00000000
,
02100000
00000000
00000000
03001000
00000000
00000000
00000000
00000000
,
00021000
00000000
00000000
00030100
00000000
00000000
00000000
00000000
,
00000210
00000000
00000000
00010300
00000000
00000000
00000000
00000000
,
00012000
00000000
00000000
01003000
00000000
00000000
00000000
00000000
,
20100000
00000000
00000000
30010000
00000000
00000000
00000000
00000000
,
00021000
00000000
00000000
00030100
00000000
00000000
00000000
00000000
,
00000012
00000000
00000000
00001003
00000000
00000000
00000000
00000000
,
00010000
00001000
00010000
00002000
00000000
00000000
00000000
00000000
,
00000000
00000000
00000000
00000000
,
00000000
00000000
00000000
00000000
,
00000000
00000000
00000000
00000000
,
00003000
00000000
00000000
00000000
,
00000000
00000000
00000000
00000000
;
#NOTES:
     dance-double:
     :
     Medium:
     10:
     :
00000000
00000000
00000000
00000000
,
00000000
00000000
00000000
00000000
,
00000000
00000000
00000000
00000000
,
00000000
00000000
00000000
00000000
,
00000000
00000000
00000000
00000000
,
00010000
00001000
00010000
00100000
,
10000000
00000000
00010000
00000000
01000000
00001000
00010000
00000000
,
00001000
00010000
00001000
00000010
,
00000001
00000000
00000010
00000000
00000100
00010000
00001000
00000000
,
00200000
00320000
20030000
30200000
,
01300000
00010000
01000000
00010000
00100000
00001000
00010000
00000000
,
00022000
00000000
00000000
00033000
,
00001000
00000000
00010000
00000000
00001000
00001000
00000000
00000000
,
00010000
00001000
00010000
00000000
00000010
00001000
00000100
00000000
,
00000010
00000000
00000100
00001000
00000000
00001000
00000001
00000000
,
00000100
00000010
00001000
00000000
00000010
00010000
00001000
00000000
,
01000000
00010000
10000000
00010000
,
00100000
00010000
01000000
00000000
00010000
10000000
01000000
00000000
,
00100000
00000000
00001000
00010000
00000000
00001000
00010000
00000000
,
00000010
00001000
00000010
00000000
00010000
00001000
00010000
00000000
,
00002000
00000000
00003000
00000000
,
00001000
00010000
00001000
00000000
00100000
00010000
01000000
00000000
,
00100000
00000000
01000000
00010000
00000000
00010000
10000000
00000000
,
01000000
00100000
00010000
00000000
00100000
00001000
00010000
00000000
,
00001000
00000000
00010000
00000100
00001000
00000100
00000010
00000000
,
00000100
00001000
00000001
00000000
00000100
00000010
00001000
00000000
,
00000200
00020300
00031000
00011000
,
00010000
00001000
00100000
00010000
10000000
00010000
01000000
00000000
,
00200000
00000000
00000000
00300000
00000000
00000000
00000000
00000000
,
01000000
00100000
01000000
00000000
00010000
10000000
00010000
10000000
,
00000000
00010000
01000000
00001000
00010000
00001000
00000000
00010000
,
00001000
00100000
00010000
10000000
00100000
00000000
10000000
00010000
,
01000000
00010000
00100000
00001000
00020000
00000000
00000000
00000000
,
00032000
00000000
00000010
00000000
,
00023000
00000000
00100000
00030000
,
00010000
00001000
00010000
00000000
00000010
00000000
00000100
00000001
,
00001000
00000000
00000000
00000001
00000000
00000000
00001000
00000000
00000000
00000001
00000000
00000000
00001000
00000000
00000000
00000000
,
00000010
00000100
00000010
00000000
00001000
00000001
00001000
00000001
,
00000000
00001000
00000100
00010000
00001000
00010000
00000000
00001000
,
00010000
00000010
00001000
00000001
00000010
00000000
00000001
00001000
,
00000100
00001000
00000010
00010000
00002000
00000000
00000000
00000000
,
00023000
00000000
00100000
00000000
,
00032000
00000000
00000010
00000000
,
00013000
00001000
00100000
00010000
,
10000000
00000000
00000000
00010000
00000000
00000000
10000000
00000000
00000000
00010000
00000000
00000000
10000000
00000000
00000000
00000000
,
00020000
00000000
00230000
00000000
,
00302000
00000000
00023000
00030020
,
00002030
00000000
00003020
00000000
,
00000230
00002300
00020000
00033000
,
00001000
00010000
00001000
00000010
,
00000001
00000000
00001000
00000000
00000100
00010000
00001000
00000000
,
00010000
00001000
00010000
00100000
,
10000000
00000000
00100000
00000000
01000000
00001000
00010000
00000000
,
00002000
00003020
00000032
00000203
,
00000310
00001000
00000010
00001000
00000010
00010000
00001000
00000000
,
00022000
00000000
00000000
00033000
,
00010000
00000000
00001000
00000000
00010000
00010000
00000000
00000000
,
00001000
00000000
00000010
00000000
00000100
00001000
00000010
00000000
,
00000100
00001000
00010000
00001000
,
00100000
00010000
01000000
00000000
00001000
00010000
00000100
00000000
,
00001000
00000100
00010000
00001000
00100000
00000000
00001000
00000000
,
00010000
00000000
00002000
00100000
00000000
00013000
00001000
00000000
,
00010000
00000000
00020000
00000010
00000000
00031000
00010000
00000000
,
00020000
02030000
13000000
01100000
,
00020000
00000000
10030000
00000000
,
00010000
00000000
00100000
00000000
01000000
10000000
00100000
00000000
,
00010000
00001000
00010000
00000010
,
00000100
00000001
00000010
00000000
00000100
00001000
00000001
00000000
,
00000001
00000000
00000000
00000100
00000000
00000000
00000010
00000000
00020000
00000000
00000000
00000000
00030000
00000000
00000000
00000000
,
00001000
00000000
00020000
00000010
00000000
00031000
00010000
00000000
,
00010000
00000000
00002000
00100000
00000000
00013000
00001000
00000000
,
00002000
00003200
00000301
00000011
,
00000020
00000000
00000200
00000000
,
00000330
00000000
00000000
00000000
,
00000000
00000000
00000000
00000000
,
00000000
00000000
00000000
00000000
,
00000000
00000000
00000000
00000000
,
00000001
00000010
00000100
00002000
00000000
00000000
00003000
00000000
,
00000010
00000100
00001000
00020000
00000000
00000000
00030000
00000000
,
00001000
00010000
00100000
02000000
00000000
00000000
03000000
00000000
,
00010000
00100000
01000000
20000000
00000000
00000000
30000000
00000000
,
00010000
01000000
00001000
00020000
00000000
00000000
00000000
00000000
,
00000000
00000000
00000000
00000000
,
00000000
00000000
00000000
00000000
,
00000000
00000000
00000000
00000000
,
00030000
00000000
00000000
00000000
,
00000000
00000000
00000000
00000000
;
#NOTES:
     dance-double:
     :
     Hard:
     16:
     :
00000000
00000000
00000000
00000000
,
00000000
00000000
00000000
00000000
,
00000000
00000000
00000000
00000000
,
00000000
00000000
00000000
00000000
,
00000000
00000000
00000000
00000000
,
00010000
00001000
00010000
00000100
00001000
00000010
00010000
00001000
,
00010000
00000010
00001000
00000100
00000010
00000001
00000001
00000100
,
00001000
00010000
00001000
01000000
00010000
00100000
00001000
00010000
,
00001000
01000000
00010000
00100000
01000000
10000000
10000000
00100000
,
00010000
00001000
00100000
01000000
00010000
00001000
00100000
00010000
,
10000000
00010000
10000000
00010000
10000000
00000000
00010000
00000000
01000000
00100000
01000000
00100000
01000000
00000000
00010000
00000000
,
20000000
00000000
30000000
01000000
00100000
00010000
00001000
00000100
,
00000010
00001000
00010000
00001000
00000100
00000110
00000000
00000000
,
00000001
00000100
00000001
00000000
00000010
00000000
00000100
00001000
00000100
00000000
00010000
00000000
00001000
00010000
00001000
00000000
,
00000100
00000000
00001000
00000000
00010000
00000000
00200000
00000000
00000000
00300000
01000000
00000000
00020000
00000000
00000000
00030000
,
10000000
00100000
10000000
00000000
01000000
00000000
00100000
00010000
00100000
00000000
00001000
00000000
00010000
00001000
00010000
00000000
,
00100000
00000000
00010000
00000000
00001000
00000000
00000100
00000010
00000000
00000010
00001000
00000000
00000100
00000000
00000010
00000000
,
00000001
00000010
00000001
00000000
00000100
00000000
00000010
00001000
00000010
00000000
00010000
00000000
00001000
00010000
00001000
00000000
,
00000010
00000000
00001000
00000000
00010000
00000000
02000000
00000000
00000000
03000000
00100000
00000000
00020000
00000000
00000000
00030000
,
10000000
01000000
10000000
00000000
01000000
00000000
00100000
00010000
00100000
00000000
00001000
00000000
00010000
00001000
00010000
00000000
,
00000100
00000000
00000000
00001000
00000100
00000010
00000001
00001000
,
00000001
00000100
00000001
00000000
00000100
00000000
00001000
00000100
00001000
00000000
00010000
00000000
00100000
00010000
00100000
00000000
,
01000000
10000000
01000000
00100000
00010000
00001000
00100000
01000000
,
10000000
01000000
10000000
00000000
01000000
00000000
00010000
00001000
00010000
00000000
00001000
00000000
00000010
00001000
00000010
00000000
,
00000100
00000000
00000001
00000000
00000100
00000000
00001000
00000010
00000000
00000010
00000100
00000000
00000001
00000000
00001000
00000100
,
00000010
00000010
00000001
00000001
00000100
00000100
00001000
00001000
,
00010000
00010000
01000000
01000000
00100000
00100000
00001000
00001000
,
00010000
00000000
00010000
00000000
00001000
00000000
00001000
00000000
00010000
00001000
00010000
00001000
00010000
00001000
00010000
00001000
,
00020000
00000000
00000000
00030000
00000000
00000000
00000000
00000000
,
00010000
00001000
00011000
00000000
00001000
01000000
00100000
01100000
,
00000000
00100000
00010000
00001000
00001000
00011000
00000000
00001000
,
00001000
00000010
00000001
00000001
00000011
00000000
00000010
00000100
,
00010000
00000000
00010000
00000000
00001000
00000000
00001000
00000000
00011000
00000000
00000000
00000000
00001000
00010000
00001000
00000000
,
00100000
00000000
00010000
10000000
00100000
00000000
00010000
00000000
,
00001000
00000000
00000000
00010000
00000000
00000000
00000100
00000000
00001000
00000100
00001000
00000000
00000100
00000000
00000010
00000000
,
00000001
00000010
00000100
00010000
00001000
00000100
00000001
00000010
,
00001000
00010000
00001000
01000000
00100000
00010000
00100000
10000000
,
01000000
00100000
00110000
00000000
00101000
00001000
00010000
00110000
,
00000000
01100000
00100000
00010000
00001000
00001010
00000000
00000110
,
00000100
00010000
00001000
00000100
00000110
00000000
00010010
00010000
,
00001000
00000000
00000010
00000000
00000100
00000000
00010000
00000000
00010010
00000000
00000000
00000000
00010000
00001000
00010000
00000000
,
00000100
00000000
00000010
00000001
00000100
00000000
00001000
00000000
,
00010000
00000000
00000000
00010000
00000000
00000000
00001000
00000000
00100000
00010000
00100000
00000000
01000000
00000000
10000000
00000000
,
00100000
00010000
00001000
00000100
00000001
00000010
00001000
00010000
,
00001000
00000000
00000000
01000000
00000000
00000000
00100000
00000000
00000000
10000000
00000000
00000000
00010000
00100000
01000000
10000000
,
00020000
02030000
03200000
00320000
00032000
00203000
02300000
03020000
,
00032000
00003200
00000320
00020030
00032000
00003020
00000032
00000203
,
00002300
00023000
02030000
03200000
,
00302000
00023000
00030000
00000000
,
00010000
00001000
00000010
00000001
00000001
00000100
00001000
00010000
,
00001000
00010000
01000000
10000000
10000000
00100000
00010000
00001000
,
00100000
00010000
00001000
01000000
00100000
00010000
10000000
01000000
,
00100000
10000000
00010000
01000000
00100000
00010000
01000000
00100000
,
00010000
00001000
00000010
00001000
00010000
01000000
10000000
10000000
,
00010000
10000000
00010000
10000000
00010000
00000000
10000000
00000000
00100000
01000000
00100000
01000000
00100000
00000000
01000000
00000000
,
20000000
00000000
30000000
01000000
00100000
00010000
00001000
00000100
,
00000010
00010000
00001000
00000010
00000001
00000011
00000000
00000000
,
00000001
00000010
00000001
00000000
00000010
00000000
00000100
00001000
00000100
00000000
00010000
00000000
00001000
00010000
00001000
00000000
,
01000000
00000000
00001000
00000000
00010000
00000000
00100000
10000000
00000000
10000000
01000000
00000000
00010000
00000000
00001000
00000000
,
00010000
00001000
00010000
00000000
00000010
00000000
00010000
00000000
00001000
00000100
00000000
00000100
00000001
00000000
00000010
00000000
,
00000100
00001000
00000100
00000000
00010000
00000000
00001000
00010000
00001000
00000000
00010000
00000000
00001000
00000000
00000100
00000000
,
00000001
00000010
00001000
00000010
00000100
00010000
00001000
00000100
,
00001000
00010000
00100000
00010000
00001000
00010000
01000000
10000000
,
01000000
00100000
00010000
00000000
00100000
00001000
00010000
00000000
00001000
00000000
00000010
00000000
00000001
00000000
00001000
00000000
,
00000020
00000000
00000000
00010030
00011000
00000000
00000000
00000000
,
00010000
00001000
00010000
00000000
00100000
00000000
01000000
00100000
01000000
00000000
00010000
00000000
10000000
01000000
10000000
00000000
,
01000000
00000000
00010000
00000000
00001000
00000000
00000010
00000001
00000000
00000001
00000100
00000000
00001000
00000000
00010000
00000000
,
00100000
00000000
00010000
00000000
00001000
00000000
00100000
00000000
01000000
10000000
00000000
10000000
00100000
00000000
00010000
00000000
,
00011000
00000000
00000000
00010100
00000000
00000000
00000110
00000000
00000000
00000000
00000000
00000000
00000000
00000000
00000000
00000000
,
00000001
00000100
00001000
00010000
00100000
01000000
10000000
01000000
,
00100000
00010000
00001000
00000010
00000001
00000100
00001000
00010000
,
00001000
00000000
00001000
00000000
00100000
00000000
00100000
00000000
01000000
10000000
01000000
00000000
10000000
00010000
10000000
00010000
,
02000000
00000000
03000000
00000000
,
00102000
00000000
00000000
00003100
00000000
00000000
00000000
00000000
,
00020010
00000000
00000000
01030000
00000000
00000000
00000000
00000000
,
00102000
00000000
00000000
00003100
00000000
00000000
00000000
00000000
,
00020010
00000000
00000000
01030000
00000000
00000000
00000000
00000000
,
00001000
00010000
00001000
00010000
00000000
00001000
00010000
00001000
00010000
00000000
00001000
00010000
00000000
00000100
00000000
00000010
,
00000000
00000000
00000001
00000000
00001000
00000010
00001000
00000010
00000000
00000100
00000000
00001000
00000000
00010000
00001000
00000000
,
00010000
00001000
00010000
00001000
00000000
00010000
00001000
00010000
00001000
00000000
00010000
00001000
00000000
01000000
00000000
00100000
,
00000000
00000000
10000000
00000000
00010000
00100000
00010000
00100000
00000000
00010000
00000000
01000000
00000000
00100000
01000000
00000000
,
00100000
00010000
00001000
00000200
00000000
00000000
00000000
00000000
,
00000000
00000000
00000000
00000000
,
00000000
00000000
00000000
00000000
,
00000000
00000000
00000000
00000000
,
00000300
00000000
00000000
00000000
,
00000000
00000000
00000000
00000000
;
#NOTES:
     dance-double:
     :
     Challenge:
     17:
     :
00000000
00000000
00000000
00000000
,
00000000
00000000
00000000
00000000
,
00000000
00000000
00000000
00000000
,
00000000
00000000
00000000
00000000
,
00000000
00000000
00000000
00000000
,
00001000
00010000
00001000
00100000
00010000
00100000
00001000
00010000
,
00001000
01000000
00010000
01000000
00100000
00010000
00001000
00010000
,
00001000
00010000
01000000
00001000
00010000
00100000
00001000
00010000
,
00001000
00000100
00000001
00000010
00000100
00010000
00001000
00001000
,
00010000
00001000
00000100
00010000
00001000
00000010
00010000
00001000
,
00010000
00001000
00010000
00001000
00100000
00001000
00100000
00001000
00100000
00010000
00100000
00010000
00100000
01000000
10000000
01000000
,
00200000
00000000
00300000
00001000
01000000
00100000
00010000
00001000
,
00000100
00000001
00000010
00001000
00010000
00011000
00000000
00000000
,
00000100
00001000
00000100
00000000
00010000
00000000
00001000
00010000
00001000
00000000
01000000
00000000
00010000
00100000
01000000
00000000
,
10000000
00000000
01000000
00000000
00010000
00000000
00002000
00000000
00000000
00003000
00000100
00000000
00000020
00000000
00000000
00000030
,
00010000
00001000
00010000
00000000
00000010
00000000
00001000
00000010
00000100
00000000
00000001
00000000
00001000
00000100
00000010
00000000
,
00000001
00000000
00000100
00000000
00001000
00000000
00010000
00001000
00000000
00010000
00100000
00000000
01000000
00000000
00010000
00000000
,
10000000
01000000
00100000
00000000
00010000
00000000
01000000
00100000
00010000
00000000
00001000
00000000
00010000
00000100
00010000
00000000
,
00001000
00000000
00000010
00000000
00000001
00000000
00000020
00000000
00000000
00000030
00000100
00000000
00020000
00000000
00000000
00030000
,
00001000
00010000
00001000
00000000
00100000
00000000
00001000
00010000
00001000
00000000
00000010
00000000
00001000
00010000
00001000
00000000
,
01000000
00100000
00010000
00001000
00000100
00000010
00010000
00001000
,
00100000
00010000
00100000
00010000
00100000
00000000
00001000
00010000
00001000
00010000
00000100
00000000
00001000
00000100
00000010
00000000
,
00000001
00000000
00000100
00000000
00001000
00000000
00020000
00000000
00000000
00030000
01000000
00000000
00200000
00000000
00000000
00300000
,
00001000
00010000
00001000
00010000
00001000
00000000
01000000
00010000
01000000
00010000
01000000
00000000
00010000
00100000
01000000
00000000
,
10000000
00000000
00100000
00000000
00010000
00000000
00001000
00010000
00000000
00000100
00010000
00000000
00001000
00000000
00000010
00000000
,
00000001
00000001
00000100
00000100
00001000
00001000
00010000
00010000
,
00001000
00001000
00100000
00100000
01000000
01000000
10000000
10000000
,
00010000
10000000
00010000
10000000
00010000
10000000
01000000
00100000
00010000
10000000
00010000
10000000
00100000
01000000
00010000
10000000
,
02000000
00000000
00000000
03100000
00000000
00001000
00002000
00000000
,
00023000
00001000
00001000
00000000
00001000
00000100
00000100
00000200
,
00030000
00000000
00000010
00000000
00000010
00000000
00000010
00000000
00000320
00000000
00000001
00000000
00000000
00000000
00000031
00000010
,
00000200
00000000
00001000
00000000
00001000
00000000
00001000
00000000
00001000
00000000
00000000
00000000
00010000
00000000
00010300
00001000
,
00200000
00010000
00010000
00010000
00010000
00000000
00000000
00000000
,
02300000
00000000
00000000
00000000
03010000
00000000
01000000
10000000
,
00100000
00000000
00000000
00010000
00000000
00000000
00001000
00000000
00010000
00001000
00010000
00000000
00000010
00000000
00000100
00000000
,
00010000
00000000
00001000
00000000
00000010
00000000
00000100
00000000
00010000
00000000
00001000
00000000
00000010
00000000
00010000
00001000
,
00010000
00000000
00001000
01000000
00000000
00010000
00100000
00000000
00001000
00000000
01000000
00000000
00020000
00000000
00000000
00000000
,
00230000
01000000
01000000
00000000
00010000
00010000
00301000
00002000
,
00000000
00010000
00010000
00010000
00023000
00000100
00000000
00001000
,
00030020
00000000
00001000
00000000
00001000
00000000
00010000
00000000
00010000
00000000
00000000
00000000
00001030
00000000
00001000
00000100
,
00000020
00000000
00000001
00000000
00000001
00000000
00000001
00000000
00000001
00000000
00000000
00000000
00000030
00000000
00000001
00000100
,
00000020
00000000
00000000
00000000
00000031
00000000
00000010
00010000
,
00001000
00000000
00000000
01000000
00000000
00000000
00010000
00000000
10000000
01000000
00100000
00000000
00010000
00000000
10000000
00000000
,
01000000
00001000
00010000
00100000
00001000
00010000
00100000
00010000
,
00001000
00000000
00000000
00000010
00000000
00000000
00000001
00000010
00000100
00000000
00001000
00000000
00000001
00000100
00000010
00001000
,
00000002
00000023
00002030
00023000
02030000
23000000
32000000
03200000
00320000
20030000
30020000
02030000
03200000
00320000
00032000
00003200
,
00000320
00002030
00003002
00002003
00003200
00000320
00002030
00023000
00032000
02003000
03002000
00023000
00230000
02300000
03020000
20030000
,
30020000
00230000
02300000
23000000
32000000
03020000
00032000
00003020
00000032
00000023
00000230
00002300
00003002
00002003
00003020
00000230
,
00000302
00000203
00002300
00023000
00230000
02300000
03002000
00023000
00030000
00000000
00000000
00000000
00000000
00000000
00000000
00000000
,
00010000
00001000
00000100
00010000
00001000
00000010
00010000
00001000
,
00000100
00010000
00001000
00000010
00010000
00001000
00000100
00000100
,
00001000
00010000
01000000
00001000
00010000
00100000
00001000
00010000
,
01000000
00001000
00010000
00100000
00001000
00010000
01000000
00100000
,
00001000
01000000
00010000
00100000
00001000
00010000
00001000
00100000
,
00010000
00100000
00010000
00100000
00010000
00100000
00010000
00100000
00001000
00100000
00001000
00100000
00001000
00010000
00001000
00010000
,
00000200
00000000
00000300
00000010
00001000
00010000
01000000
10000000
,
00100000
00010000
00001000
00100000
00010000
10010000
00000000
00000000
,
10000000
01000000
00100000
00000000
00001000
00000000
00010000
00000100
00010000
00000000
00001000
00000000
00000010
00000001
00001000
00000000
,
00000100
00000000
00000010
00000000
00001000
00000000
00010000
00001000
00000000
01000000
00100000
00000000
00010000
00000000
00100000
00000000
,
10000000
01000000
00100000
00000000
00010000
00000000
10000000
00000000
01000000
00010000
00000000
00001000
00000010
00000000
00000001
00000000
,
00001000
00000100
00001000
00000100
00001000
00000000
00000001
00000100
00000001
00000100
00000001
00000000
00000100
00000000
00001000
00000000
,
00010000
01000000
10000000
00100000
00010000
00100000
10000000
01000000
,
00010000
00001000
00000100
00000001
00000010
00000100
00001000
00001000
,
00000001
00000100
00000010
00000000
00001000
00000010
00010000
00000000
00001000
00000000
00100000
00000000
01000000
00000000
00010000
00000000
,
00022000
00000000
00000000
00000000
00033000
00000000
00001000
00010000
00001000
00000000
00000100
00000000
00000001
00000000
00001000
00000000
,
00000001
00000010
00000100
00000000
00010000
00000000
00001000
01000000
00010000
00000000
01000000
00000000
10000000
01000000
00100000
00000000
,
10000000
00000000
00100000
00000000
00010000
00000000
00001000
00010000
00000000
00000100
00000010
00000000
00001000
00000000
00000010
00000000
,
00000001
00000100
00000010
00000000
00001000
00000000
00000001
00000000
00000100
00001000
00000000
00010000
00100000
00000000
10000000
00000000
,
10000000
00000000
01000000
00010000
00000000
00001000
00000010
00000000
00000001
00000000
00000001
00000000
00000100
00000000
00000010
00000000
,
00010000
00000000
00001000
00010000
00001000
00000000
00000100
00000000
00000001
00000010
00000001
00000000
00000010
00000000
00001000
00000000
,
00010000
00000000
01000000
10000000
01000000
00000000
10000000
00000000
00100000
10000000
00100000
00000000
00010000
00000000
00001000
00000000
,
00010000
00001000
00010000
00001000
00010000
00000100
00010000
00000100
00001000
00000100
00001000
00000100
00000010
00000001
00001000
00000010
,
00000200
00000000
00000000
00000000
00000300
00000000
00000001
00000010
00000100
00000000
00000000
00000000
00000000
00000000
00001000
00000000
,
00002002
00000000
00000000
00000000
,
00003003
00000000
00000000
00000000
,
00000000
00000000
00000000
00000000
,
00000000
00000000
00000000
00000000
,
00000001
00000100
00000001
00000100
00000000
00000010
00001000
00000010
00001000
00000000
00000010
00010000
00000000
00001000
00000000
00000100
,
00000000
00000000
00000001
00000000
00000010
00000001
00000010
00000001
00000000
00000010
00000000
00001000
00000000
00010000
00001000
00000000
,
01000000
00010000
01000000
00010000
00000000
10000000
00100000
10000000
00100000
00000000
00010000
00001000
00000000
00010000
00000000
00001000
,
00000000
00000000
00000010
00000000
00000001
00000100
00000001
00000100
00000000
00001000
00000000
00010000
00001000
00010000
00001000
00100000
,
00010000
10000000
00010000
10000000
01000000
00010000
00002000
00000000
00000000
00000000
00000000
00000000
00000000
00000000
00000000
00000000
,
00000000
00000000
00000000
00000000
,
00000000
00000000
00000000
00000000
,
00000000
00000000
00000000
00000000
,
00003000
00000000
00000000
00000000
,
00000000
00000000
00000000
00000000
;
