
//----- song ID: eoth -----//
#VERSION:0.83;
#TITLE:EYE OF THE HEAVEN;
#ARTIST:BEMANI Sound Team "U1-ASAMi";
#BANNER:EYE OF THE HEAVEN.png;
#BACKGROUND:EYE OF THE HEAVEN-bg.png;
#CDTITLE:./CDTitles/DDR WORLD.png;
#MUSIC:EYE OF THE HEAVEN.ogg;
#SAMPLESTART:1.438;
#SAMPLELENGTH:15;
#BPMS:0=308;
#NOTEDATA:;
#STEPSTYPE:dance-single;
#DIFFICULTY:Beginner;
#METER:4;
#NOTES:
0000
0000
0000
0000
,
0000
0000
0000
0000
,
0000
0000
0000
0000
,
0000
0000
0000
0000
,
0001
0000
0000
0000
,
0001
0000
0000
0000
,
0010
0000
0000
0000
,
0000
0000
0000
0000
,
0010
0000
0000
0000
,
0001
0000
0000
0000
,
0010
0000
0000
0000
,
0000
0000
0000
0000
,
0010
0000
0000
0000
,
0010
0000
0000
0000
,
1000
0000
0000
0000
,
0000
0000
0000
0000
,
1000
0000
0000
0000
,
0010
0000
0000
0000
,
1000
0000
0000
0000
,
0000
0000
0000
0000
,
2000
0000
0000
0000
,
0000
0000
0000
0000
,
3000
0000
0000
0000
,
0000
0000
0000
0000
,
1000
0000
0000
0000
,
1000
0000
0000
0000
,
0010
0000
0000
0000
,
0000
0000
0000
0000
,
0002
0000
0000
0000
,
0000
0000
0000
0000
,
0003
0000
0000
0000
,
0000
0000
0000
0000
,
0001
0000
0000
0000
,
0001
0000
0000
0000
,
0010
0000
0000
0000
,
0000
0000
0000
0000
,
1001
0000
0000
0000
,
0000
0000
0000
0000
,
0000
0000
0000
0000
,
0000
0000
0000
0000
,
0000
0000
0000
0000
,
0000
0000
0000
0000
,
0000
0000
0000
0000
,
0000
0000
0000
0000
,
1000
0000
0000
0000
,
0100
0000
0000
0000
,
1000
0000
1000
0000
,
0010
0000
0000
0000
,
0010
0000
0000
0000
,
0100
0000
0000
0000
,
0010
0000
0000
0000
,
0000
0000
0000
0000
,
1001
0000
0000
0000
,
0000
0000
0000
0000
,
0001
0000
0000
0000
,
0001
0000
0000
0000
,
0010
0000
0000
0000
,
0000
0000
0000
0000
,
0001
0000
0000
0000
,
0001
0000
0000
0000
,
0100
0000
0000
0000
,
0000
0000
0000
0000
,
0010
0000
0000
0000
,
0010
0000
0000
0000
,
1000
0000
0000
0000
,
0000
0000
0000
0000
,
1000
0000
0000
0000
,
0010
0000
0000
0000
,
1000
0000
0000
0000
,
0000
0000
0000
0000
,
1000
0000
0000
0000
,
1000
0000
0000
0000
,
0100
0000
0000
0000
,
0000
0000
0000
0000
,
1000
0000
0000
0000
,
0010
0000
0000
0000
,
0001
0000
0000
0000
,
0000
0000
0000
0000
,
0001
0000
0000
0000
,
0001
0000
0000
0000
,
0010
0000
0000
0000
,
0000
0000
0000
0000
,
0001
0000
0000
0000
,
0000
0000
0000
0000
,
1001
0000
0000
0000
,
0000
0000
0000
0000
,
0110
0000
0000
0000
,
0000
0000
0000
0000
,
1001
0000
0000
0000
,
0000
0000
0000
0000
,
0000
0000
0000
0000
,
0000
0000
0000
0000
,
1001
0000
0000
0000
,
0000
0000
0000
0000
,
0110
0000
0000
0000
,
0000
0000
0000
0000
,
1001
0000
0000
0000
,
0000
0000
0000
0000
,
0000
0000
0000
0000
,
0000
0000
0000
0000
,
1000
0000
0000
0000
,
1000
0000
0000
0000
,
0010
0000
0000
0000
,
0010
0000
0000
0000
,
0002
0000
0000
0000
,
0000
0000
0000
0000
,
0003
0000
0000
0000
,
0000
0000
0000
0000
,
0001
0000
0000
0000
,
0000
0000
0000
0000
,
0001
0000
0000
0000
,
0000
0000
0000
0000
,
0001
0000
0000
0000
,
0001
0000
0000
0000
,
0010
0000
0000
0000
,
0000
0000
0000
0000
,
0010
0000
0000
0000
,
0010
0000
0000
0000
,
1000
0000
0000
0000
,
0000
0000
0000
0000
,
1000
0000
0000
0000
,
0010
0000
0000
0000
,
1000
0000
0000
0000
,
0000
0000
0000
0000
,
2000
0000
0000
0000
,
0000
0000
0000
0000
,
3000
0000
0000
0000
,
1000
0000
0000
0000
,
0020
0000
0000
0000
,
0000
0000
0000
0000
,
0030
0000
0000
0000
,
0010
0000
0000
0000
,
0002
0000
0000
0000
,
0000
0000
0000
0000
,
0003
0000
0000
0000
,
0001
0000
0000
0000
,
0020
0000
0000
0000
,
0000
0000
0000
0000
,
0030
0000
0000
0000
,
0010
0000
0000
0000
,
0110
0000
0000
0000
,
0000
0000
0000
0000
,
1000
0000
0000
0000
,
1000
0000
0000
0000
,
1000
0000
0000
0000
,
0000
0000
0000
0000
,
0001
0000
0000
0000
,
0001
0000
0000
0000
,
0001
0000
0000
0000
;
#NOTEDATA:;
#STEPSTYPE:dance-single;
#DIFFICULTY:Easy;
#METER:9;
#NOTES:
0000
0000
0000
0000
,
0000
0000
0000
0000
,
0000
0000
0000
0000
,
0000
0000
0000
0000
,
0001
0000
0100
0000
,
0010
0000
1000
0001
,
1000
0000
0100
0000
,
0010
0000
0001
1000
,
0001
0000
0100
0000
,
0001
0000
0100
0000
,
0010
0000
1000
0000
,
0010
0000
1000
0000
,
0001
0000
0010
0000
,
0100
0000
1000
0001
,
1000
0000
0010
0000
,
0100
0000
0001
1000
,
0001
0000
0010
0000
,
0100
0010
0100
0000
,
1000
0000
0100
0000
,
0010
0000
0001
0000
,
1000
0000
0010
0000
,
0100
0001
0010
0000
,
0001
0000
0100
0000
,
0010
1000
0100
0000
,
2000
0000
0000
3000
,
0200
0000
0000
0300
,
0020
0000
0000
0030
,
0002
0000
0000
0003
,
1000
0010
0100
0000
,
0001
0000
0010
0000
,
0001
0100
0010
0000
,
1000
0000
0001
0000
,
1000
0010
1000
0000
,
0001
0010
0001
0000
,
1000
0001
1000
0001
,
1000
0000
0000
0000
,
2002
0000
0000
0000
,
0000
0000
0000
0000
,
0000
0000
0000
0000
,
0000
0000
0000
0000
,
3003
0000
0000
0000
,
0000
0000
0000
0000
,
0000
0000
0000
0000
,
0000
0000
0000
0000
,
1000
0000
0100
0000
,
1000
0010
0100
0000
,
0001
0000
0010
0000
,
0001
0100
0010
0000
,
1000
0100
1000
0000
,
0001
0100
0001
0000
,
1000
0010
1000
0001
,
0010
0000
0001
0000
,
1000
0000
0000
0000
,
0010
0000
0110
0000
,
0000
0000
0100
0000
,
0001
1000
0001
0000
,
0010
0000
0000
0000
,
0001
0000
1001
0000
,
0000
0000
1000
0001
,
1000
0010
0100
0000
,
0001
0000
0000
0000
,
0100
0000
0110
0000
,
0000
0000
1000
0010
,
0100
0001
1000
0000
,
0001
0000
0000
0000
,
1001
0000
0110
0000
,
0000
1000
0010
1000
,
0001
0100
0001
0000
,
1000
0000
0000
0000
,
0100
0000
1001
0000
,
0000
0001
0010
0100
,
1000
0001
1000
0000
,
0001
0000
0000
0000
,
0010
0000
1001
0000
,
0000
1000
0010
1000
,
0001
0100
0001
0000
,
1000
0000
0000
0000
,
0110
0000
1001
0000
,
0000
0000
1000
0010
,
0100
0001
0010
0000
,
0110
0000
0000
0000
,
0001
0000
1000
0002
,
0000
0000
0000
0000
,
0000
0000
0000
0003
,
1000
0000
0000
0000
,
1000
0000
0000
0000
,
0100
0000
0000
0000
,
0000
0000
0000
0000
,
0010
0000
0000
0000
,
0010
0000
0000
0000
,
0001
0000
0000
0000
,
0000
0000
0000
0000
,
0001
0000
0001
0000
,
0100
0000
0000
0000
,
0100
0000
0010
0000
,
0100
0000
0000
0000
,
0010
0000
0010
0000
,
1000
0000
0000
0000
,
1000
0000
0001
0000
,
1000
0000
0000
0000
,
0001
0100
0010
0000
,
1000
0000
0010
0000
,
1000
0100
0010
0000
,
0001
0000
0010
0000
,
0002
0000
0000
0000
,
0000
0000
0000
0000
,
0000
0000
0000
0000
,
0000
0000
0003
0000
,
0001
0000
0000
0000
,
1000
0000
0000
0000
,
1001
0000
0000
0000
,
0000
0000
0000
0000
,
0100
0000
0000
0000
,
0010
0000
0000
0000
,
0110
0000
0000
0000
,
0000
0000
0000
0000
,
1000
0000
0010
0000
,
1000
0000
0100
0000
,
0010
0000
0001
0000
,
1000
0000
0000
0000
,
0001
0000
0100
0000
,
0001
0000
0010
0000
,
0100
0000
1000
0000
,
0001
0000
0000
0000
,
2000
0000
0000
0000
,
0000
0000
3000
0000
,
0002
0000
0000
0000
,
0000
0000
0003
0000
,
0200
0000
0000
0000
,
0000
0000
0300
0000
,
0020
0000
0000
0000
,
0000
0000
0030
0000
,
1000
0010
1000
0010
,
1000
0100
1000
0000
,
0001
0010
0001
0010
,
0001
0100
0001
0000
,
1000
0010
1000
0001
,
0010
0001
1000
0000
,
0001
0100
0001
1000
,
0100
1000
0001
0000
,
0200
0000
0000
0000
,
0000
0000
0300
0000
,
0100
0010
0100
0000
,
0010
0000
0000
0000
,
0020
0000
0000
0000
,
0000
0000
0030
0000
,
0010
0100
0010
0000
,
0100
0000
0000
0000
,
1001
0000
0000
0000
;
#NOTEDATA:;
#STEPSTYPE:dance-single;
#DIFFICULTY:Medium;
#METER:14;
#BPMS:0=308,432=154,464=308,528=154;
#NOTES:
0000
0000
0000
0000
,
0000
0000
0000
0000
,
0000
0000
0000
0000
,
0000
0000
0000
0000
,
0001
0100
0001
0010
,
0001
0000
0100
0000
0010
1000
0010
0000
,
1000
0100
1000
0010
,
1000
0000
0100
0000
0010
0001
0010
0000
,
0001
0100
1000
0100
,
0001
0000
0100
0000
0010
1000
0001
0000
,
1000
0100
0001
0100
,
1000
0000
0100
0000
0010
0001
1000
0000
,
0001
0100
0010
0100
,
0001
0000
0010
0000
0100
1000
0100
0000
,
1000
0010
0000
1000
0010
0000
0100
0001
,
0100
0001
0010
0100
,
1000
0010
0001
0010
,
1000
0100
0001
0100
,
1000
0100
1000
0000
0100
0010
0100
0000
,
0010
0001
0010
0000
0001
1000
0001
0000
,
1000
0000
0010
0100
0000
0001
1000
0000
,
0001
0000
0010
0000
0100
0000
1000
0001
,
0000
1000
0010
0000
0100
0000
0001
0000
,
0010
0100
0010
0000
0001
0000
1000
0000
,
0001
0100
1000
1000
,
0100
0001
1000
0001
,
1000
0100
0010
0001
,
1000
0010
0100
0001
,
1000
0000
0010
0100
0010
0000
1000
0001
,
1000
0100
0010
0001
,
0100
0000
0001
0010
0001
0000
1000
0100
,
1000
0010
0100
0001
,
0010
0000
0100
0000
1000
0001
1000
0000
,
0001
1000
0001
0000
1000
0001
1000
0000
,
0001
1000
0100
0010
0001
0000
1000
0001
,
0010
0100
1000
0000
0010
0100
0001
1000
,
0002
0000
0000
0000
,
0000
0000
0000
0000
,
0000
0000
0000
0000
,
0000
0000
0000
0000
,
0003
0000
0000
0000
,
0000
0000
0000
0000
,
0000
0000
0000
0000
,
0000
0000
0000
0000
,
0001
0000
0100
0000
0010
1000
0001
0000
,
0010
0001
1000
0000
0010
0000
0100
0000
,
0001
0100
0010
1000
0010
0000
1000
0000
,
0001
1000
0100
0000
0010
0001
0010
0001
,
0010
0000
0001
1000
0001
1000
0001
0000
,
1000
0010
1000
0000
0100
0000
0010
0000
,
0001
0100
0001
0000
0100
0010
0000
1000
,
0010
0000
1000
0001
1000
0000
0000
0000
,
1010
0000
0000
1100
0000
0000
0011
0000
,
0000
0101
0000
0000
2002
0000
0000
0000
,
3003
0000
0001
0000
1000
0010
0000
1000
,
0010
1000
0000
0001
0100
0000
0001
1000
,
0001
0000
0000
0101
0000
0000
1100
0000
,
0000
1010
0000
0000
2002
0000
0000
0000
,
3003
0000
1000
0000
0010
0100
0000
0100
,
0001
0010
0100
1000
0001
0000
1000
0000
,
1100
0000
0000
0101
0000
0000
0011
0000
,
0000
1010
0000
0000
2002
0000
0000
0000
,
3003
0000
1000
0000
0001
0100
0000
0001
,
0010
0100
1000
0001
1000
0000
0100
0010
,
0000
0000
0000
0011
0000
0000
1010
0000
,
0000
1100
0000
0100
0010
0000
0000
0001
,
1000
0100
1000
0000
0001
0100
0001
0000
,
1000
0010
0100
0000
0001
0010
0100
0000
,
1000
0010
0000
1000
0100
0000
1000
0010
,
0000
1000
0100
0000
0020
0000
0000
0000
,
0030
0000
0001
0000
0100
0010
0000
0100
,
0010
1000
0000
0001
0100
0000
0001
0000
,
0020
0000
0000
0000
0031
1000
0001
0000
,
0100
0010
1000
0000
0010
0100
0001
0000
,
1000
0100
1000
0100
0010
0001
1000
0000
,
0001
0100
0001
0100
0010
1000
0001
0000
,
0010
0001
0000
0100
0001
0000
0010
0001
,
0000
0100
0001
0000
0020
0000
0000
0000
,
0000
0000
0000
0000
0030
0000
0010
0001
,
0100
0000
0010
1000
0100
0000
0010
0001
,
0010
0000
0100
1000
0100
1000
0001
0000
,
0100
0001
0100
0001
1000
0000
0001
2000
,
0000
0000
0000
0000
,
0000
0000
0000
3000
,
0020
0000
0000
0000
,
0000
0000
0030
0000
,
0200
0000
0000
0000
,
0000
0000
0300
0000
,
0002
0000
0000
0000
,
0000
0000
0003
0000
,
2000
0000
0000
0000
,
0000
0000
3000
0000
,
1000
0000
0100
0000
0010
0000
0001
1000
,
0000
0001
1000
0000
,
0001
0000
0100
0000
0010
0000
1000
0001
,
0000
1000
0001
0000
,
1000
0000
0010
0000
0100
0000
0001
0010
,
0000
0100
0010
0000
,
0001
0000
0100
0000
0010
0000
1000
0100
,
0000
0010
0100
0000
,
1000
0100
0010
0000
0001
0000
1000
0001
,
1000
0001
0100
0010
,
1000
0010
0000
1000
0010
0000
0100
0001
,
0000
0100
0001
0000
1000
0001
1000
0000
,
0020
0000
0000
0000
,
0000
0000
0000
0000
,
0000
0000
0000
0000
,
0000
0000
0030
0000
,
1001
0000
0000
1000
0010
0000
0100
0000
0001
0000
0000
0001
0010
0000
0100
0000
,
0000
0000
1000
0000
0100
0000
0001
0000
0100
0000
0000
1000
0000
0000
0001
1000
,
0001
0000
0010
0100
0010
0000
0001
1000
,
0000
0000
1000
0010
1000
0000
0010
0000
0100
0000
0001
0000
0100
0000
0000
0000
,
0001
0000
0010
0100
0000
0010
0100
0000
1000
0001
0000
1000
0001
0000
0100
0010
,
0000
0100
0010
0000
1000
0001
0000
1000
0001
0000
0010
0100
0010
0000
0001
0000
,
1000
1000
1000
1000
0100
0100
0100
0100
,
0010
0010
0010
0010
0001
0001
0001
0001
,
2000
0000
0000
0000
,
0000
3000
0001
0200
,
0000
0000
0000
0000
0300
0000
0010
0100
,
0010
0000
1000
0100
0010
0000
0001
0000
,
1000
0001
0100
0000
0010
0000
1000
0000
,
0001
0010
0100
0000
1000
0000
0001
0000
,
0100
0000
0010
1000
0010
0000
0100
0000
,
0001
1000
0001
0000
0010
0000
0100
0000
,
1000
0000
0001
0100
0010
0000
0100
0010
,
1000
0000
0010
1000
0001
0000
1000
0000
,
0001
0000
0010
0100
1000
0000
0100
1000
,
0001
0000
1000
0001
0100
0000
0010
0000
,
1000
0000
0001
0100
0000
0000
1000
0100
,
0000
0000
0001
0100
0000
0000
1000
0100
,
0001
0000
1000
0010
1000
0000
0100
0000
,
0010
0000
0001
0100
0001
0000
0010
0000
,
0200
0000
0000
0300
,
1000
0100
0000
1000
0100
0000
0000
0000
1000
0001
1000
0000
0010
0100
0010
0000
,
0200
0000
0000
0300
,
0001
0100
0000
0001
0100
0000
0000
0000
0010
1000
0001
0000
0100
0010
1000
0001
,
1000
0000
0000
0000
;
#NOTEDATA:;
#STEPSTYPE:dance-single;
#DIFFICULTY:Hard;
#METER:18;
#BPMS:0=308,432=154,464=308,528=154;
#NOTES:
0000
0000
0000
0000
,
0000
0000
0000
0000
,
0000
0000
0000
0000
,
0000
0000
0000
0000
,
1000
0100
0010
0001
1000
0010
0100
0001
,
1000
0100
0001
0100
1000
0001
0100
1000
,
0100
0010
0001
0010
0100
0001
0010
0100
,
1000
0100
0001
0100
1000
0010
0001
0010
,
1000
0100
0010
1000
0001
0100
0010
0001
,
1000
0010
0001
0010
1000
0001
0100
1000
,
0100
0001
0100
0001
0010
1000
0010
1000
,
0001
0100
1000
0001
0010
1000
0001
0100
,
1000
0010
1000
0100
1000
0010
0100
0001
,
0010
0100
1000
0010
0100
0001
0010
0100
,
1000
0010
0001
0010
1000
0100
0001
0100
,
1000
0001
0010
0001
0100
0001
0010
0001
,
0100
0010
0100
1000
0100
0001
0010
1000
,
0010
0001
1000
0100
0010
1000
0010
0001
,
0100
0010
1000
0100
0010
0100
1000
0010
,
0100
0001
0010
0100
0010
0001
0100
0010
,
1000
0000
0001
0110
0000
1000
0110
0000
,
0001
0100
1000
0100
0001
0010
1000
0010
,
0001
0100
1010
0000
1000
0100
0011
0000
,
0001
0100
1000
0001
0010
1000
0001
0000
,
0010
0001
0010
0001
0010
0001
0100
1000
,
0100
1000
0100
1000
0001
0010
1000
0010
,
1000
0100
0001
0100
1000
0010
0001
0010
,
1000
0001
0010
1000
0010
0001
0100
1000
,
0100
0000
0001
0100
1000
0001
0010
1000
,
0100
0001
0100
1000
0010
1000
0100
0010
,
0000
0000
0001
1000
0010
0001
1000
0100
,
1000
0001
0010
1000
0100
0001
1000
0010
,
0001
0000
1000
0001
0000
0010
0001
0100
,
0010
0001
0010
1000
0010
0001
0010
1000
,
0100
0010
1000
0001
0100
0010
0001
0100
,
0010
0001
1000
0100
0010
1000
0100
0010
,
0002
0000
0000
0000
,
0000
0000
0000
0000
,
0000
0000
0000
0000
,
0000
0000
0000
0000
,
0000
0000
0000
0000
,
0000
0000
0000
0000
,
0000
0000
0000
0000
,
0000
0000
0003
0000
,
0001
0011
1000
1010
,
0001
0100
0110
0000
1000
0000
1001
0000
,
1000
0100
0010
0001
0010
0100
1000
0000
,
0001
0100
0110
0000
1000
0001
1000
0001
,
1000
0000
0001
0010
1000
0010
0001
0000
,
1000
0010
0001
0010
0001
0010
1000
0000
,
0001
0100
0110
0000
1000
0110
0000
0110
,
0001
0100
0010
1000
0001
0010
0100
1000
,
0010
0100
0001
0010
0100
1000
1010
0000
,
0001
1010
0000
0000
1001
0000
0000
0001
,
2000
0000
0000
0000
3001
0100
1000
0100
,
0001
1000
0010
0001
0010
1000
0001
0010
,
1100
0000
0000
1010
0000
0000
0101
0000
,
0000
0011
0000
0000
0110
0000
0100
0000
,
0010
0100
0010
0100
0010
0010
0100
0100
,
0010
0100
0010
0010
0100
0010
0100
0100
,
0110
0000
0000
1100
0000
0000
1010
0000
,
0000
0011
0000
0000
0101
0100
0001
0200
,
0000
0000
0000
0000
0301
1000
0100
0010
,
0001
0100
0010
0001
1000
0100
0010
2000
,
0000
0000
0000
3001
0010
1000
0001
0100
,
1000
0100
0001
1000
0020
0000
0031
0100
,
0010
0001
0010
0001
1000
0100
1000
0100
,
0001
0010
0100
1000
0001
0010
0100
1000
,
0001
0011
0000
0001
0101
0000
1000
1100
,
0000
1000
1010
0000
2002
0000
0000
0000
,
0000
0000
0000
0000
3003
0000
0001
0100
,
1000
0100
0010
0100
0001
1000
0001
0000
,
0020
0000
0000
0000
1030
0001
0100
0010
,
0100
1000
0010
0001
0010
1000
0100
0001
,
1000
0010
0001
0100
1000
0100
0001
1000
,
0000
1000
0100
0010
0001
1000
0100
0010
,
0001
0011
0000
1000
1010
0000
0001
0101
,
0000
1000
1100
0000
0220
0000
0000
0000
,
0000
0000
0000
0000
0330
0000
0001
0100
,
0010
0001
0010
1000
0100
0001
0100
1000
,
0000
0000
1000
0100
0010
0001
0100
0010
,
1000
0100
0010
0001
0010
0100
1000
0002
,
0000
0000
0000
0000
,
0000
0000
0000
0003
,
2000
0000
0000
0000
,
0000
0000
3000
0000
,
0200
0000
0000
0000
,
0000
0000
0300
0000
,
0020
0000
0000
0000
,
0000
0000
0030
0000
,
0002
0000
0000
0000
,
0000
0000
0003
0000
,
1000
0000
0001
0000
1000
0000
0010
0100
,
0010
0100
0010
0000
1001
0000
0000
0000
,
1000
0000
0001
0000
1000
0000
0100
0010
,
0100
0010
0100
0000
1001
0000
0000
0000
,
0001
0000
1000
0000
0001
0000
0010
0100
,
0010
0100
0010
0000
1001
0000
0000
0000
,
0001
0000
1000
0000
0001
0000
0100
0010
,
0100
0010
0100
0000
1001
0000
0000
0000
,
0001
0010
0100
0010
0001
0000
1000
0100
,
1000
0010
0100
0001
0100
0010
1000
0000
,
0001
0010
0100
1000
0010
0100
0001
0010
,
0100
1000
0010
0100
0001
0010
0100
0000
,
1000
0100
1000
0100
0010
0100
0010
0100
,
0010
1000
0010
1000
0001
1000
0001
1000
,
0001
0100
0001
0100
1000
0100
1000
0100
,
1000
0010
0001
0010
1000
0100
0001
0100
,
2000
0000
0000
3100
0010
0001
0100
0010
2000
0000
0000
3100
0010
0001
1000
0000
,
0000
0000
1100
0000
1100
0000
0110
0000
0011
0000
0000
0101
0000
0000
0001
0010
,
0100
0000
1100
0001
0101
0000
0110
1001
,
0000
0000
0001
0100
1000
0001
0010
1000
0001
0010
1000
0001
0100
1000
0100
0001
,
1000
0010
0100
1000
0010
0100
1000
0001
0010
1000
0001
0010
0100
1000
0010
1000
,
0100
0001
1000
0010
0001
1000
0010
0001
1000
0100
0001
1000
0100
0001
0100
1000
,
0001
0010
0100
0010
0001
0100
0010
0100
0001
0010
1000
0001
0100
1000
0010
1000
,
0100
0001
1000
0010
0001
0000
0001
0010
1000
0001
0000
0001
0100
0001
1000
0010
,
0002
0000
0000
0000
,
0000
0003
0101
2002
,
0000
0000
0000
0000
3003
0000
1000
0010
,
0100
0001
1000
0100
0010
0001
0100
0010
,
1000
0100
0010
0001
1000
0100
0010
0000
,
0001
1000
0100
0010
0001
0000
1001
0000
,
0000
0000
0101
0000
0011
0000
0010
0100
,
1000
0010
1000
0010
0100
0001
0100
0000
,
0001
0010
0100
1000
0001
0100
0010
0100
,
0001
0100
0010
0100
0001
0010
0100
0000
,
1000
0100
0001
0100
1000
0100
0001
0100
,
1000
0010
0001
0010
1000
0100
0010
0001
,
1000
0100
1000
1100
0000
1000
0010
1010
,
0000
1000
0100
1100
0000
1000
0010
1010
,
1000
0100
0010
0001
1000
0010
0001
0010
,
1000
0100
0001
1000
0010
0001
1000
0100
,
0010
0000
0000
0011
0000
1001
0000
0000
1000
0000
0010
0100
0001
0010
0100
1000
,
0000
1100
0000
0001
1001
0000
1000
0010
0100
0001
0010
0100
1000
0010
0001
0010
,
1000
0000
0000
1100
0000
1001
0000
0000
0001
0010
1000
0010
0001
1000
0010
0100
,
0000
0101
0000
0001
1000
0000
0001
0010
0100
1000
0100
1000
0001
0100
0001
0100
,
0110
0000
0000
0000
;
#NOTEDATA:;
#STEPSTYPE:dance-double;
#DIFFICULTY:Easy;
#METER:9;
#NOTES:
00000000
00000000
00000000
00000000
,
00000000
00000000
00000000
00000000
,
00000000
00000000
00000000
00000000
,
00000000
00000000
00000000
00000000
,
00001000
00000000
00010000
00000000
,
00001000
00000000
00100000
00010000
,
01000000
00000000
00100000
00000000
,
01000000
00000000
00010000
10000000
,
00010000
00000000
10000000
00000000
,
01000000
00000000
00100000
00000000
,
00010000
00100000
00010000
00000000
,
00100000
00001000
00100000
00000000
,
00001000
00000000
00010000
00000000
,
00000100
00000000
00001000
00000010
,
00001000
00000000
00000001
00000000
,
00000100
00000000
00000001
00000010
,
00000001
00000000
00001000
00000000
,
00000100
00000000
00010000
00000000
,
00001000
00010000
00001000
00000000
,
01000000
00000000
00010000
00000000
,
10000000
00000000
01000000
00000000
,
00100000
00000000
00010000
00000000
,
01000000
00100000
01000000
00000000
,
00010000
01000000
00010000
00000000
,
02000000
00000000
00000000
03000000
,
00002000
00000000
00000000
00003000
,
00020000
00000000
00000000
00030000
,
00000020
00000000
00000000
00000030
,
00001000
00000010
00000100
00000000
,
00000001
00000000
00001000
00000000
,
00000100
00000010
00000001
00000000
,
00001000
00000000
00000100
00000000
,
00010000
00001000
00010000
00000000
,
00001000
01000000
00001000
00000000
,
01000000
00010000
01000000
00000000
,
00100000
00000000
00000000
00000000
,
20020000
00000000
00000000
00000000
,
00000000
00000000
00000000
00000000
,
00000000
00000000
00000000
00000000
,
00000000
00000000
00000000
00000000
,
30030000
00000000
00000000
00000000
,
00000000
00000000
00000000
00000000
,
00000000
00000000
00000000
00000000
,
00000000
00000000
00000000
00000000
,
10000000
00000000
00100000
00000000
,
10000000
01000000
00100000
00000000
,
00010000
00000000
00100000
00000000
,
00001000
00000000
00010000
00000000
,
00000100
00000000
00001000
00000000
,
00000010
00000100
00000001
00000000
,
00000010
00000001
00001000
00000000
,
00000010
00000000
00000100
00000000
,
00000001
00000000
00000000
00000000
,
00001000
00000000
00000100
00000000
,
00010000
00000000
00000000
00000000
,
00011000
00000000
00000000
00000000
,
00001000
00000000
01000000
00000000
,
00010000
00000000
01000000
00000000
,
00100000
00000000
00000000
00000000
,
01100000
00000000
00000000
00000000
,
10000000
00000000
00100000
00000000
,
01000000
00000000
00010000
00000000
,
10000000
00000000
00000000
00000000
,
10000000
00010000
10000000
00000000
,
01000000
00000000
00010000
00000000
,
00001000
00000000
00000010
00000000
,
00000001
00000000
00001000
00000001
,
00001000
00000000
00000010
00000000
,
00000110
00000000
00000000
00000000
,
00001001
00000000
00000000
00000000
,
00000000
00000000
00000001
00001000
,
00000100
00001000
00000100
00000000
,
00010000
00000000
00000000
00000000
,
00011000
00000000
00000000
00000000
,
00001000
01000000
00010000
00000000
,
01000000
00100000
01000000
00000000
,
00100000
00000000
00000000
00000000
,
01100000
00000000
10010000
00000000
,
00000000
00000000
10000000
01000000
,
10000000
00010000
00100000
00000000
,
00001000
00000000
00000000
00000000
,
00011000
00000000
00010000
00002000
,
00000000
00000000
00000000
00000000
,
00000000
00000000
00000000
00003000
,
00010000
00000000
00000000
00000000
,
00010000
00000000
00000000
00000000
,
00001000
00000000
00000000
00000000
,
00000000
00000000
00000000
00000000
,
00001000
00000000
00000000
00000000
,
00010000
00000000
00000000
00000000
,
00000100
00000000
00000000
00000000
,
00000000
00000000
00000000
00000000
,
00000100
00000000
00000010
00000000
,
00000001
00000000
00000000
00000000
,
00000100
00000000
00000010
00000000
,
00001000
00000000
00000000
00000000
,
00000010
00000000
00010000
00000000
,
00001000
00000000
00000000
00000000
,
00010000
00000000
00001000
00000000
,
01000000
00000000
00000000
00000000
,
00010000
01000000
00100000
00000000
,
10000000
00000000
00010000
00000000
,
10000000
01000000
00100000
00000000
,
00001000
00000000
00010000
00000000
,
00002000
00000000
00000000
00000000
,
00000000
00000000
00000000
00000000
,
00000000
00000000
00000000
00000000
,
00000000
00000000
00003000
00000000
,
00001000
00000000
00000000
00000000
,
00010000
00000000
00000000
00000000
,
00001000
00000000
00010000
00000000
,
00000100
00000000
00000000
00000000
,
00000010
00000000
00000000
00000000
,
00000100
00000000
00000000
00000000
,
00000010
00000000
00000001
00000000
,
00000100
00000000
00000000
00000000
,
00000001
00000000
00001000
00000000
,
00000100
00000000
00000000
00000000
,
00010000
00000000
00001000
00000000
,
00010000
00000000
00000000
00000000
,
00001000
00000000
01000000
00000000
,
00010000
00000000
01000000
00000000
,
00100000
00000000
10000000
00000000
,
00100000
00000000
00000000
00000000
,
20000000
00000000
00000000
00000000
,
00000000
00000000
30000000
00000000
,
00020000
00000000
00000000
00000000
,
00000000
00000000
00030000
00000000
,
10000000
00000000
00100000
00000000
,
01000000
00000000
00000000
00000000
,
00010000
00000000
01000000
00000000
,
00001000
00000000
00000000
00000000
,
00010000
00001000
00010000
00001000
,
00010000
00000100
00001000
00000000
,
00000100
00000010
00000100
00000010
,
00000001
00001000
00000001
00000000
,
00001000
00000100
00001000
00000100
,
00010000
00001000
00010000
00000000
,
00001000
00100000
00010000
00100000
,
00001000
00100000
00010000
00000000
,
02000000
00000000
00000000
00000000
,
00000000
00000000
03000000
00000000
,
01000000
00100000
01000000
00000000
,
00010000
00000000
00000000
00000000
,
00200000
00000000
00000000
00000000
,
00000000
00000000
00300000
00000000
,
00100000
00001000
00010000
00000000
,
00001000
00000000
00000000
00000000
,
00011000
00000000
00000000
00000000
;
#NOTEDATA:;
#STEPSTYPE:dance-double;
#DIFFICULTY:Medium;
#METER:14;
#BPMS:0=308,432=154,464=308,528=154;
#NOTES:
00000000
00000000
00000000
00000000
,
00000000
00000000
00000000
00000000
,
00000000
00000000
00000000
00000000
,
00000000
00000000
00000000
00000000
,
00010000
00001000
00010000
00000100
,
00001000
00000000
00000100
00000000
00000010
00000001
00000010
00000000
,
00000001
00001000
00000010
00001000
,
00000100
00000000
00010000
00000000
00001000
00010000
00001000
00000000
,
01000000
00010000
00100000
00010000
,
10000000
00000000
00100000
00000000
01000000
00100000
01000000
00000000
,
00010000
10000000
01000000
00100000
,
00010000
00000000
00100000
00000000
00001000
00010000
00001000
00000000
,
00010000
00000100
00001000
00000010
,
00000100
00000000
00000001
00000000
00001000
00000001
00001000
00000000
,
00000010
00000100
00000000
00000010
00000100
00000000
00000001
00001000
,
00000001
00000100
00000010
00001000
,
00010000
01000000
10000000
01000000
,
00010000
10000000
01000000
00100000
,
00010000
00100000
00010000
00000000
01000000
00000000
00001000
00000000
,
00010000
00001000
00010000
00000000
00000100
00000000
00001000
00000000
,
00000010
00000000
00000100
00000001
00000000
00000100
00000001
00000000
,
00001000
00000010
00001000
00000000
00000010
00000000
00010000
00000000
,
00001000
00010000
00001000
00000000
01000000
00000000
00010000
00000000
,
00100000
01000000
00100000
00000000
00010000
00000000
10000000
00000000
,
01000000
00010000
00001000
00010000
,
00100000
00010000
00001000
00010000
,
00000010
00000000
00001000
00000000
00000100
00000010
00000100
00000000
,
00000010
00000000
00000001
00000000
00001000
00000001
00001000
00000000
,
00000001
00000000
00000100
00000010
00000100
00000000
00000010
00001000
,
00000010
00010000
00001000
01000000
,
00010000
00000000
00100000
00010000
00100000
00000000
01000000
00100000
,
01000000
10000000
00100000
10000000
,
01000000
00000000
00100000
00000000
00010000
00100000
00010000
00000000
,
00100000
00001000
00100000
00000000
00001000
00010000
00001000
00000000
,
00010000
00000100
00010000
00000100
00001000
00000000
00000010
00001000
,
00000010
00001000
00000001
00000000
00001000
00000100
00000010
00000000
,
00000002
00000000
00000000
00000000
,
00000000
00000000
00000000
00000000
,
00000000
00000000
00000000
00000000
,
00000000
00000000
00000000
00000000
,
00000003
00000000
00000000
00000000
,
00000000
00000000
00000000
00000000
,
00000000
00000000
00000000
00000000
,
00000000
00000000
00000000
00000000
,
00000001
00000100
00001000
00010000
,
00001000
00010000
00001000
00000000
00010000
00000000
00100000
00000000
,
01000000
00100000
01000000
00000000
00100000
10000000
00000000
10000000
,
00010000
00000000
00100000
00000000
01000000
00100000
01000000
00000000
,
10000000
00000000
01000000
00100000
00010000
00100000
01000000
00000000
,
10000000
01000000
00010000
00001000
,
00000010
00000001
00000010
00000000
00000001
00001000
00000000
00000001
,
00001000
00000000
00000010
00000100
00000001
00000000
00000000
00000000
,
00000101
00000000
00000000
00001001
00000000
00000000
00001100
00000000
,
00000000
00010100
00000000
00000000
00022000
00000000
00000000
00000000
,
00033000
00000000
00001000
00000000
01000000
00010000
00000000
01000000
,
00100000
01000000
00000000
00100000
10000000
00000000
00010000
10000000
,
00010000
00000000
00000000
00110000
00000000
00000000
00101000
00000000
,
00000000
00011000
00000000
00000000
00020020
00000000
00000000
00000000
,
00030030
00000000
00010000
00000000
00000010
00001000
00000010
00001000
,
00000010
00000000
00000100
00000010
00000100
00000000
00000001
00000000
,
00000011
00000000
00000000
00001001
00000000
00000000
00001010
00000000
,
00000000
00010010
00000000
00000000
00022000
00000000
00000000
00000000
,
00033000
00000000
00001000
00000000
00100000
00010000
00000000
01000000
,
00010000
00100000
00010000
00000000
10000000
00100000
10000000
00100000
,
00000000
00000000
00000000
10100000
00000000
00000000
10010000
00000000
,
00010000
01000000
00000000
00001000
00010000
00000000
00000000
00001000
,
00010000
00000000
00000100
00001000
00000100
00000000
00000010
00000001
,
00000010
00000000
00000001
00000000
00001000
00000001
00001000
00000000
,
00000001
00000100
00000000
00000100
00001000
00000000
00001000
00010000
,
00000000
00010000
00001000
00000000
00020000
00000000
00000000
00000000
,
00030000
00000000
00001000
00000000
00100000
00010000
00100000
00000000
,
00010000
01000000
00010000
00000000
01000000
00100000
01000000
00000000
,
00200000
00000000
00000000
00000000
10300000
00010000
10000000
00000000
,
01000000
00100000
00010000
00000000
00100000
00001000
00010000
00000000
,
00001000
00010000
00001000
00010000
00000100
00001000
00000100
00000000
,
00000010
00000100
00000010
00000100
00001000
00000001
00001000
00000000
,
00000001
00000100
00000000
00000010
00001000
00000000
00000100
00010000
,
00000000
00001000
00010000
00000000
00002000
00000000
00000000
00000000
,
00000000
00000000
00000000
00000000
00003000
00000000
00010000
00001000
,
01000000
00000000
00010000
01000000
00100000
00000000
10000000
00100000
,
10000000
00000000
00000000
10000000
01000000
00000000
00100000
00010000
,
00100000
00000000
00001000
00000000
00010000
00001000
00010000
00002000
,
00000000
00000000
00000000
00000000
,
00000000
00000000
00000000
00003000
,
00020000
00000000
00000000
00000000
,
00000000
00000000
00030000
00000000
,
00002000
00000000
00000000
00000000
,
00000000
00000000
00003000
00000000
,
00000020
00000000
00000000
00000000
,
00000000
00000000
00000030
00000000
,
00000002
00000000
00000000
00000000
,
00000000
00000000
00000003
00000000
,
00000001
00000000
00001000
00000000
00000100
00000000
00000010
00000001
,
00000000
00000001
00001000
00000000
,
00000100
00000000
00010000
00000000
00001000
00000000
00010000
00001000
,
00000000
00001000
01000000
00000000
,
00010000
00000000
00100000
00000000
00010000
00000000
01000000
00100000
,
00000000
10000000
00100000
00000000
,
10000000
00000000
01000000
00000000
00010000
00000000
01000000
00100000
,
00000000
00010000
10000000
00000000
,
10000000
01000000
00100000
00000000
00010000
00000000
10000000
00010000
,
10000000
00100000
00010000
00001000
,
00010000
00001000
00000000
00010000
00000100
00000000
00001000
00000100
,
00000000
00000010
00000100
00000000
00000010
00000000
00000001
00000000
,
00002000
00000000
00000000
00000000
,
00000000
00000000
00000000
00000000
,
00000000
00000000
00000000
00000000
,
00000000
00000000
00003000
00000000
,
00001001
00000000
00000000
00000001
00000010
00000000
00000100
00000000
00001000
00000000
00000000
00001000
00000100
00000000
00010000
00000000
,
00000000
00000000
00010000
00000000
00001000
00000000
00010000
00000000
01000000
00000000
00000000
10000000
00000000
00000000
00010000
10000000
,
00010000
00000000
10000000
00100000
01000000
00000000
00010000
10000000
,
00000000
00000000
10000000
00000000
01000000
00100000
01000000
00000000
00100000
00000000
00001000
00000000
00010000
00000000
00000000
00000000
,
00001000
00000000
00010000
00000010
00000000
00010000
00000010
00000000
00001000
00000010
00000000
00001000
00000010
00000000
00000100
00000001
,
00000000
00000100
00000001
00000000
00001000
00000100
00000000
00001000
00000100
00000000
00010000
00001000
00010000
00000000
00001000
00000000
,
00010000
00010000
00100000
00100000
10000000
10000000
01000000
01000000
,
00010000
00000000
00001000
00000000
00000010
00000000
00000001
00000000
00000100
00000000
00001000
00000000
00010000
00001000
00010000
00001000
,
00020000
00000000
00000000
00000000
,
00000000
00030000
00001000
00200000
,
00000000
00000000
00000000
00000000
00300000
00000000
00010000
10000000
,
00010000
01000000
00100000
10000000
,
01000000
00100000
01000000
00000000
00010000
00000000
00001000
00000000
,
00010000
00001000
00010000
00000000
00000010
00000000
00000100
00000000
,
00000010
00000100
00000010
00000000
00001000
00000000
00000001
00000000
,
00000010
00000100
00000010
00000000
00000001
00000000
00001000
00000000
,
00000100
00000000
00001000
00000100
00010000
00000000
00001000
00010000
,
00001000
00000000
00100000
00010000
00100000
00000000
01000000
00000000
,
10000000
00000000
00100000
01000000
00010000
00000000
01000000
00001000
,
00010000
00000000
00001000
00010000
00000010
00000000
00001000
00000000
,
00000001
00000000
00000100
00001000
00000000
00000000
00001000
00010000
,
00000000
00000000
00010000
00100000
00000000
00000000
00100000
10000000
,
00100000
01000000
00001000
00010000
,
00000010
00000000
00001000
00000000
00000001
00000100
00000001
00000000
,
00002000
00000000
00000000
00003000
,
00000001
00000100
00000000
00000001
00000100
00000000
00000000
00000000
00000010
00001000
00000010
00000000
00010000
00001000
00010000
00000000
,
00002000
00000000
00000000
00003000
,
00001000
01000000
00000000
00001000
01000000
00000000
00000000
00000000
00010000
01000000
00100000
00000000
01000000
00100000
10000000
00010000
,
10000000
00000000
00000000
00000000
;
#NOTEDATA:;
#STEPSTYPE:dance-double;
#DIFFICULTY:Hard;
#METER:18;
#BPMS:0=308,432=154,464=308,528=154;
#NOTES:
00000000
00000000
00000000
00000000
,
00000000
00000000
00000000
00000000
,
00000000
00000000
00000000
00000000
,
00000000
00000000
00000000
00000000
,
00010000
00001000
00010000
00000100
00001000
00000100
00000010
00000001
,
00000100
00001000
00000100
00000001
00000010
00000100
00001000
00000001
,
00000100
00000010
00001000
00000100
00010000
00001000
00100000
00010000
,
01000000
00010000
00100000
10000000
00100000
00010000
10000000
01000000
,
00100000
00001000
00010000
00001000
01000000
00010000
00100000
01000000
,
00010000
01000000
00100000
00001000
00010000
00100000
01000000
00100000
,
00010000
00001000
00000100
00000010
00010000
00000100
00001000
00000010
,
00000100
00001000
00000100
00000010
00001000
00000100
00000010
00000000
,
00000001
00000100
00000001
00000010
00000100
00001000
00000010
00001000
,
00000100
00010000
00001000
00100000
00010000
01000000
00010000
00100000
,
01000000
10000000
00000000
10000000
00010000
00000000
10000000
01000000
,
00010000
00001000
00100000
01000000
00010000
00001000
00010000
00000000
,
01000000
00010000
00001000
00000010
00000001
00001000
00000100
00000010
,
00000001
00000100
00000010
00001000
00000010
00000100
00000001
00001000
,
00000100
00000010
00000100
00000010
00000001
00001000
00000001
00001000
,
00000100
00001000
00000100
00001000
00000100
00010000
00000100
00010000
,
00001000
00000000
00010000
00100000
00000000
00010000
00001000
00000000
,
00000010
00001000
00010000
00000000
01000000
10000000
00100000
01000000
,
00010000
10000000
01000000
00010000
00001000
00000010
00000001
00000000
,
00000001
00000100
00001000
00010000
00100000
10000000
00010000
00000000
,
10000000
00100000
10000000
00100000
00010000
00100000
10000000
01000000
,
10000000
01000000
00010000
01000000
10000000
00010000
00100000
00001000
,
00010000
00000100
00001000
00000100
00000010
00000100
00000001
00000100
,
00000010
00000100
00001000
00000001
00000100
00000010
00001000
00000000
,
00000001
00001000
00000010
00000100
00000001
00001000
00000100
00000010
,
00000001
00001000
00000010
00010000
00001000
01000000
00010000
00100000
,
00000000
00000000
00010000
01000000
10000000
00010000
00100000
10000000
,
01000000
00010000
10000000
00100000
00010000
10000000
00010000
00000000
,
10000000
00000000
01000000
00000000
00010000
00000010
00010000
00000100
,
00010000
00000010
00010000
00001000
00010000
00000010
00010000
00000100
,
00010000
00000010
00001000
00000100
00000010
00001000
00000010
00000100
,
00010000
00001000
00100000
00010000
01000000
00100000
00010000
00100000
,
02000000
00000000
00000000
00000000
,
00000000
00000000
00000000
00000000
,
00000000
00000000
00000000
00000000
,
00000000
00000000
00000000
00000000
,
00000000
00000000
00000000
00000000
,
00000000
00000000
00000000
00000000
,
00000000
00000000
00000000
00000000
,
00000000
00000000
03000000
00000000
,
01000000
01100000
00100000
01100000
,
10000000
00100000
00010000
00000000
00001000
00000100
00000001
00000000
,
00000100
00000110
00000010
00000110
,
00000001
00000010
00001000
00000000
00010000
01000000
10000000
00000000
,
00010000
00100000
01000000
10000000
00010000
01000000
00100000
00000000
,
01000000
00010000
00100000
00001000
00010000
00000100
00010000
00000000
,
00000100
00010000
00001000
00000000
00010000
00000100
00000000
00000100
,
00001000
00000010
00000100
00000010
00001000
00000100
00000010
00000001
,
00000100
00000010
00001000
00000010
00000100
00000010
00001000
00000000
,
00000100
00010000
00000000
00010000
00002000
00000000
00003000
00010000
,
00002000
00000000
00000000
00000000
00013000
00001000
00100000
00010000
,
01000000
00100000
10000000
01000000
00100000
00010000
01000000
00100000
,
10000000
00000000
00000000
11000000
00000000
00000000
01010000
00000000
,
00000000
00011000
00000000
00000000
00001010
00000000
00000010
00000100
,
00000010
00000100
00000010
00000100
00000010
00000010
00000100
00000010
,
00000100
00000100
00000010
00000100
00000010
00000000
00000110
00000000
,
00000110
00000000
00000000
00001001
00000000
00000000
00001010
00000000
,
00000000
00011000
00000000
00000000
01010000
00000000
00000000
02200000
,
00000000
00000000
03300000
00000000
10000000
01000000
00100000
00010000
,
10000000
01000000
00010000
00001000
00000010
00000001
00001000
00000200
,
00000000
00000000
00000000
00001300
00000010
00000100
00000001
00000010
,
00000100
00001000
00000010
00000100
00002000
00000000
00013000
00001000
,
00100000
00010000
00100000
00010000
10000000
01000000
10000000
01000000
,
00010000
01000000
10000000
00010000
01000000
10000000
01000000
00010000
,
10000000
01000000
00000000
01000000
00010000
00000000
00010000
00001000
,
00000000
00001000
00010000
00000000
00022000
00000000
00000000
00000000
,
00000000
00000000
00000000
00000000
00033000
00000000
00001000
00010000
,
00000010
00000100
00000010
00001000
00000100
00000010
00000100
00000000
,
00002000
00000000
00000000
00000000
00003001
00000100
00000010
00001000
,
00010000
01000000
00100000
10000000
01000000
00100000
00010000
10000000
,
01000000
00010000
01000000
00010000
00001000
00000010
00001000
00000010
,
00000000
00000010
00000001
00001000
00000100
00010000
00001000
00100000
,
00010000
01000000
00000000
01000000
00100000
00000000
10000000
01000000
,
00000000
01000000
00100000
00000000
02200000
00000000
00000000
00000000
,
00000000
00000000
00000000
00000000
03300000
00000000
10000000
00010000
,
01000000
00100000
00010000
00100000
01000000
00001000
00010000
00001000
,
00000000
00000000
00001000
00010000
00000100
00001000
00000010
00000100
,
00000010
00000001
00000010
00001000
00000010
00010000
00001000
00020000
,
00000000
00000000
00000000
00000000
,
00000000
00000000
00000000
00030000
,
00002000
00000000
00000000
00000000
,
00000000
00000000
00003000
00000000
,
02000000
00000000
00000000
00000000
,
00000000
00000000
03000000
00000000
,
00020000
00000000
00000000
00000000
,
00000000
00000000
00030000
00000000
,
20000000
00000000
00000000
00000000
,
00000000
00000000
30000000
00000000
,
10000000
00000000
00100000
00000000
01000000
00000000
00010000
01000000
,
00010000
01000000
00010000
00000000
00100000
00000000
00000000
00000000
,
00100000
00000000
00001000
00000000
00010000
00000000
00000100
00010000
,
00000100
00010000
00000100
00000000
00001000
00000000
00000000
00000000
,
00001000
00000000
00000010
00000000
00000100
00000000
00000001
00000100
,
00000001
00000100
00000001
00000000
00001000
00000000
00000000
00000000
,
00000001
00000000
00000010
00000000
00000100
00000000
00001000
00000100
,
00001000
00000100
00001000
00000000
00000001
00000000
00000000
00000000
,
00001000
00000010
00001000
00000010
00001000
00000000
00000100
00010000
,
00001000
00010000
00000100
00010000
00001000
00010000
00001000
00000000
,
00100000
00010000
01000000
00100000
10000000
01000000
00100000
00010000
,
10000000
01000000
10000000
00010000
00100000
01000000
10000000
00000000
,
00010000
10000000
01000000
00010000
00001000
00000010
00000001
00001000
,
00000010
00000100
00000001
00000100
00001000
00010000
00100000
10000000
,
00010000
00100000
01000000
00010000
00001000
00000010
00000100
00001000
,
00000010
00000100
00001000
00010000
00100000
01000000
00010000
00100000
,
00002000
00000000
00000000
00013000
00000100
00001000
00000010
00000100
00000002
00000000
00000000
00000013
00000100
00001000
00000100
00000000
,
00000000
00000000
00010100
00000000
00010000
00000000
00001000
00000000
00011000
00000000
00000000
01001000
00000000
00000000
01000000
00010000
,
00100000
00000000
01100000
01000000
11000000
10000000
00010000
10010000
,
00000000
00000000
10000000
00100000
01000000
00010000
00100000
01000000
10000000
01000000
00010000
00001000
00000010
00000001
00001000
00000000
,
00000001
00000100
00000001
00000010
00000001
00000100
00000010
00001000
00000100
00010000
00001000
00000010
00000100
00010000
00001000
00000010
,
00000100
00010000
00001000
00010000
00001000
01000000
00010000
00100000
00010000
01000000
00100000
10000000
01000000
00010000
01000000
00000000
,
10000000
00100000
01000000
00100000
00010000
00001000
00100000
01000000
00010000
00001000
00100000
01000000
00010000
00001000
00100000
00001000
,
00010000
00000100
00010000
00000010
00001000
00000000
00001000
00000010
00010000
00000100
00000000
00000100
00001000
00000010
00000100
00000001
,
00002000
00000000
00000000
00000000
,
00000000
00003000
00000100
00000220
,
00000000
00000000
00000000
00000000
00000330
00000000
00000001
00000010
,
00000100
00001000
00000100
00010000
00001000
00010000
00001000
01000000
,
00010000
00100000
01000000
10000000
00100000
01000000
00010000
00000000
,
10000000
00100000
01000000
00010000
00100000
00001000
00010000
00000000
,
00001000
00010000
00000010
00000000
00001000
00000010
00000100
00000000
,
00000001
00000100
00001000
00000100
00000010
00000100
00000010
00000000
,
00000100
00000010
00001000
00000010
00010000
00001000
01000000
00010000
,
00100000
01000000
00100000
00010000
10000000
01000000
00100000
00000000
,
00010000
10000000
01000000
00100000
01000000
00010000
00001000
00000010
,
00000100
00000010
00000001
00001000
00000100
00000010
00000001
00000000
,
00001000
00000001
00000100
00001000
00000000
00010000
00100000
10000000
,
00000000
10000000
01000000
00010000
00000000
00001000
00000010
00000001
,
00001000
00000100
00001000
00000100
00010000
00001000
00010000
00001000
,
00100000
00010000
00100000
00010000
01000000
00100000
01000000
00100000
,
10000000
00000000
00000000
10100000
00000000
10010000
00000000
00000000
00010000
00000000
00100000
01000000
10000000
00010000
10000000
00010000
,
00000000
01010000
00000000
01000000
00001000
00000000
00010000
00001000
00010000
00000100
00001000
00000010
00000100
00000010
00001000
00000001
,
00000010
00000000
00000000
00000011
00000000
00001001
00000000
00000000
00000001
00000100
00000010
00001000
00000100
00010000
00001000
00010000
,
00000000
00011000
00000000
00001000
00100000
00000000
00010000
01000000
00010000
00100000
01000000
10000000
00100000
01000000
00100000
01000000
,
00100000
00000000
00000000
00000000
;
