
//----- song ID: espr -----//
#TITLE:ESPRIT ONE;
#ARTIST:SOUND HOLIC feat. STEVIE(44MAGNUM);
#BANNER:ESPRIT ONE.png;
#BACKGROUND:ESPRIT ONE-bg.png;
#CDTITLE:./CDTitles/DDR WORLD.png;
#MUSIC:ESPRIT ONE.ogg;
#SAMPLESTART:50.118;
#SAMPLELENGTH:15;
#BPMS:0=170;
#BGSTAGE:17;
#NOTES:
     dance-single:
     :
     Beginner:
     3:
     :
0000
0000
0000
0000
,
0000
0000
0000
0000
,
0000
0000
0000
0000
,
0000
0000
0000
0000
,
0000
0000
0000
0000
,
0000
0000
0000
0000
,
0001
0000
0000
0000
,
0001
0000
0000
0000
,
0010
0000
0000
0000
,
0000
0000
0000
0000
,
0010
0000
0000
0000
,
0010
0000
0000
0000
,
1000
0000
0000
0000
,
0000
0000
0000
0000
,
0010
0000
0000
0000
,
0010
0000
0000
0000
,
0001
0000
0000
0000
,
0000
0000
0000
0000
,
0000
0000
0001
0000
,
0000
0000
0010
0000
,
0000
0000
0001
0000
,
0000
0000
0000
0000
,
0000
0000
0001
0000
,
0000
0000
0001
0000
,
0000
0000
0010
0000
,
0000
0000
0000
0000
,
0000
0000
1000
0000
,
0000
0000
0010
0000
,
0000
0000
1000
0000
,
0000
0000
0000
0000
,
0000
0000
1000
0000
,
0000
0000
1000
0000
,
0000
0000
0010
0000
,
0000
0000
0000
0000
,
0000
0000
0020
0000
,
0000
0000
0030
0000
,
0000
0000
0001
0000
,
0001
0000
0100
0000
,
0000
0000
0001
0000
,
0000
0000
0000
0000
,
0000
0000
0001
0000
,
0000
0000
0010
0000
,
0000
0000
1000
0000
,
0000
0000
0000
0000
,
0000
0000
1000
0000
,
1000
0000
0100
0000
,
0000
0000
1000
0000
,
0000
0000
0000
0000
,
0000
0000
1000
0000
,
0000
0000
0010
0000
,
0000
0000
0001
0000
,
0000
0000
0000
0000
,
0000
0000
1001
0000
,
0000
0000
0000
0000
,
0000
0000
0002
0000
,
0000
0000
0003
0000
,
0000
0000
2000
0000
,
0000
0000
3000
0000
,
0000
0000
0001
0000
,
0001
0000
0010
0000
,
0000
0000
0010
0000
,
0010
0000
1000
0000
,
0000
0000
1001
0000
,
0000
0000
0000
0000
,
0000
0000
1000
0000
,
0000
0000
0100
0000
,
0000
0000
0010
0000
,
0000
0000
0000
0000
,
0000
0000
0010
0000
,
0010
0000
0001
0000
,
0000
0000
0001
0000
,
0000
0000
0010
0000
,
0000
0000
1000
0000
,
0000
0000
0000
0000
,
0000
0000
1000
0000
,
0000
0000
0010
0000
,
0000
0000
0001
0000
,
0000
0000
0000
0000
,
0000
0000
0100
0000
,
0000
0000
0010
0000
,
0000
0000
1001
0000
,
0000
0000
0000
0000
,
0000
0000
1000
0000
,
0000
0000
0010
0000
,
0000
0000
0001
0000
,
0000
0000
0001
0000
,
0000
1001
0000
0000
,
0000
0000
0000
0000
;
#NOTES:
     dance-single:
     :
     Easy:
     7:
     :
0000
0000
0000
0000
,
0000
0000
0000
0000
,
0000
0000
0000
0000
,
0000
0000
0000
0000
,
0000
0000
0000
0000
,
0000
0000
0000
0000
,
1000
1000
0010
0000
,
0010
0010
0100
0000
,
0001
0001
0010
0000
,
0010
0010
0100
0000
,
1000
0100
1000
0100
,
0010
0001
1000
0000
,
0001
0100
0001
0100
,
0010
1000
0001
0000
,
1000
0010
1000
0010
,
0100
0001
1000
0000
,
0001
0010
0001
0010
,
0100
1000
0001
0000
,
2000
3000
1000
1000
,
0100
0100
0010
0010
,
0001
0001
1000
0010
,
0100
0010
1000
0010
,
0100
0000
0001
0001
,
0010
0010
0100
0100
,
1000
1000
0001
0010
,
0100
0010
0001
0010
,
0100
0000
1000
0001
,
0100
0001
0010
0001
,
1000
0001
1000
0010
,
0020
0030
1000
0010
,
0020
0030
1000
0001
,
1000
0001
0100
0010
,
0100
0010
1000
0100
,
0010
0001
1000
0100
,
0010
0001
1000
1000
,
0010
0010
0200
0000
,
0000
0300
0001
0100
,
0010
1000
0001
0010
,
0100
1000
0001
0010
,
0001
0010
0100
1000
,
0010
1000
0100
0100
,
0010
0010
0001
1000
,
0001
0100
0010
1000
,
0010
0100
0002
1000
,
1003
0000
1000
0010
,
0100
0001
1000
0100
,
0010
0001
1000
0100
,
1000
0100
0010
0001
,
0100
0001
0010
0010
,
0100
0100
1000
0001
,
1000
0010
0100
0001
,
1000
0010
0100
0001
,
0100
0010
1000
1000
,
0001
0001
2002
0000
,
0000
3003
0001
1000
,
0010
1000
0001
0010
,
0001
1000
0100
1000
,
0001
0100
0000
0100
,
0110
0000
0001
0100
,
0010
1000
0001
1000
,
0100
0010
0001
0100
,
0010
1000
0020
0000
,
0000
0030
1001
0000
,
0000
0000
0110
0000
,
0000
0000
1000
0100
,
0010
0001
2000
0000
,
0000
3000
1000
0001
,
1000
0001
0100
0010
,
0100
0010
1000
0010
,
0100
0001
1000
0100
,
1000
0000
1000
0100
,
0010
0001
0100
0001
,
0010
0100
1000
0010
,
0100
0010
1000
0100
,
0010
0100
1000
0001
,
0010
0001
1000
0001
,
0100
0001
0010
0100
,
1000
0010
0100
0100
,
0001
0001
1000
0100
,
0010
0001
1000
1000
,
0001
0001
0000
0001
,
0100
0001
0010
0100
,
1000
0001
0100
0100
,
0010
0010
1000
0001
,
1000
0000
1000
0001
,
0100
0010
1000
1000
,
0001
1001
0000
0000
,
0000
0000
0000
0000
;
#NOTES:
     dance-single:
     :
     Medium:
     13:
     :
0000
0000
0000
0000
,
0000
0000
0000
0000
,
0000
0000
0000
0000
,
0000
0000
0000
0000
,
0000
0000
0000
0000
,
0000
0000
0000
0000
,
0001
0100
0010
0000
1000
0100
0010
0000
,
0001
0010
0100
0000
1000
0010
0100
0000
,
0001
0100
0001
0100
0010
1000
0010
1000
,
0001
1000
0001
1000
0100
0010
0000
0110
,
0000
1000
0100
0010
0001
0100
0010
1000
,
0001
0100
1000
0100
0001
0100
1000
0100
,
0000
0100
0010
1000
0100
1000
0010
0100
,
0001
0010
0100
1000
0001
0001
0000
1000
,
0000
1000
0010
0100
0010
1000
0100
0010
,
0001
0100
0010
1000
0100
1000
0010
0100
,
0000
0100
0001
0010
0001
0100
0010
1000
,
0100
0000
0010
0000
0001
0000
0100
0000
0010
0000
1000
0001
1000
0000
0000
0000
,
0020
0000
0130
0000
0001
0100
0001
0100
,
1000
0100
1000
0100
0001
0100
1000
0100
,
0010
0100
0001
0000
1000
0100
0010
0001
,
1000
0010
0100
0001
1000
0100
0001
0100
,
2000
0000
3001
0000
1000
0010
1000
0010
,
0001
0010
0001
0010
1000
0010
0001
0010
,
0100
0010
1000
0000
0001
0010
0100
1000
,
0001
0100
0010
1000
0001
0010
1000
0010
,
0002
0000
1003
0000
0001
0001
0100
0010
,
1000
1000
0100
0010
0001
1000
0010
0100
,
1000
0100
0010
0000
1000
0100
0002
0103
,
0020
0130
1000
0000
0001
0100
2000
3100
,
0020
0130
0002
0000
1003
1000
0010
0100
,
0001
0001
0010
0100
1000
0001
0100
0010
,
0001
0010
0100
0000
0001
0010
1000
0010
,
0001
0010
0100
1000
0000
1010
0000
0101
,
0000
0100
0001
1000
0100
0010
0100
0010
,
0001
1000
0001
1000
0002
0000
0203
0000
,
2300
0000
3100
0001
1000
0100
0010
0001
,
1000
0010
0100
0001
1000
0100
0001
0100
,
1000
0010
0001
0010
1000
0100
0010
0100
,
0010
0001
0010
0001
1000
0010
0001
1000
,
0100
0001
1000
0000
0001
0100
0100
0010
,
0100
0100
0001
1000
0100
1000
1000
0010
,
1000
1000
0100
0010
0001
0100
0010
1010
,
0000
1100
0000
1001
0000
1000
0100
0010
,
0001
1000
0001
0000
1000
0000
0000
0000
0001
0000
0010
0000
0100
0000
1000
0000
,
0001
0100
0010
1000
0001
0010
1000
0010
,
0001
0100
1000
0100
0001
0010
0100
0010
,
0100
1000
0100
1000
0001
0100
1000
0001
,
0010
1000
0001
0000
1000
0010
0010
0100
,
0010
0010
1000
0001
0010
0001
0001
0100
,
0001
0001
0010
0100
1000
0010
0100
0100
,
0001
0010
0001
0001
0000
0001
1000
0010
,
0100
0010
0100
0000
0001
0100
0010
1000
,
0000
1000
0001
0000
0000
0001
1000
0001
,
0100
0010
0100
0000
0010
0000
0000
0000
1000
0000
0001
0000
0010
0000
0100
0000
,
1000
0001
0010
0100
1000
0001
0010
0100
,
1000
0010
0100
0001
1000
0010
0100
0001
,
0000
0000
0001
0000
1000
0000
0001
0000
0000
0000
0010
0000
0000
0010
0000
0000
,
0020
0000
0030
0000
0001
0100
0001
0100
,
0010
1000
0010
1000
0100
1000
0100
1000
,
0001
0010
0001
0010
0001
0100
1000
0001
,
0010
1000
0001
0100
2000
0000
3200
0000
,
0302
0000
1003
0100
0020
0000
0000
0000
,
0030
0000
0010
0002
0000
0000
0000
0000
,
0003
0000
0001
2000
0000
0000
0000
0000
,
3000
0000
1000
0200
0000
0010
0000
0010
,
0000
0010
0010
0010
0300
0000
1001
0000
,
1000
0010
0100
0010
1000
0100
0010
0001
,
0100
0001
0010
0001
1000
0010
0100
0001
,
0000
0001
1000
0001
0000
1000
0010
0100
,
0001
0000
1000
0001
1000
0000
0000
0000
0001
0000
0100
0000
0010
0000
1000
0000
,
0100
1000
0010
1000
0100
0010
0001
0100
,
0010
0100
0001
1000
0100
0010
0100
0010
,
0001
1000
0001
1000
0001
0100
1000
0100
,
0001
1000
0100
0000
1000
0010
0100
0100
,
0001
0010
0100
0100
1000
0100
0010
0010
,
0001
0100
0010
0010
1000
0010
0010
0100
,
0100
0001
0001
1000
1000
0100
0010
0001
,
0100
0010
1000
0001
0100
1000
0100
0001
,
0000
0001
2000
0000
0000
3010
0100
0001
,
1000
0001
1000
0000
0001
0000
0010
0000
0000
0000
0010
0000
0001
0000
0100
0000
,
0010
1000
0100
0010
0001
0100
0001
0010
,
0100
1000
0010
1000
0000
1000
0001
0100
,
0010
1000
0001
0010
0100
1000
0010
1000
,
0100
0100
0000
0110
0000
0010
0001
0100
,
0010
1000
0100
0010
0001
0100
1000
0100
,
0001
1000
0001
0000
0000
0000
0000
0000
,
0000
0000
0000
0000
;
#NOTES:
     dance-single:
     :
     Hard:
     16:
     :
0000
0000
0000
0000
,
0000
0000
0000
0000
,
0000
0000
0000
0000
,
0000
0000
0000
0000
,
0000
0000
0000
0000
,
0000
0000
0000
0000
,
0010
0100
0010
0000
1001
0000
1001
0000
,
0010
0100
0010
0000
1001
0000
1001
0000
,
1000
0100
0010
0001
1000
0100
0010
0001
,
1000
0010
1000
0000
0001
0100
0001
0000
1000
0000
0010
0100
0010
0000
0100
0000
,
0000
0000
0100
0000
0001
0000
0010
0001
0010
0000
0001
0000
1000
0000
0010
0000
,
0100
0001
0100
0000
0001
1000
0001
0000
0100
0010
0100
0000
0001
0010
0001
0000
,
0100
0000
0001
0000
1000
0100
1000
0000
0010
0000
1000
0100
1000
0000
0100
0000
,
1000
0010
1000
0000
0001
1000
0001
1000
0001
0000
0001
0000
0000
0000
0001
0000
,
0010
0000
0100
0000
1000
0000
0100
0010
0100
0000
1000
0000
0001
0000
1000
0000
,
0001
0100
0001
0000
0100
0010
0100
0000
0010
0000
1000
0000
0001
0000
0100
0000
,
0010
0000
1000
0000
0010
0100
0010
0000
1000
0000
0010
0100
0010
0000
1000
0000
,
0001
0010
0001
0000
1000
0000
0010
0000
0100
0001
0100
0001
0100
0000
0000
0000
,
0002
0000
1000
0000
1003
0000
0000
0000
0001
0000
1000
0010
1000
0000
0100
0000
,
0010
0100
0010
0000
0100
0000
1000
0000
0001
0000
0100
0010
0100
0000
0010
1000
,
0010
0000
1000
0001
1000
0000
0100
0000
0010
0000
0001
0000
0100
0000
0001
0000
,
0010
0000
0100
0000
1000
0000
0010
0000
0100
0000
0001
0100
0001
0000
1000
0100
,
1000
0000
0001
0010
0001
0010
0001
0000
1000
0000
0001
0100
0001
0000
0010
0000
,
0100
0010
0100
0000
0010
0000
0001
0000
1000
0000
0010
0100
0010
0000
0100
0001
,
0100
0000
0001
1000
0001
0000
1000
0010
1000
0000
0100
0000
0010
0000
0001
0000
,
0010
0000
0100
0000
1000
0000
0001
0000
0100
0000
0010
0000
1000
0001
1000
0001
,
1000
0000
0000
0000
0110
0000
0000
0000
1000
0000
0100
0010
0001
0000
1000
0000
,
0100
0010
0001
0000
0100
0000
0010
1000
0010
0000
1000
0100
0010
0000
0001
1000
,
0001
0000
0100
0000
0010
0000
1000
0000
0001
0000
1000
0010
1000
0000
0001
0010
,
0002
0000
1000
0000
1003
0000
1000
0001
1000
0000
0001
0100
0001
0000
1000
0100
,
1000
0000
0001
0100
0001
0000
1000
0000
0100
0000
0010
0001
1000
0000
0100
0000
,
0010
0001
1000
0000
0010
1000
0010
0000
0100
0000
0001
0010
0001
0000
0010
0100
,
0010
0000
0100
1000
0100
0000
1000
0000
0002
0000
0000
0000
0103
0010
0100
0010
,
2000
0000
0000
0000
3100
0010
0001
0000
0000
0000
1000
0100
0010
0000
0100
0010
,
0001
0000
1000
0010
1000
0001
1000
0000
0001
0000
0100
0000
0010
0000
1000
0000
,
0001
0010
0001
0010
0100
1000
0100
1000
0002
0000
0000
0000
0203
0000
0000
0000
,
2300
0000
0000
0000
3100
0000
0001
0000
1000
0000
0100
0010
0001
0000
0100
0010
,
1000
0000
0100
0010
0001
0000
1000
0000
0001
0000
1000
0010
0100
0000
0001
0010
,
0100
0000
1000
0010
0100
0000
0001
0000
1000
0000
0001
0010
0001
0010
0001
0000
,
1000
0010
1000
0010
1000
0000
0001
0000
0100
0000
0010
1000
0100
0000
0010
0001
,
0100
0000
0010
1000
0100
1000
0100
0000
0010
0000
0001
1000
0001
0000
0100
0000
,
0001
1000
0001
0000
0010
0100
0010
0000
0100
0000
1000
0001
1000
0000
0010
0000
,
1000
0001
1000
0000
0100
0010
0100
0000
0010
0000
0001
1000
0001
0000
0100
0000
,
0000
0110
0000
1001
0000
0001
0100
0010
,
1000
0100
1000
0100
0010
0000
0000
0000
0001
0000
0010
0100
1000
0000
0010
0100
,
0001
0000
0010
0100
1000
0000
0001
0000
1000
0000
0001
0100
0010
0000
1000
0100
,
0010
0000
0001
0100
0010
0000
1000
0000
0001
0000
1000
0100
1000
0100
1000
0000
,
0001
0100
0001
0100
0001
0000
1000
0000
0010
0000
0100
0001
0010
0000
0100
1000
,
0010
0000
0100
0001
0010
0001
0010
0000
0100
0000
1000
0001
1000
0000
0010
0000
,
1000
0001
1000
0000
0100
0010
0100
0000
0010
0000
0001
1000
0001
0000
0100
0000
,
0001
1000
0001
0000
0010
0100
0010
0000
0100
0000
1000
0001
1000
0010
1000
0000
,
0001
0100
0001
1000
0001
0000
1000
0000
0100
0000
0010
0001
0010
0000
0001
0100
,
0001
0000
0100
0010
1000
0010
0100
0010
1000
0000
0100
0010
0100
0000
1100
0000
,
0000
0001
0011
0000
1000
0100
0010
0001
,
1000
0010
0100
0001
1000
0010
0100
0001
1000
0001
0010
0100
1000
0000
0001
1000
,
0010
0100
0001
0000
1000
0001
0010
0100
1000
0000
0001
1000
0010
0100
0001
0000
,
1000
0001
0010
0100
1000
0000
0001
1000
0010
0100
0001
0000
1000
0100
1000
0000
,
0000
0000
1000
0100
0010
0000
0001
0000
2000
0000
0010
0000
0000
0010
0000
0000
,
0020
0000
0000
0000
3030
0000
1010
0000
1000
0010
1000
0010
0100
0010
0100
0010
,
1000
0010
0100
0010
2000
0000
0000
0000
3001
0010
0001
0010
0100
0010
0100
0010
,
0001
0010
0100
0010
0002
0000
0000
0000
1003
0100
0010
0100
1000
0001
0100
0001
,
1000
0100
0010
0001
1000
0000
0000
0000
0002
0000
0000
0000
0023
0000
0000
0000
,
2030
0000
3010
0001
2000
0000
0000
0000
,
3000
0000
1000
0020
0000
0000
0000
0000
,
0030
0000
0010
0100
0000
0100
0001
0010
,
0100
0000
1000
0000
0001
0000
0100
0000
0000
0000
0110
0000
0000
0000
0001
1000
,
0001
0100
0100
0100
0000
0000
1001
0001
,
0100
0000
0010
0000
1000
0000
0100
0010
0001
0000
0100
0000
0001
0000
0010
0000
,
0100
1000
0001
1000
0100
0000
0010
0000
0001
0000
1000
0010
1000
0000
0100
0000
,
0000
0000
0110
0000
0000
0000
1001
0000
0000
0000
0001
0100
0010
0000
1000
0001
,
0010
0100
1000
0001
1000
0000
0000
0000
0001
0000
0100
0001
1000
0000
0100
1000
,
0100
0000
1000
0100
0010
0000
0001
0000
1000
0000
0010
1000
0001
0000
0010
0001
,
0010
0000
0001
0010
0100
0000
1000
0000
0001
0000
0100
0010
1000
0000
0100
0010
,
0001
0000
0100
0010
1000
0000
0001
0000
0100
0000
0010
1000
0010
1000
0001
0000
,
1000
0100
1000
0100
0010
0001
0010
0001
0010
0000
0001
0010
0100
0000
1000
0000
,
0001
0100
0010
0100
0001
0100
0010
0000
1000
0000
0001
0010
0100
0000
1000
0000
,
0010
0100
0010
1000
0010
0100
0010
0000
1000
0000
0001
0010
0100
0000
1000
0010
,
0100
0000
0001
0010
0100
0000
1000
0000
0001
0000
0100
0010
1000
0010
1000
0000
,
0010
0100
0001
0000
1000
0100
0010
0000
0001
0010
0001
0010
0001
0000
1000
0010
,
1000
0010
1000
0000
0001
0000
0000
0000
1000
0000
0100
0000
0010
0000
0001
0000
,
1000
0001
1000
0001
0100
0010
0100
0000
0000
0000
0100
0001
0100
0000
0010
1000
,
0010
0000
0100
0010
0100
0000
0001
0000
1000
0000
0100
0000
0010
0000
0001
0000
,
0100
0000
0001
0000
0010
0000
0100
0000
1000
0000
0001
0000
0100
0010
0100
0000
,
0001
0000
0100
0010
0100
0000
0001
0000
1000
0100
0010
0000
0100
0010
0001
0010
,
0001
0000
1000
0000
0000
0000
1000
0000
0001
0000
0100
0000
0010
0000
1000
0010
,
0100
0000
0001
0010
0100
0000
1000
0000
0000
0000
1000
0100
1000
0000
0001
0100
,
0001
1000
0001
1000
0001
0000
0000
0000
0000
0000
0000
0000
0000
0000
0000
0000
,
0000
0000
0000
0000
;
#NOTES:
     dance-double:
     :
     Easy:
     7:
     :
00000000
00000000
00000000
00000000
,
00000000
00000000
00000000
00000000
,
00000000
00000000
00000000
00000000
,
00000000
00000000
00000000
00000000
,
00000000
00000000
00000000
00000000
,
00000000
00000000
00000000
00000000
,
00001000
00001000
00010000
00000000
,
00010000
00010000
00001000
00000000
,
00001000
00010000
00001000
00010000
,
00001000
00100000
00010000
00100000
,
00000000
00100000
00010000
10000000
,
01000000
00100000
00010000
00000000
,
00100000
00100000
00001000
00001000
,
00010000
00001000
00010000
00000000
,
00001000
00010000
00001000
00010000
,
00000010
00001000
00000010
00000000
,
00000010
00001000
00000001
00000010
,
00000001
00001000
00000100
00000000
,
00000220
00000330
00000001
00001000
,
00000001
00001000
00000100
00001000
,
00000100
00000000
00000100
00000100
,
00010000
00000000
00010000
00010000
,
00001000
00000000
00001000
01000000
,
00001000
01000000
00010000
01000000
,
00010000
00000000
00010000
00010000
,
10000000
00000000
10000000
10000000
,
00100000
00000000
01100000
00000000
,
10010000
00000000
10000000
01000000
,
00100000
00010000
00100000
00001000
,
00020000
00030000
00000010
00010000
,
00002000
00003000
00001000
00010000
,
00000100
00010000
00001000
00001000
,
00010000
00010000
00000100
00001000
,
00000010
00000100
00000001
00001000
,
00000100
00000010
00000001
00000001
,
00001000
00001000
00000200
00000000
,
00000000
00000300
00000100
00001000
,
00000100
00010000
00001000
00001000
,
00010000
00010000
00001000
00010000
,
00100000
00000000
10000000
00010000
,
10000000
00000000
10000000
01000000
,
00100000
00010000
00100000
00001000
,
00010000
00000000
00001000
00010000
,
00000100
00001000
00000020
00000100
,
00000130
00000000
00000001
00001000
,
00000100
00000010
00000001
00001000
,
00000010
00000100
00000001
00001000
,
00000100
00001000
00000100
00010000
,
00001000
00000000
00001000
00010000
,
00001000
01000000
00010000
00100000
,
00010000
01000000
00100000
00100000
,
10000000
10000000
00010000
01000000
,
00010000
00100000
00001000
00000000
,
00010000
00000000
00022000
00000000
,
00000000
00033000
00010000
00001000
,
00000010
00000000
00001000
00010000
,
00001000
00000000
00001000
00010000
,
00100000
00000000
00010000
00001000
,
00010000
00000000
00010000
00000010
,
00001000
00000100
00010000
00000010
,
00001000
00000100
00010000
00001000
,
00100000
00010000
02000000
00000000
,
00000000
03000000
01100000
00000000
,
00000000
00000000
10010000
00000000
,
00000000
00000000
10000000
01000000
,
00010000
00000000
00002000
00000000
,
00000000
00003000
00001000
00010000
,
00001000
00010000
00000100
00001000
,
00000010
00001000
00000100
00000010
,
00000001
00000000
00001000
00000001
,
00001000
00000000
00000001
00000010
,
00000001
00001000
00000010
00001000
,
00000100
00000000
00010000
00000100
,
00010000
00001000
00100000
00001000
,
00010000
00000000
00001000
00001000
,
01000000
00010000
00100000
00100000
,
01000000
10000000
00100000
01000000
,
00010000
01000000
00001000
00010000
,
00001000
00000000
00010000
00001000
,
00000010
00000001
00002000
00000000
,
00000000
00003000
00001000
00000100
,
00001000
00000010
00001000
00000100
,
00010000
00000000
00001000
00100000
,
00010000
00100000
00010000
01000000
,
00010000
00000000
10000000
01000000
,
10000000
01000000
00100000
00001000
,
00010000
00011000
00000000
00000000
,
00000000
00000000
00000000
00000000
;
#NOTES:
     dance-double:
     :
     Medium:
     13:
     :
00000000
00000000
00000000
00000000
,
00000000
00000000
00000000
00000000
,
00000000
00000000
00000000
00000000
,
00000000
00000000
00000000
00000000
,
00000000
00000000
00000000
00000000
,
00000000
00000000
00000000
00000000
,
00001000
00010000
00001000
00000000
00001000
00010000
00001000
00000000
,
00010000
00001000
00010000
00000000
00010000
00001000
00010000
00000000
,
00001000
00010000
00001000
00010000
00000100
00001000
00000100
00001000
,
00000001
00000100
00000010
00001000
00000100
00000010
00000000
00000110
,
00000000
00000001
00000010
00000100
00001000
00000010
00000100
00001000
,
00010000
00001000
00100000
00001000
00010000
00001000
00100000
00001000
,
00000000
00001000
01000000
00010000
00100000
01000000
00100000
00010000
,
10000000
00100000
01000000
00010000
10000000
10000000
00000000
00010000
,
00000000
00010000
01000000
00100000
10000000
01000000
00100000
00010000
,
00100000
00001000
00010000
00001000
00000010
00001000
00010000
00001000
,
00000000
00001000
00010000
00000100
00001000
00000010
00000100
00000010
,
00001000
00000000
00000100
00000000
00000010
00000000
00000001
00000000
00000100
00000000
00000010
00000100
00000010
00000000
00000000
00000000
,
00002000
00000000
00003001
00000000
00000001
00000100
00000001
00000100
,
00001000
00000100
00001000
00010000
00100000
00010000
00001000
00000000
,
00001000
00010000
01000000
00000000
10000000
01000000
00100000
00010000
,
01000000
00001000
00010000
01000000
00010000
00001000
00100000
00010000
,
02000000
00000000
03100000
00000000
10000000
01000000
10000000
01000000
,
00010000
01000000
00010000
00001000
00000010
00001000
00010000
00000000
,
00010000
00001000
00000100
00000000
00000001
00000100
00000010
00001000
,
00000100
00010000
00001000
00000100
00001000
00010000
00000010
00001000
,
00000200
00000000
00000310
00000000
00000001
00000010
00000100
00001000
,
00000010
00000100
00001000
00010000
00100000
01000000
00010000
00100000
,
01000000
10000000
00010000
00000000
10000000
01000000
00020000
01030000
,
00200000
01300000
10000000
00000000
00010000
00100000
00002000
01003000
,
00002000
00013000
00002000
00000000
00013000
00100000
01000000
00010000
,
00100000
01000000
00010000
00001000
00000010
00000100
00001000
00000010
,
00000100
00000001
00001000
00000000
00000001
00000100
00001000
00010000
,
00001000
00000100
00000001
00000010
00001000
00010000
01000000
10000000
,
00000000
10000000
00010000
10000000
01000000
00100000
01000000
00100000
,
00001000
00010000
00001000
00010000
00002000
00000000
00003020
00000000
,
00002030
00000000
00013000
00000000
00001000
00010000
00000100
00001000
,
00000010
00000100
00000001
00000010
00000100
00000001
00000100
00001000
,
00000001
00000100
00001000
00000100
00000010
00010000
00000010
00001000
,
00000010
00000100
00000010
00001000
00000010
00010000
00001000
00010000
,
00001000
00100000
00010000
00100000
01000000
00010000
01000000
10000000
,
00010000
00100000
01000000
10000000
00100000
01000000
00001000
01000000
,
00100000
01000000
00010000
10000000
01000000
00100000
01000000
10000000
,
00000000
11000000
00000000
10010000
00000000
10000000
01000000
00100000
,
00010000
10000000
00010000
00000000
01000000
00000000
00000000
00000000
00010000
00000000
10000000
00000000
01000000
00000000
00100000
00000000
,
00001000
00010000
00000100
00010000
00001000
00010000
00000010
00001000
,
00000100
00000010
00001000
00000010
00000001
00000010
00000100
00001000
,
00000001
00000100
00000010
00001000
00000100
00010000
00001000
00010000
,
00000100
00001000
00000010
00000000
00001000
00000001
00000010
00000100
,
00000000
00000100
00001000
00000100
00010000
00001000
00100000
00010000
,
00000000
00010000
00100000
01000000
10000000
00100000
00100000
01000000
,
01000000
00010000
10000000
10000000
00000000
10000000
01000000
00100000
,
00001000
00010000
00001000
00000000
00010000
00000010
00001000
00000010
,
00000000
00000010
00000100
00000000
00000001
00000010
00000100
00001000
,
00000001
00001000
00000001
00000000
00001000
00000000
00000000
00000000
00000001
00000000
00000010
00000000
00000100
00000000
00001000
00000000
,
00000010
00000100
00001000
00010000
00000100
00010000
00001000
00100000
,
00001000
00100000
00010000
01000000
00010000
00100000
01000000
10000000
,
00000000
00000000
10000000
00000000
00010000
00000000
10000000
00000000
00000000
00000000
01000000
00000000
00000000
01000000
00000000
00000000
,
02000000
00000000
03000000
00000000
10000000
01000000
10000000
01000000
,
00100000
00010000
00100000
00010000
00001000
00000100
00001000
00000100
,
00000010
00000001
00000010
00000001
00001000
00000001
00000100
00000000
,
00001000
00010000
00100000
00000000
20000000
00000000
32000000
00000000
,
03020000
00000000
01030000
10000000
00020000
00000000
00000000
00000000
,
00030000
00000000
00010000
00200000
00000000
00000000
00000000
00000000
,
00300000
00000000
00100000
00002000
00000000
00000000
00000000
00000000
,
00003000
00000000
00001000
00020000
00000000
00001000
00000000
00001000
,
00000000
00001000
00001000
00031000
00000000
00000000
00011000
00000000
,
00010000
00000100
00001000
00000010
00000100
00000010
00010000
00000010
,
00000100
00000010
00001000
00000001
00000010
00000100
00000010
00000001
,
00000000
00000011
00000000
00001001
00000000
00000001
00000010
00000100
,
00001000
00000001
00001000
00000000
00000010
00000000
00000000
00000000
00001000
00000000
00000001
00000000
00000010
00000000
00000100
00000000
,
00010000
00001000
00100000
00001000
00010000
00001000
01000000
00010000
,
00100000
01000000
00010000
01000000
10000000
01000000
00100000
00010000
,
10000000
00100000
01000000
00010000
00100000
00001000
00010000
00001000
,
00100000
00010000
01000000
00000000
00010000
10000000
01000000
00100000
,
00000000
00100000
00010000
00100000
00001000
00010000
00000100
00001000
,
00000000
00001000
00000100
00000010
00000001
00000100
00000100
00000010
,
00000010
00001000
00000001
00000001
00000000
00000001
00000010
00000100
,
00010000
00001000
00010000
00000000
00001000
01000000
00010000
01000000
,
00000000
01000000
00100000
00000000
10000000
01000000
00100000
00010000
,
10000000
00010000
10000000
00000000
00010000
00000000
01000000
00000000
00000000
00000000
01000000
00000000
00100000
00000000
10000000
00000000
,
01000000
00100000
00010000
01000000
00010000
00100000
00001000
00010000
,
00000100
00001000
00000100
00000010
00000000
00000010
00000001
00001000
,
00000010
00000100
00000001
00000010
00000100
00001000
00000100
00010000
,
00001000
00010000
00000000
00011000
00000000
00001000
01000000
00010000
,
00100000
00010000
10000000
01000000
00100000
00100000
00001000
00001000
,
00010000
00001000
00010000
00000000
00000000
00000000
00000000
00000000
,
00000000
00000000
00000000
00000000
;
#NOTES:
     dance-double:
     :
     Hard:
     16:
     :
00000000
00000000
00000000
00000000
,
00000000
00000000
00000000
00000000
,
00000000
00000000
00000000
00000000
,
00000000
00000000
00000000
00000000
,
00000000
00000000
00000000
00000000
,
00000000
00000000
00000000
00000000
,
00011000
00000000
00011000
00000000
00001000
00010000
00100000
00000000
,
01100000
00000000
01100000
00000000
00100000
10000000
01000000
00000000
,
01000000
00100000
01000000
00100000
00001000
00010000
00001000
00010000
,
00000100
00000000
00001000
00000000
00000010
00000100
00000010
00000000
00000100
00000001
00000100
00000000
00000001
00000000
00001000
00000000
,
00000000
00000000
00001000
00000000
00000001
00000000
00000010
00000100
00000010
00000000
00000001
00000000
00000100
00000000
00000010
00000000
,
00001000
00000010
00001000
00000000
00000010
00010000
00000010
00000000
00010000
00001000
00010000
00000000
00001000
01000000
00001000
00000000
,
01000000
00000000
00010000
00000000
00100000
01000000
00100000
00000000
01000000
10000000
01000000
00000000
10000000
00010000
10000000
00000000
,
00010000
10000000
01000000
00000000
00100000
00001000
00100000
00001000
00010000
00000000
00010000
00000000
00000000
00000000
00011000
00000000
,
00000000
00000000
00001000
00000000
00010000
00000000
00000100
00001000
00000100
00000000
00000010
00000000
00000001
00001000
00000001
00000000
,
00000100
00000010
00000100
00000000
00000010
00001000
00000010
00000000
00000100
00000001
00000100
00000000
00000001
00000000
00001000
00000000
,
00000000
00000000
00001000
00000000
00000100
00000000
00000010
00000100
00000010
00000000
00000100
00001000
00000100
00000000
00010000
00000000
,
00001000
00010000
00001000
00000000
00100000
00010000
00100000
01000000
00100000
00000000
00010000
10000000
00010000
00000000
00000000
00000000
,
20000000
00000000
00010000
00000000
30010000
00000000
00000000
00000000
10000000
00000000
01000000
00100000
00010000
00000000
00100000
00000000
,
01000000
10000000
00010000
00000000
01000000
00000000
00100000
00000000
00010000
00000000
00001000
00000000
00000010
00000000
00000001
00000000
,
00001000
00000100
00001000
00000000
00000001
00000100
00000001
00000000
00000010
00000000
00000100
00001000
00000100
00000000
00010000
00000000
,
00001000
00010000
00001000
00000000
00010000
00000000
00000010
00001000
00000010
00000000
00000100
00000010
00001000
00000000
00000100
00000010
,
00000001
00000000
00001000
00000001
00001000
00000001
00001000
00000000
00000001
00000000
00000100
00000010
00001000
00000000
00000010
00000000
,
00000100
00000001
00001000
00000000
00000100
00000000
00000010
00000000
00001000
00000000
00010000
00000000
00100000
00000000
10000000
00000000
,
00010000
01000000
00010000
00000000
10000000
01000000
10000000
00000000
00100000
00000000
01000000
00010000
01000000
00000000
00001000
00000000
,
00010000
00001000
00010000
00000000
00001000
00000000
00100000
00010000
00100000
00000000
01000000
00000000
10000000
00010000
10000000
00010000
,
10000000
00000000
00000000
00000000
10010000
00000000
00000000
00000000
10000000
00000000
00100000
01000000
00010000
00000000
10000000
00000000
,
01000000
00100000
00010000
00000000
01000000
00000000
00010000
00100000
00010000
00000000
00100000
00001000
00010000
00000000
00001000
00010000
,
00000100
00000000
00001000
00000100
00001000
00000000
00000010
00000000
00000100
00000000
00000001
00000010
00000001
00000000
00001000
00000010
,
00002000
00000000
00000001
00000000
00003001
00000000
00000001
00001000
00000001
00000000
00001000
00000100
00001000
00000000
00000001
00000100
,
00000001
00000000
00000010
00000100
00000010
00000000
00000001
00000000
00001000
00000000
00000010
00000100
00000001
00000000
00001000
00000000
,
00000100
00000010
00000001
00000000
00000100
00000000
00000010
00000100
00000010
00000000
00000100
00001000
00000100
00000000
00001000
00010000
,
00001000
00000000
00010000
00100000
00010000
00000000
00100000
00000000
02000000
00000000
00000000
00000000
03010000
10000000
00010000
10000000
,
02000000
00000000
00000000
00000000
03100000
00010000
10000000
00000000
00000000
00000000
10000000
01000000
00100000
00000000
01000000
00100000
,
00010000
00000000
00100000
00001000
00010000
00001000
00010000
00000000
00001000
00000000
00010000
00000000
01000000
00000000
00010000
00000000
,
00001000
00010000
00001000
00010000
00000100
00001000
00000100
00001000
00000002
00000000
00000000
00000000
00000203
00000000
00000000
00000000
,
00002300
00000000
00000000
00000000
00003100
00000000
00000001
00000000
00001000
00000000
00000100
00000010
00000001
00000000
00000100
00000010
,
00000100
00000000
00001000
00000000
00010000
00000000
00100000
00000000
01000000
00000000
00010000
00100000
01000000
00000000
10000000
01000000
,
00100000
00000000
00010000
01000000
00100000
00000000
10000000
00000000
01000000
00000000
00100000
00010000
00100000
00010000
00100000
00000000
,
00001000
00010000
00001000
00010000
00001000
00000000
00010000
00000000
00000100
00000000
00001000
00000010
00000100
00000000
00000001
00000010
,
00000100
00000000
00001000
00000100
00000010
00000000
00000001
00000000
00000100
00000000
00000010
00001000
00000010
00000000
00000100
00000000
,
00000001
00000010
00000100
00000000
00001000
00000100
00001000
00000000
00000100
00000000
00010000
00001000
00010000
00000000
00001000
00000000
,
00100000
00010000
00100000
00000000
01000000
10000000
01000000
10000000
00010000
00000000
01000000
00100000
10000000
00000000
00100000
00000000
,
00000000
10100000
00000000
10010000
00000000
10000000
01000000
00010000
,
00001000
00010000
00001000
00010000
00001000
00000000
00000000
00000000
00001000
00000000
00010000
00000100
00001000
00000000
00000010
00001000
,
00000100
00000000
00010000
00001000
00010000
00000000
00001000
00000000
00000010
00000000
00000001
00001000
00000100
00000000
00000010
00000001
,
00001000
00000000
00000010
00000100
00000001
00000000
00001000
00000000
00000100
00000000
00000010
00000001
00000010
00000001
00000010
00000000
,
00000001
00001000
00000001
00001000
00000001
00000000
00000100
00000000
00000010
00000000
00000100
00001000
00000100
00000000
00001000
00010000
,
00001000
00000000
00010000
00001000
01000000
00010000
01000000
00000000
00010000
00000000
00100000
01000000
00100000
00000000
00010000
00000000
,
10000000
00100000
10000000
00000000
00010000
01000000
00010000
00000000
00100000
00000000
01000000
10000000
01000000
00000000
00100000
00000000
,
00010000
01000000
00100000
00000000
01000000
00001000
00010000
00000000
00001000
00000000
00010000
00000100
00010000
00000000
00000100
00000000
,
00001000
00000010
00001000
00000000
00000001
00000100
00000001
00000100
00000010
00000000
00001000
00000100
00000010
00000000
00000001
00000100
,
00000010
00000000
00001000
00000010
00010000
00001000
00010000
00000000
00001000
01000000
00010000
01000000
00010000
00000000
00100000
01000000
,
00100000
01000000
10000000
00000000
10010000
00000000
00000000
00000000
10000000
00000000
01000000
00000000
00100000
00000000
00010000
00000000
,
01000000
00001000
01000000
00001000
00010000
00001000
00010000
00000000
00000100
00001000
00000010
00010000
00000100
00000000
00010000
00001000
,
00100000
00001000
00010000
00000000
00001000
01000000
00010000
00100000
00001000
00000000
00010000
00000100
00001000
00000100
00010000
00000000
,
00000100
00010000
00000010
00001000
00000100
00000000
00001000
00000010
00010000
00001000
00010000
00000000
00001000
00000000
00010000
00000000
,
00000000
00000000
00010000
00000010
00001000
00000000
00000100
00000000
00000020
00000000
00000100
00000000
00000000
00000100
00000000
00000000
,
00000200
00000000
00000000
00000000
00000330
00000000
00000110
00000000
00000010
00000001
00000010
00000001
00001000
00000001
00001000
00000001
,
00001000
00000100
00001000
00000100
00002000
00000000
00000000
00000000
00003100
00010000
00000100
00010000
00001000
00010000
00001000
00010000
,
00001000
00100000
00001000
00100000
00020000
00000000
00000000
00000000
00130000
01000000
00100000
01000000
10000000
00010000
10000000
00010000
,
01000000
00010000
01000000
00001000
00010000
00000000
00001000
00010000
00002000
00000000
00000000
00000000
00003020
00000000
00000000
00000000
,
00002030
00000000
00013000
01000000
20000000
00000000
00000000
00000000
,
30000000
00000000
10000000
00020000
00000000
00000000
00000000
00000000
,
00030000
00000000
00010000
00100000
00000000
00100000
00001000
00010000
,
00000100
00001000
00000010
00000100
00000000
00000110
00000000
00000100
,
00001000
00010000
00100000
10000000
00000000
00000000
10010000
00000000
,
10000000
01000000
00100000
00000000
00010000
00100000
00010000
00000000
00100000
00000000
00001000
00010000
00001000
00000000
00010000
00000000
,
00000100
00001000
00000100
00000000
00000010
00000001
00000010
00000001
00001000
00000000
00000010
00000100
00000001
00000000
00000100
00000000
,
00000000
00000101
00000000
00001001
00000000
00000001
00000010
00001000
,
00010000
00001000
00010000
00001000
00010000
00000000
00000000
00000000
00010000
00000000
00001000
00100000
00010000
00000000
01000000
00010000
,
00100000
00000000
00001000
00010000
00001000
00000000
00010000
00000000
01000000
00000000
10000000
00010000
00100000
00000000
01000000
10000000
,
00010000
00000000
01000000
00100000
10000000
00000000
00010000
00000000
00100000
00000000
01000000
10000000
01000000
10000000
01000000
00000000
,
10000000
00010000
10000000
00010000
10000000
00000000
00100000
00000000
01000000
00000000
00100000
00010000
00100000
00000000
00010000
00001000
,
00010000
00000000
00001000
00010000
00000010
00001000
00000010
00000000
00001000
00000000
00000100
00000010
00000100
00000000
00001000
00000000
,
00000001
00000100
00000001
00000000
00001000
00000010
00001000
00000000
00000100
00000000
00000010
00000001
00000010
00000000
00000100
00000000
,
00001000
00000010
00000100
00000000
00000010
00010000
00001000
00000000
00010000
00000000
00001000
00100000
00001000
00000000
00100000
00000000
,
00010000
01000000
00010000
00000000
10000000
00100000
10000000
00100000
01000000
00000000
00010000
00100000
01000000
00000000
10000000
00100000
,
01000000
00000000
00010000
01000000
00001000
00010000
00001000
00000000
00010000
00000010
00001000
00000010
00001000
00000000
00000100
00000010
,
00000100
00000010
00000001
00000000
00001001
00000000
00000000
00000000
00000001
00000000
00000010
00000000
00000100
00000000
00001000
00000000
,
00000010
00010000
00000010
00010000
00001000
00010000
00001000
00000000
00000000
00000000
00001000
00010000
00001000
00000000
01000000
00010000
,
01000000
00000000
00100000
01000000
00100000
00000000
10000000
00000000
00010000
00000000
00100000
00000000
01000000
00000000
00100000
00000000
,
00001000
00000000
00010000
00000000
00000100
00000000
00001000
00000000
00000010
00000000
00000100
00000000
00000001
00001000
00000001
00000000
,
00000010
00000000
00000100
00000010
00000100
00000000
00000010
00000000
00000001
00001000
00000100
00000000
00001000
00000100
00010000
00001000
,
00010000
00001000
00000000
00010000
00001000
00100000
00010000
01000000
,
00100000
00000000
10000000
00000000
01000000
00000000
00100000
00000000
00000000
00000000
00100000
00010000
00100000
00000000
00001000
00010000
,
00001000
00010000
00011000
00000000
00000000
00000000
00000000
00000000
,
00000000
00000000
00000000
00000000
;
