
//----- song ID: ebiv -----//
#TITLE:EBONY & IVORY;
#ARTIST:OSTER project;
#BANNER:EBONY & IVORY.png;
#BACKGROUND:EBONY & IVORY-bg.png;
#CDTITLE:./CDTitles/BeatStream.png;
#MUSIC:EBONY & IVORY.ogg;
#SAMPLESTART:46.591;
#SAMPLELENGTH:15;
#BPMS:0=170;
#NOTES:
     dance-single:
     :
     Beginner:
     4:
     :
0000
0000
0000
0000
,
0000
0000
0000
0000
,
0000
0000
0000
0000
,
1001
0000
0000
0000
,
1001
0000
0000
0000
,
1000
0000
1000
0000
,
0010
0000
0000
0000
,
1000
0000
0010
0000
,
1000
0000
0000
0000
,
2000
0000
0000
0000
,
3000
0000
0000
0000
,
0020
0000
0000
0000
,
0030
0000
0000
0000
,
0010
0000
0001
0000
,
0010
0000
0000
0000
,
0010
0000
0010
0000
,
0001
0000
0000
0000
,
0001
0000
0100
0000
,
0001
0000
0000
0000
,
0001
0000
0001
0000
,
0100
0000
0000
0000
,
1000
0000
0100
0000
,
1000
0000
0000
0000
,
1000
0000
1000
0000
,
0100
0000
0000
0000
,
2000
0000
0000
0000
,
3000
0000
0000
0000
,
0020
0000
0000
0000
,
0030
0000
0000
0000
,
0002
0000
0000
0000
,
0003
0000
0000
0000
,
0020
0000
0000
0000
,
0030
0000
0000
0000
,
1000
0000
0010
0000
,
1000
1000
0010
0000
,
0001
0000
0100
0000
,
0001
0000
0000
0000
,
0001
0000
0010
0000
,
0001
0001
0010
0000
,
1000
0000
0100
0000
,
1000
0000
0000
0000
,
0010
0000
0000
0000
,
0000
0010
0000
0000
0000
0000
0000
0000
,
0000
0100
0000
0000
,
0000
0000
0000
0100
0000
0000
0000
0000
,
0000
0000
1000
0000
,
0000
0000
0000
0000
0000
1000
0000
0000
,
0000
0000
0000
0001
,
0000
0000
0000
0000
0000
0000
0000
0001
,
0000
0000
0000
0000
,
1001
0000
0000
0000
,
1001
0000
0000
0000
,
0001
0000
0001
0000
,
0020
0000
0000
0000
,
0030
0000
0000
0000
,
0001
0000
0010
0000
,
0001
0000
0010
0000
,
1000
0000
0010
0000
,
1000
0000
0000
0000
,
1000
0000
0010
0000
,
1000
0000
0010
0000
,
0001
0000
0010
0000
,
0001
0000
0000
0000
,
0001
0001
0010
0000
,
0010
0000
0000
0000
,
1000
1000
0010
0000
,
0010
0000
0000
0000
,
0100
0000
0010
0000
,
1001
0000
0000
0000
,
0000
0000
0001
1000
,
0001
1000
0000
0000
,
0000
0000
0000
0000
;
#NOTES:
     dance-single:
     :
     Easy:
     8:
     :
0000
0000
0000
0000
,
0000
0000
0000
0000
,
0000
0000
0000
0000
,
0001
0000
0000
1000
0000
0000
0001
0000
,
1000
0100
0010
0000
,
0001
0100
0001
0010
,
0001
1000
0001
0000
,
1000
0100
1000
0010
,
1000
0001
1000
0000
,
0001
0010
0100
1000
,
0001
0000
0100
0000
0010
0100
0010
0000
,
1000
0100
0010
0001
,
0011
0000
1001
0000
,
0001
0100
1000
0100
,
0001
0000
1000
0000
0001
1000
0001
0000
,
1000
0100
0001
0100
,
2000
0000
0000
3000
,
1000
0100
0010
0001
,
1000
0000
0010
0000
0100
0010
0100
0000
,
0001
0010
0100
1000
,
1100
0000
1001
0000
,
1000
0010
0001
0010
,
1000
0000
0001
0000
1000
0001
1000
0000
,
0001
0010
1000
0010
,
0002
0000
0000
0003
,
0001
0000
0100
0000
0001
0010
0001
0000
,
1000
0000
0100
0000
1000
0010
1000
0000
,
0001
0100
0010
1000
,
0100
0000
0110
0000
,
1000
0000
0100
0000
1000
0010
1000
0000
,
0001
0000
0100
0000
0001
0010
0001
0000
,
1001
0000
0110
0000
,
1000
0010
0100
0001
,
1000
0001
0100
0010
,
1000
0100
0010
0000
0002
0000
0003
0000
,
2000
3000
0200
0300
,
0110
0000
1001
0000
,
1000
0100
0010
0000
0001
0000
0000
0000
,
0001
0100
0010
0000
1000
0000
0000
0000
,
0002
0000
0000
0003
,
2000
0000
0000
3000
,
0010
0000
0000
0010
0000
0000
0010
0000
,
0000
0100
0000
0000
0100
0000
0000
0100
,
0000
0000
0001
0000
0000
1000
0000
0000
,
0001
0000
0000
2000
0000
0000
0000
0000
,
0000
3000
0000
0000
1000
0000
0000
1000
,
0000
0000
1000
0000
0000
0001
0000
0000
,
0001
0000
0000
0001
0000
0000
0010
0000
,
0000
0100
0000
0000
0010
0000
0000
0200
,
0000
0000
0000
0000
0000
0300
0000
0000
,
0110
0000
1001
0000
,
0001
1000
0001
0000
,
1000
0010
0100
0001
,
0200
0000
0000
0300
,
0020
0000
0000
0030
,
1000
0010
0100
0001
,
0100
0010
1000
0000
,
0001
0010
0100
1000
,
0100
0010
0001
0000
,
1000
0001
0100
0010
,
1000
0001
0010
0100
,
1000
0010
1000
0100
,
0010
0001
0100
0001
,
0020
0000
0000
0030
,
0001
0001
1000
1000
,
0010
0100
0010
0100
,
0001
0010
0100
1000
,
0200
0000
0000
0300
,
1000
0000
1001
0000
,
0001
0000
0100
0010
,
0100
0110
0000
0000
,
0000
0000
0000
0000
;
#NOTES:
     dance-single:
     :
     Medium:
     12:
     :
0000
0000
0000
0000
,
0000
0000
0000
0000
,
0000
0000
0000
0000
,
0001
1000
0000
1000
0000
0010
0100
0010
,
0200
0001
0001
0301
,
1000
0000
0100
0000
0010
0000
0001
0000
1000
0000
0000
1000
0000
0000
1000
0000
,
0001
0000
0100
0000
0010
0000
1000
0000
0001
0000
0000
0001
0000
0000
0001
0000
,
1000
0000
0010
0000
0100
0000
0001
0000
1000
0000
0000
1000
0000
0000
1000
0000
,
0001
0000
0010
0000
0100
0000
1000
0000
0001
0000
0000
0001
0000
0000
0001
0000
,
1000
0100
0010
0100
1000
0010
0100
0010
,
1000
0001
0010
0100
1000
0000
1001
0000
,
0001
0100
0010
0100
0001
0010
0100
0010
,
0001
0000
1000
0000
0100
0000
0010
0000
0001
0000
0000
0001
0000
0000
0001
0000
,
2000
0010
3002
0100
,
0023
0001
0230
1000
,
0310
0001
0100
1000
0100
0001
0010
1000
,
0010
0001
0010
0000
0100
1000
0100
1000
,
0001
0100
0010
0100
0001
0010
0100
0010
,
0001
1000
0010
0100
0001
0000
1001
0000
,
1000
0100
0010
0100
1000
0010
0100
0010
,
1000
0000
0001
0000
0100
0000
0010
0000
1000
0000
0000
1000
0000
0000
1000
0000
,
0002
0010
2003
0100
,
3020
1000
0230
0001
,
0310
1000
0100
0001
0100
1000
0010
0001
,
0010
1000
0010
0000
0100
0001
0100
0000
,
0001
0010
0001
0010
0001
0100
0001
0100
,
0010
1000
0010
1000
0100
1000
0100
1000
,
0001
0010
0001
0010
1000
0010
1000
0010
,
0001
0011
1000
1100
,
1000
0010
1000
0010
1000
0100
1000
0100
,
0010
0001
0010
0001
0100
0001
0100
0001
,
1000
0010
0001
0000
0001
0010
1000
0000
,
0001
0010
0100
1000
0001
0100
0010
1000
,
0002
0000
1003
0010
0100
0001
1000
0000
,
0001
0100
1000
0100
0002
0000
1003
0000
,
0020
0000
0130
0001
0010
0100
1000
0010
,
0110
0000
0000
0000
1000
0001
1000
0000
,
1000
0100
0010
0000
0010
0001
1000
0000
,
0001
0100
0010
0000
0010
1000
0001
0000
,
1000
0001
0100
0001
1000
0100
1000
0000
,
0001
0010
0001
1000
0010
1000
0001
0000
,
1000
0000
0000
0000
0000
0000
0001
0000
0000
1000
0000
0000
0010
0000
0000
0100
,
0000
0010
0000
0000
1000
0000
0000
0001
,
0000
0000
0000
0000
0010
0000
0000
0000
0000
0000
0010
0000
0000
0100
0000
0000
,
1000
0000
0000
0002
0000
0000
0000
0000
,
0000
0003
0000
0000
0001
0000
0000
1000
,
0000
0001
0000
0000
0100
0000
0000
0010
0000
0000
0100
0000
0000
0000
0000
0000
,
0001
0000
0000
0000
0000
0000
1000
0000
0000
0000
0000
0000
0100
0000
0000
0010
,
0000
0001
0000
0000
0001
0000
0000
2000
,
0000
0000
0000
0000
0000
3000
0000
0000
,
1000
0100
0001
0000
0001
0100
1000
0000
,
0001
0100
1000
0000
1000
0100
0001
0000
,
2000
3200
0320
0031
,
0022
0033
0202
0303
,
2020
0030
0002
3003
,
0001
0010
0100
0010
0001
0010
1000
0010
,
0001
0010
0100
0010
0001
1000
0001
0000
,
1000
0010
0100
0010
1000
0010
0001
0010
,
1000
0010
0100
0010
1000
0001
1000
0000
,
0001
0100
0010
0100
1000
0100
0001
0100
,
0010
0001
0010
0100
0010
1000
0001
0010
,
0100
0001
0100
1000
0100
0010
0100
1000
,
0001
0010
0001
0100
0010
1000
0100
0010
,
0002
1000
1000
1003
,
0001
0000
0000
1001
0000
0000
1000
0000
0010
0000
0100
0000
0010
0000
0000
0000
,
1000
0010
1000
0000
0001
0100
0001
0000
,
0020
0030
0200
0300
,
1000
0100
0010
0001
0100
0010
1000
0100
,
0020
0000
0032
2003
,
3020
0000
0000
0000
0000
0000
1030
0000
1000
0001
0000
0001
,
1000
1001
0000
0000
,
0000
0000
0000
0000
;
#NOTES:
     dance-single:
     :
     Hard:
     16:
     :
0000
0000
0000
0000
,
0000
0000
0000
0000
,
0000
0000
0000
0000
,
1000
0001
0000
1001
0000
0001
0010
0100
,
1000
0000
0010
0100
0010
0000
0100
0000
0010
0000
0000
0000
0110
0000
0000
0000
,
1000
0000
0100
0000
0010
0000
0001
0000
1000
0000
0001
1000
0000
0001
1000
0000
,
0001
0000
0100
0000
0010
0000
1000
0000
0001
0000
1000
0001
0000
1000
0001
0000
,
1000
0000
0010
0000
0100
0000
0001
0000
1000
0000
0001
1000
0000
0001
1000
0000
,
0001
0000
0010
0000
0100
0000
1000
0000
0001
0000
1000
0001
0000
1000
0001
0000
,
1000
0000
0100
0000
0010
0001
0010
0001
0000
1000
0000
1000
0010
0000
0100
0000
,
0001
0000
0000
0000
0000
0000
0010
0000
0000
0100
0000
0000
0010
0000
0000
0100
0000
0000
1000
0000
0000
0100
0000
0000
1000
0000
0000
0000
0001
0000
0000
0000
0100
0000
0000
0000
0001
0000
0000
0000
0100
0000
0000
0000
0001
0000
0000
0000
,
1000
0000
0100
0000
0010
0001
0010
0001
0000
0000
0001
0000
1000
0000
0010
0000
,
0100
0001
0010
0000
0100
1000
0010
0000
0100
0000
0000
1001
0000
0000
0000
0000
,
1000
0000
0010
0000
1000
0100
0010
0001
0000
1000
0000
1000
0001
0000
0100
0000
,
0010
1000
0010
0000
0100
0001
1000
0001
0000
1000
0100
0000
0010
0100
0010
0000
,
0001
0010
0100
1000
0000
0010
0100
0010
1000
0100
0010
0000
0100
0010
0001
0000
,
2000
0100
3002
0010
2003
0100
3001
1000
,
0001
0000
0010
0000
0100
1000
0100
1000
0000
0001
0000
0001
0100
0000
0010
0000
,
1000
0000
0000
0000
0000
0000
0100
0000
0000
0010
0000
0000
0100
0000
0000
0010
0000
0000
0001
0000
0000
0010
0000
0000
0001
0000
0000
0000
1000
0000
0000
0000
0010
0000
0000
0000
1000
0000
0000
0000
0010
0000
0000
0000
1000
0000
0000
0000
,
0001
0000
0010
0000
0100
1000
0100
1000
0000
0000
1000
0000
0001
0000
0100
0000
,
0010
1000
0100
0000
0010
0001
0100
0000
0010
0000
0000
1001
0000
0000
0000
0000
,
0001
0000
0100
0000
0001
0010
0100
1000
0000
0001
0000
0001
1000
0000
0010
0000
,
0100
0001
0100
0000
0010
1000
0001
1000
0000
0001
0010
0000
0100
0010
0100
0000
,
1000
0100
0010
0001
0000
0100
0010
0100
0001
0010
0100
0000
0010
0100
1000
0000
,
0002
0010
2003
0100
3001
0010
1001
0000
,
1000
0100
0010
0000
0001
0000
0100
0010
1000
0000
0100
0000
0010
0001
1000
0000
,
0001
0010
0100
0000
1000
0000
0010
0100
0001
0000
1000
0000
0010
0100
0001
0000
,
1000
0001
0010
0000
0100
0000
1000
0001
0100
0000
0010
0000
1000
0001
0100
0000
,
0001
0010
0100
0000
1000
0000
0010
0100
0001
0000
1000
0000
0100
0010
0100
0000
,
1000
0001
0010
0001
0010
0000
0001
1000
0010
1000
0010
0000
0100
0001
1000
0000
,
0001
1000
0100
1000
0100
0000
1000
0001
0100
0001
0100
0000
0010
1000
0001
0000
,
0011
0000
1100
0000
,
0001
0010
0100
0000
1000
0000
0010
0100
0000
0010
0100
0010
1000
0001
1000
0000
,
0001
0000
0010
0001
0010
0000
0100
0010
0100
0000
1000
0100
1000
0000
0001
0000
,
1000
0100
0001
0100
1000
0000
0001
0000
0020
0000
0000
0000
0130
0000
0000
0000
,
1000
0000
0010
1000
0100
0000
0010
0001
0100
0000
0010
1000
0100
0000
0010
0000
,
1001
0000
0000
0000
0100
0010
1001
0000
,
1000
0000
0100
0010
0001
0000
0100
0010
1000
0000
0001
1000
0001
1000
0001
0000
,
1000
0000
0010
0100
0001
0000
0010
0100
1000
0000
0001
1000
0001
1000
0001
0000
,
1000
0010
1000
0000
0001
0010
0001
0000
1000
0010
1000
0001
0010
0001
0010
0000
,
0001
0100
0001
0000
1000
0100
1000
0000
0001
0100
0001
1000
0100
1000
0100
0000
,
1000
0000
0000
0000
0000
0000
1000
0000
0000
0010
0000
0000
0110
0000
0000
0100
,
0000
0000
0101
0000
0000
0000
0000
0000
0110
0000
0000
0000
0000
0001
1000
0000
,
0000
0000
0000
0000
0001
0000
0000
0000
0000
0000
0001
0000
0000
0100
0000
0000
,
0010
0000
0000
1000
0002
0000
0000
0000
,
0000
0000
0003
0000
0000
0000
0000
0000
0001
0000
0000
0000
0000
0001
0100
0000
,
0000
0001
0000
0000
0010
0000
0000
0100
0000
0000
1100
0000
0000
0000
0000
1000
,
0001
0000
0000
0000
0000
0000
0011
0000
0000
0000
0000
0000
0001
0000
0000
0100
,
0000
0000
1000
0000
0000
0100
0000
0000
0001
0000
0000
0000
0000
0000
1000
0000
,
0002
0000
0000
0000
0000
0003
0000
0000
,
1000
0100
0010
0001
0010
0000
0000
0000
0001
0100
0010
1000
0010
0000
0000
0000
,
1000
0010
0100
0010
1000
0010
0100
0000
0001
0010
0100
0010
0001
0010
0100
0000
,
2000
0000
0000
3001
0010
1000
0002
0000
0000
0203
0000
0000
,
2300
0000
0000
3001
0100
0001
0020
0000
0000
0130
1000
0010
,
2000
0000
0002
3003
,
1000
0100
0010
0000
0100
1000
0001
0000
0100
0000
0010
1000
0001
0000
1000
0000
,
0001
0100
0010
0000
0100
0001
1000
0000
0100
0000
0010
0001
1000
0000
0001
0000
,
1000
0001
0100
0000
0010
1000
0100
0000
0001
0000
0100
1000
0100
0000
0010
0000
,
0001
1000
0010
0000
0100
0001
0010
0000
1000
0000
0010
0001
0010
0000
0001
0000
,
1000
0100
1000
0100
0010
0001
0010
0000
0001
0100
0001
0100
0010
1000
0010
0000
,
1000
0001
0100
0010
1000
0001
0100
0000
0001
1000
0100
0010
0001
1000
0100
0000
,
1000
0010
0100
0001
0010
0100
1000
0000
0001
0100
0010
1000
0100
0010
0001
0000
,
1000
0010
1000
0001
0100
0001
0010
0000
0001
1000
0001
0010
0100
1000
0001
0000
,
2000
0000
0000
3000
,
1010
0000
0000
0101
0000
0000
0001
0000
0010
0000
0100
0000
0100
0000
1000
0000
,
0020
2030
3002
0203
0320
2030
3002
0203
,
0302
0003
2000
3000
,
1000
0100
1000
0100
1000
0010
0100
0001
0100
0001
0010
0001
1000
0010
0100
0001
,
2000
0000
0000
0000
0000
0000
0000
0000
3002
0000
0000
0000
0013
0100
0010
0100
,
2000
0000
0000
0000
0000
0000
3001
0100
0010
1000
0100
0010
,
0001
1001
0000
0000
,
0000
0000
0000
0000
;
#NOTES:
     dance-double:
     :
     Easy:
     8:
     :
00000000
00000000
00000000
00000000
,
00000000
00000000
00000000
00000000
,
00000000
00000000
00000000
00000000
,
00001000
00000000
00000000
00010000
00000000
00000000
00001000
00000000
,
01000000
00010000
01000000
00000000
,
00010000
10000000
00010000
10000000
,
01000000
00100000
01000000
00000000
,
01000000
00100000
01000000
00100000
,
00001000
00010000
00001000
00000000
,
00001000
00010000
00000100
00001000
,
00000100
00000000
00000010
00000000
00000001
00001000
00000001
00000000
,
00000100
00000010
00001000
00000001
,
00000011
00000000
00001001
00000000
,
00000001
00000000
00000010
00000000
00000100
00001000
00000100
00000000
,
00001000
00000000
00000010
00000000
00000100
00000010
00000100
00000000
,
00000010
00001000
00000010
00010000
,
00002000
00000000
00000000
00003000
,
00010000
00001000
01000000
00010000
,
01000000
00000000
00100000
00000000
10000000
00010000
10000000
00000000
,
01000000
00100000
00010000
10000000
,
10100000
00000000
10010000
00000000
,
10000000
00000000
00100000
00000000
01000000
00010000
01000000
00000000
,
00010000
00000000
00100000
00000000
01000000
00100000
01000000
00000000
,
00100000
00010000
00100000
00001000
,
00020000
00000000
00000000
00030000
,
00010000
00000000
00001000
00000000
00010000
00000010
00010000
00000000
,
00000010
00001000
00000010
00000100
,
00000001
00000000
00000010
00000000
00000100
00000010
00000100
00000000
,
00001000
00000100
00010000
00000000
,
00001000
00000000
00010000
00000000
00001000
00100000
00001000
00000000
,
00100000
00010000
00100000
01000000
,
10000000
00000000
00100000
00000000
01000000
00100000
01000000
00000000
,
00010000
01000000
00001000
00000000
,
00002000
00000000
00013000
00010000
,
00000100
00001000
00000100
00000000
00000010
00000000
00000000
00000000
,
00000002
00000000
00001003
00001000
,
00001001
00000000
00000110
00000000
,
00000001
00000100
00001000
00000000
,
00010000
00100000
10000000
00000000
,
00020000
00000000
00000000
00030000
,
20000000
00000000
00000000
30000000
,
10000000
00000000
00000000
01000000
00000000
00000000
10000000
00000000
,
00000000
01000000
00000000
00000000
00100000
00000000
00000000
01000000
,
00000000
00000000
00100000
00000000
00000000
00010000
00000000
00000000
,
00100000
00000000
00000000
00002000
00000000
00000000
00000000
00000000
,
00000000
00003000
00000000
00000000
00001000
00000000
00000000
00010000
,
00000000
00000000
00001000
00000000
00000000
00010000
00000000
00000000
,
00000100
00000000
00000000
00010000
00000000
00000000
00000100
00000000
,
00000000
00001000
00000000
00000000
00000100
00000000
00000000
00000020
,
00000000
00000000
00000000
00000000
00000000
00000030
00000000
00000000
,
00000110
00000000
00001001
00000000
,
00000001
00000100
00000010
00000000
,
00000010
00001000
00000010
00010000
,
00002000
00000000
00000000
00003000
,
00020000
00000000
00000000
00030000
,
00010000
00001000
01000000
00010000
,
00100000
00010000
01000000
00000000
,
00010000
10000000
01000000
00100000
,
00010000
00100000
00001000
00000000
,
00001000
00010000
00001000
00000000
00010000
00000000
00000010
00000000
,
00001000
00000100
00000010
00000001
,
00001000
00000100
00001000
00000000
00000010
00000000
00010000
00000000
,
00001000
01000000
00010000
00100000
,
02000000
00000000
00000000
03000000
,
01000000
01000000
10000000
10000000
,
00010000
00100000
00001000
00010000
,
00000100
00001000
00000001
00000100
,
00000002
00000000
00000000
00000003
,
00000010
00000000
00001000
00000000
,
00010000
00000000
00001000
00010000
,
00001000
00011000
00000000
00000000
,
00000000
00000000
00000000
00000000
;
#NOTES:
     dance-double:
     :
     Medium:
     12:
     :
00000000
00000000
00000000
00000000
,
00000000
00000000
00000000
00000000
,
00000000
00000000
00000000
00000000
,
00001000
00010000
00000000
00010000
00000000
00001000
01000000
00001000
,
02000000
00010000
00010000
03010000
,
10000000
00000000
01000000
00000000
10000000
00000000
01000000
00000000
00100000
00000000
00000000
00100000
00000000
00000000
00100000
00000000
,
00010000
00000000
00100000
00000000
00010000
00000000
00100000
00000000
00001000
00000000
00000000
00001000
00000000
00000000
00001000
00000000
,
00010000
00000000
00000100
00000000
00010000
00000000
00000100
00000000
00001000
00000000
00000000
00001000
00000000
00000000
00001000
00000000
,
00000010
00000000
00000100
00000000
00000010
00000000
00000100
00000000
00000001
00000000
00000000
00000001
00000000
00000000
00000001
00000000
,
00000010
00000001
00000010
00000001
00001000
00000010
00001000
00000010
,
00001000
00000100
00010000
00001000
00010000
00000100
00001000
00000000
,
00000010
00001000
00000010
00010000
00001000
00010000
00001000
00000000
,
00010000
00000000
00001000
00000000
01000000
00000000
00100000
00000000
01000000
00000000
00000000
01000000
00000000
00000000
00000000
00000000
,
00020000
20030000
32000000
03200000
,
00302000
00023000
00030200
00000320
,
00000031
00000100
00000001
00001000
00000100
00010000
00001000
00010000
,
00001000
00100000
00010000
00000000
01000000
00010000
10000000
00000000
,
01000000
10000000
01000000
10000000
00010000
01000000
00010000
01000000
,
00010000
00100000
00001000
00010000
00001000
00100000
00010000
00000000
,
01000000
00010000
01000000
00001000
00010000
00001000
00010000
00000000
,
00001000
00000000
00010000
00000000
00000010
00000000
00000100
00000000
00000010
00000000
00000000
00000010
00000000
00000000
00000000
00000000
,
00002000
00003002
00000023
00000230
,
00020300
00032000
00203000
02300000
,
13000000
00100000
10000000
00010000
00100000
00001000
00010000
00001000
,
00010000
00000100
00001000
00000010
00000100
00000001
00000100
00000000
,
00000001
00000100
00000001
00000100
00000010
00000100
00000010
00000100
,
00001000
00000100
00001000
00000100
00001000
00010000
00001000
00000000
,
00010000
00001000
00010000
00001000
00010000
00100000
00010000
00100000
,
01000000
00100000
01000000
00100000
10000000
00100000
10000000
00000000
,
10000000
01000000
10000000
01000000
00100000
01000000
00100000
01000000
,
00010000
01000000
00010000
01000000
00010000
00001000
00010000
00000000
,
00001000
00010000
00001000
00010000
00001000
00000010
00001000
00000010
,
00000100
00000010
00000100
00000010
00000001
00000010
00000001
00000000
,
00000002
00000000
00000103
00000010
00001000
00000010
00000100
00000000
,
00000010
00000100
00001000
00010000
00002000
00000000
00013000
00000000
,
00002000
00000000
01003000
00010000
00100000
00010000
01000000
00000000
,
01100000
00000000
00000000
00000000
10000000
00010000
10000000
00000000
,
10000000
01000000
10000000
00010000
00100000
01000000
00100000
00000000
,
00010000
00100000
00001000
00010000
00001000
00010000
00000010
00000000
,
00001000
00000010
00000100
00000000
00000001
00000010
00000100
00000000
,
00001000
00000100
00010000
00000000
00001000
00010000
00001000
00000000
,
00011000
00000000
00000000
00000000
00000000
00000000
00001000
00000000
00000000
01000000
00000000
00000000
00010000
00000000
00000000
01000000
,
00000000
00010000
00000000
00000000
00100000
00000000
00000000
01000000
,
00000000
00000000
00000000
00000000
10000000
00000000
00000000
00000000
00000000
00000000
10000000
00000000
00000000
01000000
00000000
00000000
,
00100000
00000000
00000000
00002000
00000000
00000000
00000000
00000000
,
00000000
00003000
00000000
00000000
00011000
00000000
00000000
00010000
,
00000000
00000010
00000000
00000000
00001000
00000000
00000000
00000100
00000000
00000000
00001000
00000000
00000000
00000000
00000000
00000000
,
00000100
00000000
00000000
00000000
00000000
00000000
00000010
00000000
00000000
00000000
00000000
00000000
00000001
00000000
00000000
00001000
,
00000000
00000001
00000000
00000000
00000100
00000000
00000000
00000220
,
00000000
00000000
00000000
00000000
00000000
00000330
00000000
00000000
,
00000001
00000100
00000010
00000000
00001000
00000100
00000010
00000000
,
00000100
00010000
00001000
00000000
00001000
00100000
00010000
00000000
,
00200000
02300000
23000000
30010000
,
00110000
00000000
00100000
00001000
00100000
00000000
00001000
00010000
,
00002000
00000000
00000000
00003000
,
00001000
00010000
00000010
00010000
00000100
00010000
00001000
00000000
,
00010000
00001000
00100000
00001000
01000000
00001000
00010000
00000000
,
00001000
00010000
00000100
00001000
00000010
00000100
00000010
00000000
,
00000100
00000010
00001000
00000100
00010000
00001000
00010000
00000000
,
00001000
00100000
00010000
01000000
00010000
00100000
01000000
10000000
,
00010000
01000000
00100000
10000000
00010000
01000000
00100000
00000000
,
10000000
01000000
00100000
00001000
00010000
00001000
00100000
00010000
,
01000000
00001000
00010000
00000100
00001000
00000100
00000010
00000000
,
00000002
00001000
00001000
00001003
,
00000001
00000000
00000000
00000010
00000000
00000000
00000010
00000000
00000100
00000000
00001000
00000000
00000100
00000000
00000000
00000000
,
00010000
00001000
00010000
00001000
00100000
00010000
00100000
00010000
,
20000000
30000000
00020000
00030000
,
10000000
00100000
01000000
00001000
00010000
00000010
00001000
00000001
,
00000200
00000000
00000302
00002003
,
00003020
00000000
00000000
00000000
00000000
00000000
00000130
00000000
00000100
00001000
00000000
00001000
,
00010000
00011000
00000000
00000000
,
00000000
00000000
00000000
00000000
;
#NOTES:
     dance-double:
     :
     Hard:
     16:
     :
00000000
00000000
00000000
00000000
,
00000000
00000000
00000000
00000000
,
00000000
00000000
00000000
00000000
,
00001000
00010000
00000000
00011000
00000000
00010000
00000100
00001000
,
00000010
00000000
00000100
00000010
00000100
00000000
00000001
00000000
00001000
00000000
00000000
00000000
00001001
00000000
00000000
00000000
,
00000001
00000000
00000100
00000000
00000001
00000000
00000010
00000000
00000100
00000000
00001000
00000100
00000000
00001000
00000100
00000000
,
00010000
00000000
00001000
00000000
00100000
00000000
00010000
00000000
00100000
00000000
01000000
00100000
00000000
01000000
00100000
00000000
,
00010000
00000000
01000000
00000000
00100000
00000000
10000000
00000000
00100000
00000000
01000000
00010000
00000000
01000000
00010000
00000000
,
00100000
00000000
00001000
00000000
00010000
00000000
00000100
00000000
00010000
00000000
00001000
00010000
00000000
00001000
00010000
00000000
,
00000010
00000000
00001000
00000000
00000100
00000010
00000100
00000010
00000000
00000001
00000000
00000001
00001000
00000000
00000010
00000000
,
00000100
00000000
00000000
00000000
00000000
00000000
00001000
00000000
00000000
00000000
00000000
00000000
00000100
00000000
00000000
00000010
00000000
00000000
00000100
00000000
00000000
00000010
00000000
00000000
00001000
00000000
00000000
00000000
00000100
00000000
00000000
00000000
00001000
00000000
00000000
00000000
00000100
00000000
00000000
00000000
00010000
00000000
00000000
00000000
00000100
00000000
00000000
00000000
,
00010000
00000000
00001000
00000000
01000000
00010000
01000000
00010000
00000000
00000000
00010000
00000000
00100000
00000000
01000000
00000000
,
10000000
01000000
10000000
00000000
00010000
01000000
00010000
00000000
00100000
00000000
00000000
01100000
00000000
00000000
00000000
00000000
,
10000000
00000000
00100000
00000000
01000000
00010000
01000000
00001000
00000000
00010000
00000000
00010000
00001000
00000000
00000010
00000000
,
00000001
00000000
00000100
00000000
00000010
00001000
00000010
00001000
00000000
00000100
00010000
00000000
00000010
00001000
00000010
00000000
,
00000100
00000001
00001000
00000010
00000000
00001000
00000100
00001000
00000100
00010000
00001000
00000000
00100000
00001000
00010000
00000000
,
00002000
00023000
02030000
23000000
30020000
00230000
02300000
03000000
,
00100000
00000000
00010000
00000000
01000000
00100000
01000000
00100000
00000000
10000000
00000000
10000000
00010000
00000000
00100000
00000000
,
01000000
00000000
00000000
00000000
00000000
00000000
00010000
00000000
00000000
00000000
00000000
00000000
01000000
00000000
00000000
00100000
00000000
00000000
01000000
00000000
00000000
00100000
00000000
00000000
00010000
00000000
00000000
00000000
01000000
00000000
00000000
00000000
00010000
00000000
00000000
00000000
01000000
00000000
00000000
00000000
00001000
00000000
00000000
00000000
01000000
00000000
00000000
00000000
,
00001000
00000000
00010000
00000000
00000100
00001000
00000100
00001000
00000000
00000000
00001000
00000000
00000010
00000000
00000100
00000000
,
00000001
00000100
00000001
00000000
00001000
00000100
00001000
00000000
00000010
00000000
00000000
00000110
00000000
00000000
00000000
00000000
,
00000001
00000000
00000010
00000000
00000100
00001000
00000100
00010000
00000000
00001000
00000000
00001000
00010000
00000000
00100000
00000000
,
10000000
00000000
01000000
00000000
00100000
00010000
00100000
00010000
00000000
01000000
00001000
00000000
00100000
00010000
00100000
00000000
,
01000000
10000000
00010000
00100000
00000000
00010000
01000000
00010000
01000000
00001000
00010000
00000000
00000010
00010000
00001000
00000000
,
00020000
00032000
00003200
00000302
00002003
00003020
00000230
00000300
,
00000001
00000100
00000001
00000000
00000010
00000000
00000100
00001000
00000100
00000000
00000010
00000000
00000001
00000100
00001000
00000000
,
00010000
00100000
00010000
00000000
00100000
00000000
10000000
00100000
10000000
00000000
00010000
00000000
00100000
01000000
10000000
00000000
,
01000000
00010000
01000000
00000000
00100000
00000000
00001000
00010000
00001000
00000000
00100000
00000000
01000000
00010000
01000000
00000000
,
10000000
00100000
10100000
10000000
00010000
00100000
01100000
00000000
,
10000000
00100000
10000000
00000000
01000000
00000000
00100000
00010000
00100000
00000000
01000000
00000000
10000000
00100000
00010000
00000000
,
00001000
00000100
00001000
00000000
00000100
00000000
00000001
00000100
00000001
00000000
00001000
00000000
00000100
00000010
00000001
00000000
,
00000110
00000000
00011000
00000000
,
00001000
01000000
00010000
00000000
00100000
01000000
10000000
00000000
00010000
01000000
00100000
00000000
10000000
00000000
00010000
00000000
,
10000000
00000000
01000000
00100000
00010000
00000000
01000000
00100000
00010000
00000000
00001000
00000100
00000010
00000000
00001000
00000100
,
00000010
00000001
00000010
00001000
00000020
00000000
00000032
00000000
,
00001003
00000000
00000010
00000100
00001000
00000000
00010000
00100000
01000000
00000000
00010000
00100000
01000000
00000000
10000000
00000000
,
10010000
00000000
00000000
00000000
01000000
00100000
10010000
00000000
,
10000000
00010000
10000000
00000000
00100000
00000000
01000000
00100000
01000000
00000000
00100000
00000000
00010000
00001000
00010000
00000000
,
00001000
00010000
00001000
00000000
00000010
00000000
00000100
00000010
00000100
00000000
00000010
00000000
00000001
00001000
00000001
00000000
,
00001000
00000010
00001000
00000010
00001000
00000100
00001000
00000000
00000100
00010000
00000100
00010000
00001000
00010000
00001000
00000000
,
00100000
00001000
00100000
00001000
00100000
00010000
00100000
00000000
00010000
01000000
00010000
01000000
00100000
01000000
00100000
00000000
,
10000000
00000000
00000000
00000000
00000000
00000000
10000000
00000000
00000000
01000000
00000000
00000000
00100000
00000000
00000000
00001000
,
00000000
00000000
00010000
00000000
00000000
00000000
00000000
00000000
00011000
00000000
00000000
00000000
00000000
00010000
00001000
00000000
,
00000000
00000000
00000000
00000000
00000010
00000000
00000000
00000000
00000000
00000000
00000010
00000000
00000000
00000001
00000000
00000000
,
00000100
00000000
00000000
00000001
00002000
00000000
00000000
00000000
,
00000000
00000000
00003000
00000000
00000000
00000000
00000000
00000000
00001001
00000000
00000000
00000000
00000000
00000001
00000100
00000000
,
00000000
00000010
00000000
00000000
00000100
00000000
00000000
00001000
00000000
00000000
00010000
00000000
00000000
00000000
00000000
00010000
,
00001000
00000000
00000000
00000000
00000000
00000000
00011000
00000000
00000000
00000000
00000000
00000000
00001000
00000000
00000000
00010000
,
00000000
00000000
01000000
00000000
00000000
10000000
00000000
00000000
00010000
00000000
00000000
00000000
00000000
00000000
10000000
00000000
,
00020000
00000000
00000000
00000000
00000000
00030000
00000000
00000000
,
10000000
00100000
01000000
00010000
01000000
00000000
00000000
00000000
00010000
00100000
00001000
00010000
00001000
00000000
00000000
00000000
,
00010000
00000100
00001000
00000000
00000010
00000100
00000001
00000000
00000010
00000100
00001000
00000100
00010000
00001000
00010000
00000000
,
00002000
00000000
00000000
01003000
00010000
01000000
00200000
00000000
00000000
20300000
00000000
00000000
,
30020000
00000000
00000000
10030000
01000000
00100000
00020000
00000000
00000000
00031000
00000100
00000010
,
00000002
00000000
00002000
00003003
,
00000001
00001000
00000010
00000000
00000100
00000010
00001000
00000000
00000100
00000000
00010000
00001000
00010000
00000000
00001000
00000000
,
00100000
00001000
00010000
00000000
01000000
00100000
01000000
00000000
10000000
00000000
00100000
01000000
00010000
01000000
00010000
00000000
,
10000000
00010000
00100000
00000000
01000000
00100000
00010000
00000000
01000000
00000000
00001000
00010000
00001000
00000000
00010000
00000000
,
00000010
00010000
00001000
00000000
00000100
00000010
00000100
00000000
00000001
00000000
00000010
00000100
00001000
00000100
00001000
00000000
,
00000001
00000100
00000001
00000100
00000010
00001000
00000010
00000000
00001000
00000010
00001000
00000010
00010000
00001000
00010000
00000000
,
00001000
00100000
00001000
00100000
00010000
01000000
00010000
00000000
01000000
00100000
01000000
00000000
00100000
10000000
00010000
00000000
,
10000000
01000000
10000000
01000000
00100000
00010000
00100000
00000000
00010000
00100000
00010000
00100000
00001000
00010000
00001000
00000000
,
00010000
00000010
00010000
00000010
00001000
00000100
00001000
00000000
00000100
00000010
00000100
00000000
00000010
00000001
00001000
00000000
,
00000002
00000000
00000000
00000003
,
00000011
00000000
00000000
00001100
00000000
00000000
00000001
00000000
00000010
00000000
00000010
00000000
00001000
00000000
00010000
00000000
,
02000000
23000000
30200000
00320000
00032000
00003200
00000302
00000023
,
00002030
00003000
00020000
00030000
,
00001000
00010000
00001000
01000000
00010000
01000000
00010000
00100000
00001000
00010000
00000100
00001000
00000100
00010000
00000010
00010000
,
00002000
00000000
00000000
00000000
00000000
00000000
00000000
00000000
00013000
00000000
00000000
00000000
00001000
00010000
00001000
00010000
,
00002000
00000000
00000000
00000000
00000000
00000000
00013000
00100000
10000000
00010000
01000000
00100000
,
10000000
10010000
00000000
00000000
,
00000000
00000000
00000000
00000000
;
