
//----- song ID: dflo -----//
#TITLE:Dozen Flower;
#ARTIST:赤木エリ & BJ.chika feat. 菜月なこ;
#ARTISTTRANSLIT:Eri Akagi & BJ.chika feat. Natsuki Nako;
#BANNER:Dozen Flower.png;
#BACKGROUND:Dozen Flower-bg.png;
#CDTITLE:./CDTitles/DDR WORLD.png;
#MUSIC:Dozen Flower.ogg;
#SAMPLESTART:52.585;
#SAMPLELENGTH:15;
#BPMS:0=178;
#BGSTAGE:3;
#NOTES:
     dance-single:
     :
     Beginner:
     3:
     :
0000
0000
0000
0000
,
0000
0000
0000
0000
,
0000
0000
0000
0000
,
0000
0000
0000
0000
,
1000
0000
0000
1000
,
0000
0000
0001
0000
,
0000
0100
0000
0001
,
0000
0000
0001
0000
,
0000
1000
0000
0000
,
0100
0000
1000
0000
,
0000
1000
0000
0000
,
0001
0000
0000
0010
,
0000
0001
0000
0000
,
0001
0000
0000
1000
,
0000
0000
0010
0000
,
0000
2000
0000
0000
,
0000
3000
0000
0002
,
0000
0000
0000
0003
,
0000
0200
0000
0000
,
0000
0300
0000
0020
,
0000
0000
0000
0030
,
0000
1000
0000
0000
,
0000
0000
0001
0000
,
0000
0000
0000
0000
,
0000
1000
0000
0000
,
0000
0000
2002
0000
,
0000
3003
0000
0000
,
0010
0000
0000
0010
,
0000
0000
0100
0000
,
0000
0100
0000
0000
,
0001
0000
0000
0001
,
0000
0000
1000
0000
,
0000
1000
0000
0000
,
0001
0000
0000
0100
,
0000
0000
0001
0000
,
0000
0000
0000
0000
,
1000
0000
0000
0010
,
0000
0000
2000
0000
,
0000
0000
0000
3000
,
0001
0000
0000
0010
,
0000
0000
0001
0000
,
0000
0001
0000
1000
,
0000
0000
0010
0000
,
0000
1000
0000
0000
,
1000
0000
0000
0000
,
0020
0000
0000
0000
,
0030
0000
0200
0000
,
0000
0300
0001
0000
,
0000
0010
0000
0000
,
0001
0000
0000
0001
,
0000
0000
1000
0000
,
0000
1000
0000
0000
,
0001
0000
0000
0010
,
0000
0001
0000
0000
,
0001
0000
0000
1000
,
0000
0000
0010
0000
,
1000
0000
0000
1000
,
0000
0000
0001
0000
,
0000
0100
0000
0001
,
0000
0000
0001
0000
,
0000
1000
0000
0000
,
0100
0000
0010
0000
,
0000
0110
0000
0000
,
0100
0000
0000
0110
,
0000
0001
0000
0000
,
1001
0000
0000
1000
,
0000
0000
0001
0000
,
0000
0100
0000
0000
,
0100
0000
0000
0010
,
0000
0000
0010
0000
,
0000
1000
0000
0000
,
1000
0000
0000
0001
,
0000
0000
0001
0000
,
0000
0010
0000
0000
,
0010
0000
0000
0001
,
0000
0000
1000
0000
,
0000
0100
0000
0000
,
1000
0000
0000
0001
,
0000
0000
1000
0000
,
0000
0001
0000
0000
,
1000
0000
0000
2002
,
0000
0000
0000
0000
,
0000
0000
0000
0000
,
0000
0000
0000
0000
,
0000
0000
0000
3003
,
0000
0000
0000
0000
;
#NOTES:
     dance-single:
     :
     Easy:
     7:
     :
0000
0000
0000
0000
,
0000
0000
0000
0000
,
0000
0000
0000
0000
,
0000
0000
0000
0000
,
1000
0010
1000
0001
,
0100
0001
1000
0100
,
1000
0001
1001
0001
,
0010
0001
1000
0010
,
1000
0001
0010
0001
,
1000
1001
1000
0100
,
0010
0001
0010
0100
,
1000
0100
0010
0001
,
1001
0001
0100
0010
,
1000
0100
0010
0001
,
0100
0010
1000
1001
,
0000
0001
0000
0100
,
0000
0100
0000
0010
,
0000
1000
0000
0001
,
0000
1000
0000
0010
,
0000
0010
0000
0220
,
0000
0000
0000
0330
,
0000
1000
0001
0200
,
0000
0000
0000
0000
0310
0000
0000
0100
,
0000
0110
0000
0000
,
0000
0001
1000
0020
,
0000
0000
0230
0000
,
0000
0301
0100
0010
,
0000
1000
0100
1000
,
0000
0001
0000
0100
,
0010
0100
0000
0010
,
0000
1000
0001
0100
,
0000
0001
0000
0010
,
0000
0010
0001
1000
,
0000
0001
0100
0010
,
0000
0000
0000
0000
1000
0000
0000
0001
,
0000
1001
0000
0000
,
0000
0001
0010
0100
,
0000
0000
0000
0000
0020
0000
0000
0032
,
0000
2003
0000
0000
,
3000
0001
0100
0001
,
1000
0000
0100
0000
0010
0000
0000
0100
,
0000
0010
0001
0000
,
1000
0010
1000
0001
,
0010
0000
0100
0000
0000
0010
0000
0000
,
0001
1000
0001
0000
,
1000
0010
0200
0000
,
0310
0000
0010
0100
,
0010
0100
0000
0001
,
1000
0010
1000
0100
,
1000
0000
0000
0001
0000
0000
0100
0000
,
0010
0100
0001
0010
,
0001
1000
0010
1000
,
0001
0010
0001
1000
,
1001
1000
0010
1000
,
0001
0100
0001
1000
,
0010
1000
0001
1001
,
1000
0100
0010
0001
,
0010
0100
1000
0100
,
0010
0001
1001
0001
,
0010
0100
1000
0100
,
0010
0001
0010
0100
,
1000
1001
0010
0010
,
0100
0100
0110
0000
,
0001
1000
0001
1001
,
0000
0100
0010
0100
,
0010
0110
0000
1000
,
0000
0001
0000
0000
0100
0000
0010
0000
,
0100
0001
0002
0003
,
0100
0200
0300
0010
,
0020
0030
1000
2000
,
3000
0100
0200
0300
,
0010
0020
0030
0001
,
0002
0003
1000
0001
,
0000
0100
0200
0300
,
0010
0020
0030
1000
,
2000
3000
0001
0002
,
0003
1000
0020
0030
,
1000
0020
0030
1000
,
0002
0003
1000
0002
,
0003
0010
0200
0300
,
0010
0200
0300
2000
,
0000
0002
0000
0000
,
0000
0000
0000
0000
,
0000
0000
0000
0000
,
0000
0000
0000
3003
,
0000
0000
0000
0000
;
#NOTES:
     dance-single:
     :
     Medium:
     9:
     :
0000
0000
0000
0000
,
0000
0000
0000
0000
,
0000
0000
0000
0000
,
0000
0000
0000
0000
,
0001
0000
0100
0010
0100
0000
0001
0000
,
0100
0010
0100
0000
0001
0000
0100
0010
,
0100
0001
1001
1000
,
0100
0010
0100
0000
1000
0000
0100
0010
,
0100
0000
1000
0000
0100
0010
0100
0000
,
1000
0000
1001
0000
0001
0000
0010
0100
,
1000
0000
0001
0000
0010
0100
1000
0000
,
0001
0000
0010
0100
1000
0000
0100
0000
,
0110
0000
1000
0000
0100
0010
0001
0000
,
1000
0000
0100
0010
0001
0000
1000
0000
,
0100
0010
0001
0000
0010
0000
0110
0000
,
0000
1000
0001
0200
,
0000
0320
0000
1030
,
0001
1000
0100
0001
,
0000
0100
0010
0002
,
0000
0000
2003
0000
0000
0000
3001
0010
,
0000
0010
0100
0000
1000
0000
0001
0000
,
0000
0001
1000
0200
,
0300
1000
0100
0000
0010
0000
0001
0010
,
0000
0001
0010
0000
0100
0000
0000
0000
,
0000
0000
1000
0010
1000
0000
0002
0000
,
0003
0100
0001
0000
0010
0000
0100
0010
,
0000
0001
0100
0010
,
1000
0000
0001
0100
0001
0000
0010
0000
,
0001
0000
0001
0000
0100
0000
0010
1000
,
0010
2000
3200
0320
,
0031
0000
1000
0010
1000
0000
0100
0000
,
1000
0000
1000
0000
0010
0000
0100
0010
,
0000
0010
1000
0000
0001
0000
0010
0000
,
0001
1000
0100
2000
,
3000
0010
1000
0000
0001
0000
0010
0100
,
0000
0010
0100
0000
1000
0000
0000
0000
,
0000
0000
0001
0100
0001
0000
0020
0000
,
0030
0100
1000
0000
0002
0000
0000
0203
,
0000
0320
0000
0000
,
1030
0100
1000
0001
,
0010
0100
0010
0000
0001
0000
1000
0010
,
0000
1000
0010
0000
0100
0000
0000
0000
,
0001
0000
0010
0000
0100
0000
0010
0001
,
0010
0000
0100
0000
1000
0001
0000
1000
,
0001
0100
0010
0000
,
1000
0010
0200
0310
,
0110
0000
0001
0010
,
0100
0110
0000
1000
,
0001
0000
0100
0000
0010
0100
0010
0000
,
1000
0000
0001
0100
0000
0001
0100
0000
,
0010
0000
1000
0000
0001
0000
0100
0010
,
0100
0000
0001
0000
0010
0100
0010
0000
,
0001
0000
0100
0010
0100
0000
0001
0000
,
1001
0000
1000
0000
0100
0010
0100
0000
,
1000
0000
0010
0100
0010
0000
1000
0000
,
0100
0010
0100
0000
1000
0000
1001
0000
,
0001
0000
0010
0100
1000
0000
0001
0000
,
0100
0010
1000
0000
0001
0000
0010
0100
,
1000
0010
0110
1000
,
0100
0010
0001
0000
1000
0000
0010
0100
,
0001
0000
1000
0000
0100
0010
0001
0000
,
0100
0000
0110
0000
0010
0000
1000
0010
,
1000
0001
1001
0000
,
0001
0000
0100
0001
0100
0000
0110
0000
,
0000
0000
1000
0000
0010
1000
0010
0000
,
0100
0110
0000
0001
,
0100
0010
0000
0100
0010
0000
1000
0000
,
0001
0000
0010
0000
0020
0000
0030
0001
,
0100
0000
0200
0000
0300
0010
1000
0000
,
2000
0000
3000
0001
0010
0000
0020
0000
,
0030
0001
1000
0000
2000
0000
3000
0001
,
0100
0000
0200
0000
0300
0001
0010
0000
,
0020
0000
0030
0001
0100
0000
0010
1000
,
0000
0010
1000
0000
0200
0000
0300
0010
,
0001
0000
0200
0000
0300
0010
1000
0010
,
2000
0000
3000
0001
0010
0001
0020
0000
,
0030
0001
0100
0000
0020
0000
0030
1000
,
0100
0000
0020
0000
0030
0001
0100
0000
,
0020
0000
0030
1000
0100
0000
0020
0000
,
0030
0001
0100
0000
2000
0000
3000
0100
,
0001
0000
0020
0000
0030
0001
2000
0000
,
0000
0002
0000
0000
,
0000
0000
0000
0000
,
0000
0000
0000
0000
,
0000
0000
0000
3003
,
0000
0000
0000
0000
;
#NOTES:
     dance-single:
     :
     Hard:
     12:
     :
0000
0000
0000
0000
,
0000
0000
0000
0000
,
0000
0000
0000
0000
,
0000
0000
0000
0000
,
1000
0010
0100
0001
0010
0100
1000
0010
,
0100
0001
0010
0100
1000
0010
0100
0001
,
0010
0100
1000
0000
1001
0000
1000
0010
,
0100
0001
0010
0100
1000
0010
0100
0001
,
0010
0100
1000
0010
0100
0001
0010
0100
,
1000
0000
1001
0000
0001
0100
0010
1000
,
0100
0010
0001
0100
0010
1000
0100
0010
,
0001
0100
0010
1000
0100
0010
0001
0000
,
1001
0000
0001
0100
0010
1000
0100
0010
,
0001
0100
0010
1000
0100
0010
0001
0100
,
0010
1000
0100
0010
0001
0000
1001
0000
,
1100
0000
0001
0100
0001
0100
0020
0000
,
0000
1030
0002
0000
0000
0003
1000
0100
,
0001
0100
1000
0000
0010
0000
0100
0000
,
0101
0000
0001
0010
0001
0010
0200
0000
,
0000
0000
1300
0000
1010
0000
0010
0100
,
0000
0100
0001
0010
0100
0000
1000
0000
,
1001
0000
1000
0010
0001
0000
0020
0000
,
0030
0100
0010
1000
0001
0000
1000
0100
,
0000
0010
0001
0000
1000
0000
0010
0000
,
0110
0000
0001
0010
1000
0000
0020
0000
,
0030
0100
0010
0001
1000
0000
0010
0100
,
0000
0001
0010
0100
,
1001
0000
0001
0100
0010
1000
0020
0000
,
0030
1000
0100
0000
1001
0000
1000
0100
,
0010
0001
0200
0000
0320
0000
2030
0000
,
3001
0000
0100
0010
0100
0010
2000
0000
,
3000
0001
0010
0000
0110
0000
0100
1000
,
0000
1000
0010
0100
0001
0000
1000
0000
,
1001
0000
1000
0100
0010
0000
0200
0000
,
0300
0010
0001
1000
0010
0000
0100
0010
,
0000
1000
0010
0000
0110
0000
0101
0000
,
1001
0000
0001
0010
0100
0000
0020
0000
,
0030
0001
1000
0010
0200
0000
0000
0302
,
0000
1003
0100
0010
,
1001
0000
0001
0100
1000
0000
0100
0100
,
0010
0100
0001
0100
0010
0000
1000
0100
,
0000
1000
0001
0000
0010
0000
0100
0000
,
1000
0100
0001
0000
0100
0100
0010
0100
,
1000
0100
0010
0000
0001
0100
0000
0001
,
1000
0010
0100
0110
,
1000
0100
0010
0001
2000
0000
3200
0000
,
0310
0000
1001
0000
0001
0010
0100
1000
,
0001
0000
0101
0000
0110
0000
1000
0010
,
0001
0000
0010
0010
1000
0100
0010
0100
,
1000
0000
0001
0010
0000
1000
0010
0000
,
0001
0000
1000
0000
0010
0100
0001
0010
,
0100
1000
0010
0100
0001
0010
0100
1000
,
0010
0100
0001
0010
0100
1000
0010
0000
,
0110
0000
0010
0100
0001
0010
0100
1000
,
0010
0100
0001
0010
0100
1000
0010
0100
,
0001
0010
0100
1000
0010
0000
0110
0000
,
1000
0010
1000
0100
0001
0100
0010
0001
,
0100
1000
0100
0010
1000
0100
0001
0100
,
0010
0001
1000
0000
1001
0000
0001
0100
,
0001
0010
1000
0010
0100
1000
0010
0001
,
0010
0100
0001
0010
1000
0010
0100
1000
,
0001
0000
1001
1000
0010
0100
0010
0100
,
0001
1000
0001
0000
0110
0000
0000
0000
,
0001
0010
0100
0010
0100
0000
1001
0000
,
0000
1000
0100
0010
0001
0100
0010
0100
,
0001
1001
0000
1000
,
0100
0001
0000
0100
1000
0000
0010
0000
,
0100
0001
0100
0000
0020
1000
1030
0010
,
0100
0000
0002
0010
0013
0001
1000
0000
,
0200
0001
0301
0100
1000
0000
0020
0000
,
0030
1000
0100
0000
0020
0001
0031
0010
,
0100
0000
2000
0010
3010
1000
0001
0000
,
0200
1000
1300
0100
0001
0000
0100
0010
,
0000
1000
0001
0000
0200
0010
0310
1000
,
0100
0000
0020
0100
0130
0010
0001
0010
,
0002
1000
1003
0001
0010
0100
2000
0000
,
3000
0001
0100
0000
0002
0010
0013
0001
,
1000
0000
0020
0100
0130
0001
1000
0000
,
0200
0010
0310
0100
1000
0000
0002
1000
,
1003
0010
0100
0000
0002
1000
1003
0100
,
0010
0000
2002
0000
3003
0100
0020
0000
,
0000
0200
0000
0000
,
0000
0000
0000
0000
,
0000
0000
0000
0000
,
0000
0000
0000
0330
,
0000
0000
0000
0000
;
#NOTES:
     dance-double:
     :
     Easy:
     7:
     :
00000000
00000000
00000000
00000000
,
00000000
00000000
00000000
00000000
,
00000000
00000000
00000000
00000000
,
00000000
00000000
00000000
00000000
,
10000000
00100000
10000000
00010000
,
01000000
00010000
01000000
00001000
,
00010000
00001000
00011000
00010000
,
00000100
00010000
00000010
00001000
,
00000010
00000100
00000001
00000100
,
00000010
00000110
00000001
00000010
,
00000100
00001000
00000100
00010000
,
00001000
00100000
00010000
10000000
,
10010000
10000000
01000000
00100000
,
00010000
00100000
00001000
00010000
,
00000010
00001000
00000001
00001001
,
00000000
00001000
00000000
00000100
,
00000000
00000100
00000000
00010000
,
00000000
00001000
00000000
00100000
,
00000000
00010000
00000000
10000000
,
00000000
10000000
00000000
20020000
,
00000000
00000000
00000000
30030000
,
00000000
00010000
00000000
00200000
,
00000000
00000000
00000000
00000000
00301000
00000000
00000000
00010000
,
00000000
00011000
00000000
00000000
,
00000000
00010000
00000000
00000200
,
00000000
00000000
00002300
00000000
,
00000000
00003001
00000010
00000100
,
00000000
00001000
00000100
00001000
,
00000000
00000100
00000000
00010000
,
00001000
00010000
00000000
00001000
,
00000000
01000000
00010000
01000000
,
00000000
00010000
00000000
10000000
,
00000000
10000000
01000000
00100000
,
00000000
00010000
00100000
00001000
,
00000000
00000000
00000000
00000000
00010000
00000000
00000000
00001000
,
00000000
00011000
00000000
00000000
,
00000000
00010000
00000100
00001000
,
00000000
00000000
00000000
00000000
00000002
00000000
00000000
00000023
,
00000000
00000230
00000000
00000000
,
00000300
00001000
00000010
00010000
,
00001000
00000000
00010000
00000000
00001000
00000000
00000000
00001000
,
00000000
01000000
00010000
00000000
,
10000000
01000000
00100000
00010000
,
00100000
00000000
00001000
00000000
00000000
00001000
00000000
00000000
,
00010000
00000100
00001000
00000000
,
00000001
00000100
00000020
00000000
,
00000130
00000000
00000010
00010000
,
00001000
00010000
00000000
00001000
,
01000000
00010000
01000000
00100000
,
10000000
00000000
00000000
10000000
00000000
00000000
01000000
00000000
,
00100000
01000000
00100000
00010000
,
00100000
00001000
00010000
00001000
,
00010000
00000100
00010000
00000010
,
00000110
00000001
00000010
00000001
,
00001000
00000010
00001000
00000100
,
00010000
00001000
01000000
01100000
,
00010000
00100000
01000000
10000000
,
01000000
00100000
00010000
01000000
,
00001000
00010000
00011000
00001000
,
00010000
00000010
00001000
00000100
,
00000010
00000001
00000100
00000010
,
00001000
00001001
00000010
00000010
,
00000100
00000100
00000110
00000000
,
00010000
00001000
00010000
00011000
,
00000000
00100000
01000000
00100000
,
01000000
01100000
00000000
10000000
,
00000000
00010000
00000000
00000000
00100000
00000000
00001000
00000000
,
00010000
00001000
00002000
00003000
,
00000100
00000200
00000300
00000001
,
00000002
00000003
00001000
00002000
,
00003000
00000001
00000002
00000003
,
00000010
00000020
00000030
00001000
,
00002000
00003000
00010000
00001000
,
00000000
00010000
00020000
00030000
,
00100000
00200000
00300000
10000000
,
20000000
30000000
00010000
00020000
,
00030000
10000000
20000000
30000000
,
01000000
02000000
03000000
00010000
,
00002000
00003000
00010000
00002000
,
00003000
00000010
00000200
00000300
,
00000010
00000200
00000300
00002000
,
00000000
00000002
00000000
00000000
,
00000000
00000000
00000000
00000000
,
00000000
00000000
00000000
00000000
,
00000000
00000000
00000000
00003003
,
00000000
00000000
00000000
00000000
;
#NOTES:
     dance-double:
     :
     Medium:
     9:
     :
00000000
00000000
00000000
00000000
,
00000000
00000000
00000000
00000000
,
00000000
00000000
00000000
00000000
,
00000000
00000000
00000000
00000000
,
00010000
00000000
00001000
00100000
00001000
00000000
00010000
00000000
,
00000100
00001000
00000100
00000000
00010000
00000000
00001000
01000000
,
00001000
00100000
00110000
10000000
,
01000000
00100000
01000000
00000000
00010000
00000000
00001000
00010000
,
00001000
00000000
00000010
00000000
00000001
00000010
00000001
00000000
,
00000100
00000000
00001001
00000000
00000001
00000000
00000010
00000100
,
00000010
00000000
00001000
00000000
00010000
00001000
00010000
00000000
,
01000000
00000000
10000000
01000000
10000000
00000000
00100000
00000000
,
10010000
00000000
00010000
00000000
00100000
00001000
00100000
00000000
,
00001000
00000000
00010000
00000010
00010000
00000000
00000010
00000000
,
00001000
00000001
00001000
00000000
00000010
00000000
00000110
00000000
,
00000000
00000001
00000100
00000020
,
00000000
00020030
00000000
00031000
,
01000000
00010000
10000000
01000000
,
00000000
10000000
00100000
02000000
,
00000000
00000000
03002000
00000000
00000000
00000000
00013000
00000010
,
00000000
00000010
00001000
00000000
00000100
00000000
00000010
00000000
,
00000000
00000001
00001000
00000200
,
00000300
00010000
00001000
00000000
01000000
00000000
00010000
01000000
,
00000000
00010000
01000000
00000000
00100000
00000000
00000000
00000000
,
00000000
10000000
00010000
02000000
,
03000000
00001000
00010000
00000000
00000010
00000000
00001000
00000001
,
00000000
00001000
00000100
00000010
,
00000001
00000000
00000100
00000010
00000100
00000000
00000010
00000000
,
00001000
00000000
00001000
00000000
00000100
00000000
00010000
00001000
,
00010000
00002000
00023000
02030000
,
13000000
00000000
00100000
01000000
00100000
00000000
01000000
00000000
,
00010000
00000000
00010000
00000000
00100000
00000000
00001000
00010000
,
00000000
00010000
00000010
00000000
00001000
00000000
00000100
00000000
,
00001000
00000001
00001000
00000200
,
00000300
00010000
00001000
00000000
01000000
00000000
00010000
10000000
,
00000000
00100000
10000000
00000000
00010000
00000000
00000000
00000000
,
00000000
10000000
00010000
02000000
,
03000000
00001000
00010000
00000000
00000020
00000000
00000000
00002030
,
00000000
00003200
00000000
00000000
,
00010300
00001000
01000000
00010000
,
00100000
01000000
00100000
00000000
00010000
00000000
10000000
00100000
,
00000000
10000000
00100000
00000000
01000000
00000000
00000000
00000000
,
00010000
00000000
00100000
00000000
00001000
00000000
00010000
00001000
,
00010000
00000000
00000010
00000000
00001000
00000001
00000000
00001000
,
00000001
00000100
00000010
00000000
,
00001000
00000010
00020000
00031000
,
00011000
00000000
00001000
00100000
,
00010000
00110000
00000000
10000000
,
00010000
00000000
00100000
00000000
01000000
00100000
01000000
00000000
,
00100000
00000000
00010000
01000000
00000000
00010000
01000000
00000000
,
00001000
00000000
00010000
00000000
00000010
00000000
00001000
00000100
,
00001000
00000000
00000001
00000000
00001000
00000100
00001000
00000000
,
00000010
00000000
00010000
00000100
00010000
00000000
00001000
00000000
,
01001000
00000000
01000000
00000000
00010000
00100000
00010000
00000000
,
10000000
00000000
00010000
00100000
00010000
00000000
01000000
00000000
,
00001000
00100000
00001000
00000000
00010000
00000000
00010100
00000000
,
00000100
00000000
00001000
00000100
00000010
00000000
00000001
00000000
,
00001000
00000100
00010000
00000000
00001000
00000000
00100000
00010000
,
10000000
01000000
11000000
10000000
,
00100000
01000000
00010000
00000000
00100000
00000000
00001000
00010000
,
00000010
00000000
00001000
00000000
00000001
00000010
00000100
00000000
,
00000010
00000000
00001001
00000000
00001000
00000000
00000100
00010000
,
00000100
00010000
00011000
00000000
,
00001000
00000000
01000000
00010000
01000000
00000000
01010000
00000000
,
00000000
00000000
10000000
00000000
00100000
10000000
00100000
00000000
,
01000000
01100000
00000000
00010000
,
10000000
01000000
00000000
10000000
01000000
00000000
00100000
00000000
,
00010000
00000000
00100000
00000000
00200000
00000000
00300000
00001000
,
00010000
00000000
00020000
00000000
00030000
00000100
00001000
00000000
,
00002000
00000000
00003000
00000001
00000100
00000000
00000200
00000000
,
00000300
00000001
00001000
00000000
00002000
00000000
00003000
00000010
,
00010000
00000000
00020000
00000000
00030000
00001000
01000000
00000000
,
02000000
00000000
03000000
00010000
00100000
00000000
01000000
10000000
,
00000000
00010000
00100000
00000000
00002000
00000000
00003000
00010000
,
00000010
00000000
00002000
00000000
00003000
00000010
00000100
00000010
,
00002000
00000000
00003000
00000100
00000010
00000100
00000020
00000000
,
00000030
00000001
00000100
00000000
00000020
00000000
00000030
00010000
,
00001000
00000000
02000000
00000000
03000000
00100000
10000000
00000000
,
00020000
00000000
00030000
10000000
01000000
00000000
00200000
00000000
,
00300000
00001000
00010000
00000000
00000020
00000000
00000030
00001000
,
00000001
00000000
00000200
00000000
00000300
00000010
00020000
00000000
,
00000000
00002000
00000000
00000000
,
00000000
00000000
00000000
00000000
,
00000000
00000000
00000000
00000000
,
00000000
00000000
00000000
00033000
,
00000000
00000000
00000000
00000000
;
#NOTES:
     dance-double:
     :
     Hard:
     12:
     :
00000000
00000000
00000000
00000000
,
00000000
00000000
00000000
00000000
,
00000000
00000000
00000000
00000000
,
00000000
00000000
00000000
00000000
,
00000001
00000100
00000010
00001000
00000010
00000000
00010000
00001000
,
00100000
00010000
00100000
00000000
01000000
10000000
00010000
01000000
,
00010000
00000000
00100000
00000000
00001000
00000000
00010000
00000100
,
00001000
00000001
00001000
00000000
00000100
00000010
00000001
00001000
,
00000001
00000000
00000100
00000010
00001000
00000100
00001000
00000000
,
00000010
00000000
00010000
00000000
00001000
00100000
00010000
10000000
,
00010000
00000000
00100000
01000000
10000000
00010000
10000000
00000000
,
00100000
01000000
00010000
00100000
00010000
00000000
01000000
00000000
,
00010000
00000000
10000000
01000000
00010000
00001000
00000010
00000000
,
00000001
00000100
00001000
00010000
00100000
00000000
10000000
01000000
,
00100000
00010000
00001000
00000000
00000100
00000000
00000010
00000000
,
00000011
00000000
00001000
00000100
00001000
00000100
00020000
00000000
,
00000000
00031000
00200000
00000000
00000000
00300000
00010000
00100000
,
10000000
00100000
01000000
00000000
10000000
00000000
00100000
00000000
,
10100000
00000000
00010000
01000000
00010000
01000000
00002000
00000000
,
00000000
00000000
00013000
00000000
00010010
00000000
00000010
00000100
,
00000000
00000100
00000001
00001000
00000100
00000000
00001000
00000000
,
00001001
00000000
00000001
00000100
00001000
00000000
00020000
00000000
,
00030000
00100000
01000000
10000000
01000000
00000000
00010000
00100000
,
00000000
01000000
10000000
00000000
00100000
00000000
01000000
00000000
,
10010000
00000000
10000000
01000000
00010000
00000000
00002000
00000000
,
00003000
00000010
00000100
00000001
00000100
00000000
00001000
00000001
,
00000000
00000100
00001000
00010000
,
00011000
00000000
00001000
01000000
00010000
01000000
00200000
00000000
,
00300000
10000000
01000000
00000000
01100000
00000000
10000000
01000000
,
00100000
00010000
00002000
00000000
00003200
00000000
00000320
00000000
,
00000031
00000000
00001000
00000100
00001000
00000100
00020000
00000000
,
00030000
00001000
01000000
00000000
01100000
00000000
00010000
10000000
,
00000000
10000000
00100000
00010000
00001000
00000000
00000100
00000000
,
00000001
00000000
00001000
00000100
00001000
00000000
00000020
00000000
,
00000030
00010000
00001000
00100000
00010000
00000000
01000000
00100000
,
00000000
10000000
01000000
00000000
01100000
00000000
00110000
00000000
,
10000000
00000000
00010000
01000000
00010000
00000000
00200000
00000000
,
00300000
00001000
00010000
00000100
00002000
00000000
00000000
00003002
,
00000000
00000013
00001000
00010000
,
00011000
00000000
00001000
00010000
01000000
00000000
00100000
00100000
,
00010000
00100000
00010000
00000000
10000000
00000000
00100000
01000000
,
00000000
00010000
01000000
00000000
00001000
00000000
00010000
00000000
,
00001000
00000100
00000001
00000000
00000010
00000010
00000001
00000010
,
00000001
00000000
00001000
00000000
00000010
00010000
00000000
00001000
,
00010000
00100000
10000000
10010000
,
10000000
01000000
00010000
00001000
00000020
00000000
00000032
00000000
,
00001003
00000000
00001001
00000000
00000001
00000100
00001000
00010000
,
00100000
00000000
01100000
00000000
10100000
00000000
10000000
01000000
,
00010000
00000000
00001000
00001000
00010000
00000100
00001000
00000000
,
00000001
00000000
00000100
00001000
00000000
00000100
00000010
00000000
,
00001000
00000000
00000100
00000000
00000010
00000001
00000100
00000010
,
00001000
00000100
00010000
00001000
00100000
00010000
01000000
00100000
,
10000000
01000000
00100000
00010000
01000000
00100000
10000000
00000000
,
01100000
00000000
00100000
10000000
01000000
00100000
00010000
01000000
,
00001000
00010000
00000010
00001000
00000100
00000010
00000001
00000100
,
00000010
00001000
00000100
00000010
00000001
00000000
00000110
00000000
,
00000001
00000010
00001000
00010000
01000000
10000000
01000000
00100000
,
00010000
00001000
00000100
00000010
00000001
00000100
00001000
00010000
,
00100000
10000000
00010000
00000000
10010000
00000000
10000000
01000000
,
00010000
00001000
00000010
00000001
00000010
00000100
00001000
00010000
,
00100000
01000000
10000000
00100000
00010000
00001000
00000100
00000001
,
00001000
00000000
00001001
00000001
00000100
00000010
00001000
00000010
,
00010000
00001000
00010000
00000000
00011000
00000000
00000000
00000000
,
00001000
00100000
00010000
00100000
00010000
00000000
10010000
00000000
,
00000000
10000000
01000000
00100000
00010000
00100000
00001000
00010000
,
00001000
00011000
00000000
00010000
,
00001000
00000100
00000000
00000001
00000100
00000000
00000010
00000000
,
00001000
00000100
00001000
00000000
00000100
00010000
00010000
00001000
,
01000000
00000000
00010000
00100000
00100000
01000000
10000000
00000000
,
00010000
01000000
01000000
00001000
00010000
00000000
00000020
00000000
,
00000030
00001000
00000100
00000000
00000010
00000001
00000001
00001000
,
00000100
00000000
00010000
00001000
00001000
00100000
00010000
00000000
,
10000000
01000000
01000000
10000000
01000000
00000000
00010000
00001000
,
00000000
00010000
00000010
00000000
00001000
00000001
00000001
00000100
,
00000010
00000000
00001000
00000100
00000100
00010000
00001000
00010000
,
00001000
00100000
00100000
00010000
01000000
00100000
20000000
00000000
,
30000000
01000000
00010000
00000000
00002000
00000000
00003000
00000100
,
00000001
00000000
00002000
00000000
00003000
00000001
00000010
00000000
,
00002000
00000000
00003000
00010000
00100000
00000000
20000000
00000000
,
30000000
01000000
00010000
00000000
00002000
00000000
00003000
00000100
,
00000001
00000000
00000020
00000000
00000030
00000100
00002000
00000000
,
00000000
00020000
00000000
00000000
,
00000000
00000000
00000000
00000000
,
00000000
00000000
00000000
00000000
,
00000000
00000000
00000000
00033000
,
00000000
00000000
00000000
00000000
;
