
//----- song ID: douw -----//
#TITLE:童話回廊;
#ARTIST:DJ TOTTO;
#TITLETRANSLIT:Douwa kairou;
#BANNER:Douwa kairou.png;
#BACKGROUND:Douwa kairou-bg.png;
#CDTITLE:./CDTitles/GITADORA OverDrive.png;
#MUSIC:Douwa kairou.ogg;
#SAMPLESTART:76.476;
#SAMPLELENGTH:15;
#BPMS:0=262;
#NOTES:
     dance-single:
     :
     Beginner:
     3:
     :
0000
0000
0000
0000
,
0000
0000
0000
0000
,
0000
0000
0000
0000
,
0000
0000
0000
0000
,
0000
0000
0000
0000
,
0000
0000
0000
0000
,
0000
0000
0000
0000
,
0000
0000
0000
0000
,
0000
0000
0000
0000
,
0000
0000
0000
0000
,
0000
0000
0000
0000
,
0000
0000
0000
0000
,
0001
0000
0000
0000
,
0000
0001
0000
0000
,
0000
0000
1000
0000
,
0000
0000
0000
1000
,
0000
0000
0000
0000
,
0010
0000
0000
0000
,
0000
0010
0000
0000
,
0000
0000
0100
0000
,
0000
0000
0000
0100
,
0000
0000
0000
0000
,
0000
0002
0000
0000
,
0000
0000
0000
0003
,
0000
0000
0000
0000
,
0000
1000
0000
0000
,
0000
0000
0000
1000
,
0000
0000
0000
0000
,
0000
0010
0000
0000
,
0000
0000
0000
0010
,
0000
0000
0000
0000
,
0000
0100
0000
0000
,
0000
0000
0000
0100
,
0000
0000
0000
0000
,
0000
0001
0000
0000
,
0000
0000
0000
0001
,
0000
0000
0000
0000
,
0000
1000
0000
0000
,
0000
0000
0000
1000
,
0000
0000
0000
0000
,
0000
0001
0000
0000
,
0000
0000
0000
0001
,
0000
0000
0000
0000
,
0000
0100
0000
0000
,
0000
0000
0000
0100
,
0000
0000
0000
0000
,
0000
0001
0000
0000
,
0000
0000
0000
0001
,
0000
0000
0000
0000
,
0000
0001
0000
0000
,
0000
0000
0001
0000
,
0000
0000
0000
0010
,
0000
0000
0000
0000
,
0010
0000
0000
0000
,
0000
0100
0000
0000
,
0000
0000
0100
0000
,
0000
0000
0000
1000
,
0000
0000
0000
0000
,
1000
0000
0000
0000
,
0000
0000
0010
0000
,
0000
0010
0000
0000
,
0010
0000
0000
0000
,
0000
0000
0100
0000
,
0000
0100
0000
0000
,
0100
0000
0000
0000
,
0000
0000
0001
0000
,
0000
0001
0000
0000
,
0001
0000
0000
0000
,
0000
0000
1000
0000
,
0000
1000
0000
0000
,
1000
0000
0000
0000
,
0000
0000
0001
0000
,
0000
0000
0000
0000
,
0001
0000
0000
0000
,
0000
0000
0001
0000
,
0000
0000
0000
0000
,
0001
0000
0000
0000
,
0000
0000
1000
0000
,
0000
0000
0000
0000
,
1000
0000
0000
0000
,
0000
0000
1000
0000
,
0000
0000
0000
0000
,
1000
0000
0000
0000
,
0000
0000
0010
0000
,
0000
0010
0000
0000
,
0010
0000
0000
0000
,
0000
0000
0100
0000
,
0000
0100
0000
0000
,
0100
0000
0000
0000
,
0000
0000
0010
0000
,
0000
0010
0000
0000
,
0010
0000
0000
0000
,
0000
0000
0100
0000
,
0000
0100
0000
0000
,
0100
0000
0000
0000
,
0000
0000
1001
0000
,
0000
0000
0000
0000
,
1001
0000
0000
0000
,
0000
0000
0001
0000
,
0000
1000
0000
0000
,
0001
0000
0000
0000
,
0000
0000
0100
0000
,
0000
0010
0000
0000
,
0100
0000
0000
0000
,
0000
0000
0001
0000
,
0000
1000
0000
0000
,
0010
0000
0000
0000
,
0000
0000
1000
0000
,
0000
0001
0000
0000
,
0100
0000
0000
0000
,
0000
0000
0001
0000
,
0000
1000
0000
0000
,
0010
0000
0000
0000
,
0000
0000
2002
0000
,
0000
0000
0000
0000
,
0000
0000
0000
0000
,
0000
0000
0000
0000
,
0000
0000
0000
0000
,
0000
3003
0000
0000
,
0000
0000
0000
0000
;
#NOTES:
     dance-single:
     :
     Easy:
     7:
     :
0000
0000
0000
0000
,
0000
0000
0000
0000
,
0000
0000
0000
0000
,
0000
0000
0000
0000
,
0000
0000
0000
0000
,
0000
0000
0000
0000
,
0000
0000
0000
0000
,
0002
0000
0000
0003
,
0000
2000
0000
0000
,
3000
0000
0002
0000
,
0000
0003
0000
2000
,
0000
0000
3000
0000
,
0200
0000
0300
1000
,
0010
0200
0000
0300
,
0001
1000
0200
0000
,
0300
1000
0010
0200
,
0000
0300
0001
1000
,
0020
0000
0030
1000
,
0001
0020
0000
0030
,
0100
1000
0020
0000
,
0030
0100
0001
0020
,
0000
0030
0100
1000
,
0001
0200
0000
0000
,
0000
0000
0000
0300
,
0000
0000
0000
0000
,
0000
0001
0000
1000
,
0100
0000
1000
0010
,
0000
0100
0001
0000
,
0010
0001
0000
1000
,
0100
0000
1000
0010
,
0000
0100
0001
0000
,
0010
0001
0000
0000
,
1000
0000
0000
0001
,
0000
0000
0100
0000
,
0000
0010
0000
0000
,
1000
0000
0000
0001
,
0000
0000
0100
0000
,
0000
1001
0000
0001
,
0100
0000
0001
0010
,
0000
0100
1000
0000
,
0010
1000
0000
0001
,
0100
0000
0001
0010
,
0000
0100
1000
0000
,
0010
1000
0000
0000
,
1000
0000
0000
0010
,
0000
0000
0100
0000
,
0000
0001
0000
0000
,
1000
0000
0000
0010
,
0000
0000
0100
0000
,
0000
0002
0000
0003
,
0010
0100
2000
0000
,
3000
0100
0010
0002
,
0000
0003
1000
0010
,
0200
0000
0300
0001
,
0100
0020
0000
0030
,
1000
0100
0020
0000
,
0030
0001
0100
0020
,
0000
0030
0100
0001
,
2000
0000
3000
0001
,
0000
0000
1001
0000
,
0000
1000
0000
0000
,
0010
0000
0100
0002
,
0000
0003
1000
0000
,
0000
0001
0000
0000
,
0100
0000
0010
0200
,
0000
0300
0001
0000
,
0000
1000
0000
0000
,
0001
0000
1000
0020
,
0000
0030
0100
0000
,
0000
0001
0000
1000
,
0100
0000
0010
0001
,
0000
0000
2000
0000
,
0000
3000
0000
0000
,
0002
0000
0000
0003
,
0000
0000
0020
0000
,
0000
0030
0000
0000
,
0200
0000
0000
0300
,
0000
0000
2000
0000
,
0000
3000
0000
0000
,
0020
0000
0000
0030
,
0000
0000
1000
0000
,
0001
0001
0000
0100
,
0100
0000
0000
0010
,
0000
0000
1000
0100
,
1000
0100
0000
0000
,
0010
0001
0010
0001
,
0000
0000
1000
0000
,
0100
1000
0000
0010
,
0100
0000
0001
0010
,
0000
0000
0001
1000
,
0001
1000
0000
0000
,
0010
0100
0010
0100
,
0000
0000
0001
0000
,
0010
0001
0000
0100
,
0010
0000
1000
0100
,
0000
0000
1001
0000
,
0000
0110
0000
0000
,
1001
0000
0000
0110
,
0000
0000
0001
0100
,
0001
0100
0000
0000
,
0010
1000
0010
1000
,
0000
0000
0001
0000
,
1000
0010
0000
0100
,
0010
0000
0100
0001
,
0000
0000
0002
0000
,
0003
2000
0000
3000
,
0020
0000
0030
0200
,
0000
0300
0101
0000
,
0000
0011
0000
0000
,
0110
0000
0000
1100
,
0000
0000
1000
0001
,
1000
0001
0000
0000
,
0100
0010
0100
0010
,
0000
0000
2002
0000
,
0000
0000
0000
0000
,
0000
0000
0000
0000
,
0000
0000
0000
0000
,
0000
0000
0000
0000
,
0000
3003
0000
0000
,
0000
0000
0000
0000
;
#NOTES:
     dance-single:
     :
     Medium:
     12:
     :
0000
0000
0000
0000
,
0000
0000
0000
0000
,
0000
0000
0000
0000
,
0000
0000
0000
0000
,
0000
0000
0000
0000
,
0000
0000
0000
0000
,
0000
0000
0000
0000
,
0002
0000
0000
0000
,
0003
2000
0000
0000
,
0000
3000
0020
0000
,
0000
0000
0030
0200
,
0000
0000
0000
0300
,
0002
0023
2030
3020
,
0032
2003
3020
0032
,
0023
2030
3002
0023
,
2030
3020
0032
2003
,
3020
0032
0023
1030
,
2000
3200
0302
0203
,
2300
3002
0203
2300
,
3200
0302
2003
3200
,
0302
0203
2300
3002
,
0203
2300
3200
0302
,
1003
2002
0000
0000
,
0000
0000
0000
0000
0000
0000
0000
0000
0000
0000
0000
0000
0000
0000
0000
0000
0000
0000
0000
0000
0000
0000
0000
0000
3000
0003
0000
0000
0000
0000
0000
0000
,
0000
0000
0000
0000
,
0000
1000
0001
0100
,
0001
0010
0100
1000
,
0000
0010
0100
0001
,
1000
0100
0000
1000
,
0010
0100
0001
0010
,
0000
0001
1000
0000
,
0010
0100
0000
0001
,
1000
0100
0010
0001
,
0000
0001
0010
0100
,
1000
0000
0001
0000
0000
0100
0000
0000
,
0001
0010
0100
1000
,
1000
0001
0100
0010
,
1000
1001
0000
0001
,
0010
1000
0010
0001
,
0000
0001
0010
0100
,
0001
0100
0000
1000
,
0010
0001
0010
0100
,
0000
0000
0001
1000
0001
0000
0010
0000
,
0100
2000
0010
3010
,
2000
0001
3001
2000
,
0100
3100
2000
0010
,
3010
1000
0001
0010
,
1000
0010
0001
0200
,
0000
0300
0020
0000
,
0030
0002
0023
2030
,
3200
0302
2003
3020
,
0032
0203
2300
3002
,
0023
2030
3200
0302
,
2003
3020
0032
0203
,
1300
2000
3200
0302
,
0023
2030
3002
0203
,
2300
3020
0032
2003
,
3200
0302
0023
2030
,
3002
0203
2300
3020
,
0230
0302
0013
0000
,
0001
0001
0000
1000
,
1000
0010
0100
0001
,
0000
1000
1000
0000
,
0001
1000
0001
0000
0100
0000
0010
0000
,
1000
0100
1000
1001
,
0000
0000
0002
0100
,
0000
2003
0010
0000
,
3002
0100
0000
2003
,
0010
0000
3001
0010
,
0100
1000
0001
0100
,
0010
0100
0001
0010
,
0100
1000
0002
0000
,
0000
0003
0000
0000
,
0020
0000
0000
0030
,
0000
0000
0200
0000
,
0000
0300
0000
0000
,
2000
0000
0000
3000
,
0000
0000
0020
0000
,
0000
0030
0000
0000
,
0200
0000
0000
0300
,
0000
0000
0001
0001
,
0001
1000
1000
1000
,
0010
0100
0001
1001
,
0000
0000
0000
0000
1000
0000
0100
1000
,
0100
1000
0010
0010
,
0100
0001
1000
0100
,
0000
0000
1000
0010
,
0001
0001
0010
1000
,
1000
0100
0001
0001
,
0100
0000
1000
0000
0001
0000
0010
0001
,
0010
0001
0100
0100
,
0010
1000
0001
0010
,
0000
0000
0001
0100
,
1000
1000
0100
0001
,
0001
0010
1000
1000
,
0010
0001
1001
0000
,
0000
0110
0000
0000
,
1001
0001
0100
0020
,
0000
0030
1000
0001
,
0100
0010
1000
0001
,
0010
0100
1000
0010
,
0000
0000
0010
1000
,
0001
0101
0000
0000
,
1010
1000
0001
0010
,
0100
0000
0000
0000
0100
0000
1000
0100
,
1000
0001
0100
0100
,
0010
1000
1000
0001
,
0010
0000
0001
0000
0100
0000
0010
0100
,
0010
1000
0001
0001
,
0010
0100
0100
1000
,
0001
0100
0001
0010
,
1000
0001
0100
1000
,
0001
0100
1000
0001
,
0010
1000
2002
0000
,
0000
0000
0000
0000
,
0000
0000
0000
0000
,
0003
0000
0000
0000
,
0000
0000
0000
0000
,
0000
3000
0000
0000
,
0000
0000
0000
0000
;
#NOTES:
     dance-single:
     :
     Hard:
     15:
     :
0000
0000
0000
0000
,
0000
0000
0000
0000
,
0000
0000
0000
0000
,
0000
0000
0000
0000
,
0000
0000
0000
0000
,
0000
0000
0000
0000
,
0000
0000
0000
0000
,
2000
0000
0000
0000
,
0000
3020
0000
0000
,
0000
0000
0230
0000
,
0000
0000
0000
0000
0300
0000
0001
1000
,
0000
0001
1000
0000
0100
0010
0001
0000
,
0001
0010
0001
0100
0010
1000
0100
1000
,
0001
0000
0001
0010
0001
0100
0010
1000
,
0100
1000
0001
0000
0001
0010
0001
0100
,
0010
1000
0100
1000
0001
0000
1000
0000
,
0010
0100
0001
0000
0010
0100
1000
0000
,
1000
0100
1000
0010
0100
0001
0010
0001
,
1000
0000
1000
0100
1000
0010
0100
0001
,
0010
0001
1000
0000
1000
0100
1000
0010
,
0100
0001
0010
0001
1000
0000
0001
0000
,
1000
0100
0010
0000
0001
1000
0001
1000
,
0010
0220
0000
0000
,
0000
0000
0000
0000
0000
0000
0000
0000
0000
0000
0000
0000
0000
0000
0000
0000
0000
0000
0000
0000
0000
0000
0000
0000
0030
0300
0000
0000
0000
0000
0000
0000
,
0000
0000
0000
0000
,
0000
0000
0100
0000
0000
0001
1000
0001
,
1000
0100
0010
0001
1000
0001
0100
0000
,
0000
0100
0001
1000
0001
0000
0010
0000
,
0100
0000
1000
0000
0000
0010
0100
0001
,
0100
0010
1000
0001
1000
0100
0010
0000
,
0000
0001
0010
0100
1000
0000
0001
0000
,
0100
0110
0000
0010
,
0001
0010
1000
0100
,
0000
0000
0010
0100
1000
0000
0010
0000
,
0100
0000
0001
0000
0000
1000
0000
0001
,
0010
0000
0001
0000
1000
0100
0010
0000
,
0001
0000
0100
0010
1000
0000
0001
0000
,
1000
0000
1001
0000
0000
0001
0010
0001
,
0010
0100
1000
0001
1000
0010
0100
0000
,
0000
0100
0010
0100
0001
0000
0010
0000
,
0100
0000
1000
0000
0000
1000
0100
1000
,
0010
0100
0001
0010
0001
1000
0010
0000
,
0000
0100
0001
1000
0100
0000
0010
0000
,
0001
0000
1000
0000
0001
0100
0010
0100
,
0001
0000
1000
0100
0010
0100
1000
0000
,
0001
0100
0010
0100
0001
0000
0010
0000
,
0100
0000
1000
0000
0000
0000
0001
0100
,
0001
0010
0100
1000
,
0010
1000
1001
0000
,
0000
0000
1000
0100
1000
0010
1000
0001
,
0100
0001
0010
0001
1000
0100
1000
0010
,
1000
0001
0100
0001
0010
0001
1000
0100
,
1000
0010
1000
0001
0100
0001
0010
0001
,
1000
0100
1000
0010
1000
0001
0010
0100
,
1000
0000
0001
0010
0001
0100
0001
1000
,
0010
1000
0100
1000
0001
0010
0001
0100
,
0001
1000
0010
1000
0100
1000
0001
0010
,
0001
0100
0001
1000
0010
1000
0100
1000
,
0001
0010
0001
0100
0001
1000
0010
0100
,
0001
0010
0100
1000
0001
0000
0100
0000
,
0001
0010
0100
0000
1000
0000
0001
1000
,
0010
0100
0001
0010
,
0001
0000
1000
0010
0100
0000
0001
0000
,
1000
0100
1000
0001
0100
0001
1000
0100
,
1000
0010
0100
0001
,
0010
0000
0001
0010
0100
0000
1000
0000
,
0100
0010
0001
0000
1000
0000
0001
0100
,
0010
0001
0010
1000
,
0001
0000
1000
0100
0010
0000
1000
0000
,
0010
0001
1000
0010
,
0100
0001
1000
0001
0010
0100
1000
0100
,
0010
0001
1000
0010
0200
0000
0000
0000
,
0000
0000
0000
0300
,
0002
0000
0000
0000
,
0000
0003
0020
0000
,
0000
0000
0000
0030
,
0200
0000
0000
0000
,
0000
0300
1000
0010
,
1000
0100
0010
0001
,
2000
0000
0000
0000
,
3000
0000
0001
0100
0010
0000
1000
0000
,
1010
0001
0100
0101
,
0001
0000
1000
0100
0000
0010
0001
0100
,
0001
1000
0100
0010
0002
0000
1000
0000
,
0103
0001
0010
0000
0001
1000
0010
0100
,
0001
0010
0100
1000
,
0100
0000
0010
0001
0010
0000
0001
0000
,
1000
0010
1000
0010
0100
0001
0010
0100
,
1000
0001
0100
0010
,
1000
0100
2000
0001
,
3010
1000
0100
0000
1000
0001
0100
0010
,
1000
0000
0100
0000
0010
0000
0001
1000
,
0001
1000
0001
0000
0100
0000
0001
0010
,
0100
0010
0001
0000
1000
0010
0100
0010
,
1000
0001
0010
0100
,
1000
0010
0220
0330
,
0000
2002
3003
0000
,
0002
0023
0230
2300
,
3001
0100
0001
0010
0100
0000
1000
0000
,
0001
1000
0100
0010
,
0100
1000
0010
0100
,
0001
0000
1000
0000
1001
0000
0001
0100
,
0010
0000
1000
0000
0010
0100
0001
0000
,
0010
0100
1000
0100
,
0010
0000
0001
0000
1000
0000
0001
0100
,
0001
0010
0100
1000
0010
1000
0001
0010
,
0001
0100
0010
1000
0100
1000
0001
0000
,
0100
0000
0010
0000
1000
0100
1000
0010
,
1000
0001
0100
0001
0010
0001
1000
0100
,
1000
0010
0100
0001
0010
0001
1000
0010
,
0100
0001
0010
0001
1000
0100
1000
0010
,
0100
0001
0010
0100
1000
0010
1000
0100
,
0010
0001
1000
0010
0100
0001
0010
0100
,
1000
0010
2000
0000
0002
0000
0000
0000
,
0000
0000
0000
0000
,
0000
0000
0000
0000
,
3000
0000
0000
0000
,
0000
0000
0000
0000
,
0000
0003
0000
0000
,
0000
0000
0000
0000
;
#NOTES:
     dance-double:
     :
     Easy:
     7:
     :
00000000
00000000
00000000
00000000
,
00000000
00000000
00000000
00000000
,
00000000
00000000
00000000
00000000
,
00000000
00000000
00000000
00000000
,
00000000
00000000
00000000
00000000
,
00000000
00000000
00000000
00000000
,
00000000
00000000
00000000
00000000
,
00002000
00000000
00000000
00003000
,
00000000
00020000
00000000
00000000
,
00030000
00000000
00002000
00000000
,
00000000
00003000
00000000
00020000
,
00000000
00000000
00030000
00000000
,
00000020
00000000
00000030
00010000
,
00000100
00000020
00000000
00000030
,
00000100
00001000
00000020
00000000
,
00000030
00001000
00000100
00010000
,
00000000
00001000
00010000
00001000
,
00200000
00000000
00300000
00001000
,
01000000
00200000
00000000
00300000
,
01000000
00010000
00200000
00000000
,
00300000
00010000
01000000
00200000
,
00000000
00300000
01000000
00001000
,
00010000
00002000
00000000
00000000
,
00000000
00000000
00000000
00003000
,
00000000
00000000
00000000
00000000
,
00000000
00001000
00000000
00001000
,
00010000
00000000
00000100
00010000
,
00000000
00000100
00001000
00000000
,
00000001
00000010
00000000
00000100
,
00001000
00000000
00000100
00010000
,
00000000
00001000
00010000
00000000
,
00000000
00001000
00000000
00000000
,
01000000
00000000
00000000
00100000
,
00000000
00000000
10000000
00000000
,
00000000
01000000
00000000
00000000
,
00010000
00000000
00000000
00001000
,
00000000
00000000
00010000
00000000
,
00000000
00001000
00000000
00010000
,
00001000
00000000
00100000
00010000
,
00000000
01000000
00100000
00000000
,
10000000
01000000
00000000
00100000
,
00010000
00000000
10000000
00100000
,
00000000
01000000
00010000
00000000
,
00000000
10000000
00000000
00000000
,
01000000
00000000
00000000
00010000
,
00000000
00000000
00001000
00000000
,
00000000
00000010
00000000
00000000
,
00000001
00000000
00000000
00001000
,
00000000
00000000
00000001
00000000
,
00000000
00000200
00000000
00000300
,
00000001
00000010
00000200
00000000
,
00000300
00001000
00000010
00000200
,
00000000
00000300
00001000
00010000
,
00000200
00000000
00000300
00010000
,
00001000
02000000
00000000
03000000
,
00010000
00100000
02000000
00000000
,
03000000
10000000
00100000
02000000
,
00000000
03000000
00001000
00010000
,
02000000
00000000
03000000
10000000
,
00100000
01000000
00010000
00000000
,
00000000
00100000
00000000
00000000
,
00001000
00010000
00001000
00020000
,
00000000
00030000
00000100
00000000
,
00000000
00001000
00000000
00000000
,
00000001
00000100
00000001
00000200
,
00000000
00000300
00000010
00000000
,
00000000
00010000
00000000
00000000
,
00001000
00010000
00001000
00020000
,
00000000
00030000
00100000
00000000
,
00000000
01000000
00010000
01000000
,
00010000
00000000
00000000
00100000
,
00000000
00000000
00002000
00000000
,
00000000
00003000
00000000
00000000
,
00000200
00000000
00000000
00000300
,
00000000
00000000
00000002
00000000
,
00000000
00000003
00000000
00000000
,
00000020
00000000
00000000
00000030
,
00000000
00000000
00000200
00000000
,
00000000
00000300
00000000
00000000
,
00020000
00000000
00000000
00030000
,
00000000
00000000
00001000
00010000
,
00001000
00010000
00001000
00010000
,
00001000
00000000
00000000
00100000
,
00000000
00000000
00010000
00000000
,
10000000
01000000
00000000
00100000
,
00010000
00000000
00100000
00001000
,
00000000
00000000
00010000
00000000
,
00000000
00000100
00001000
00000100
,
00001000
00000000
00000000
00000001
,
00000000
00000000
00000100
00000000
,
00000001
00000010
00000000
00000100
,
00001000
00000000
00000010
00010000
,
00000000
00000000
00001000
00000000
,
01000000
00010000
00000000
00100000
,
00010000
00000000
00100000
00001000
,
00000000
00000000
00011000
00000000
,
00000000
00001010
00000000
00000000
,
00000110
00000000
00000000
00001001
,
00000000
00000000
00001000
00000000
,
00000000
00000010
00001000
00000010
,
00001000
00000000
00000000
00000001
,
00000000
00000000
00000010
00000000
,
00000000
00000100
00000000
00000000
,
00010000
00001000
00010000
00001000
,
00000000
00000000
00002000
00000000
,
00003000
00020000
00000000
00030000
,
00200000
00000000
00300000
02000000
,
00000000
03000000
01010000
00000000
,
00000000
00110000
00000000
00000000
,
00101000
00000000
00000000
00011000
,
00000000
00000000
00010000
00000100
,
00010000
00000100
00000000
00000000
,
00001000
00000010
00001000
00000010
,
00000000
00000000
00002002
00000000
,
00000000
00000000
00000000
00000000
,
00000000
00000000
00000000
00000000
,
00000000
00000000
00000000
00000000
,
00000000
00000000
00000000
00000000
,
00000000
00003003
00000000
00000000
,
00000000
00000000
00000000
00000000
;
#NOTES:
     dance-double:
     :
     Medium:
     12:
     :
00000000
00000000
00000000
00000000
,
00000000
00000000
00000000
00000000
,
00000000
00000000
00000000
00000000
,
00000000
00000000
00000000
00000000
,
00000000
00000000
00000000
00000000
,
00000000
00000000
00000000
00000000
,
00000000
00000000
00000000
00000000
,
00002000
00000000
00000000
00000000
,
00003000
00020000
00000000
00000000
,
00000000
00030000
00002000
00000000
,
00000000
00000000
00003000
00020000
,
00000000
00000000
00000000
00030000
,
00002000
00023000
02030000
03200000
,
00302000
02003000
03200000
00320000
,
00032000
02003000
03002000
00023000
,
02030000
03200000
00320000
02030000
,
03200000
00320000
00032000
00013000
,
00020000
00032000
00003200
00000320
,
00020030
00030200
00000320
00002030
,
00023000
00030200
00020300
00032000
,
00003200
00000320
00002030
00003200
,
00000320
00002030
00023000
00032000
,
00013000
00022000
00000000
00000000
,
00000000
00000000
00000000
00000000
00000000
00000000
00000000
00000000
00000000
00000000
00000000
00000000
00000000
00000000
00000000
00000000
00000000
00000000
00000000
00000000
00000000
00000000
00000000
00000000
00030000
00003000
00000000
00000000
00000000
00000000
00000000
00000000
,
00000000
00000000
00000000
00000000
,
00000000
00001000
00010000
00001000
,
01000000
00010000
00100000
01000000
,
00000000
10000000
00100000
00010000
,
00001000
00100000
00000000
00010000
,
00100000
01000000
00010000
00001000
,
00000000
00010000
00000010
00000100
,
00000010
00001000
00000000
00000001
,
00000010
00000100
00001000
00000010
,
00000000
00010000
00001000
01000000
,
00010000
00000000
00100000
00000000
00000000
01000000
00000000
00000000
,
00100000
00010000
10000000
00010000
,
10000000
00100000
01000000
00010000
,
00100000
00110000
00000000
00001000
,
00010000
00001000
00000100
00000010
,
00000000
00001000
00000100
00000010
,
00001000
00010000
00000000
00001000
,
01000000
00100000
10000000
00010000
,
00000000
10000000
01000000
00100000
,
00010000
00000000
10000000
00000000
00000000
01000000
00000000
00000000
,
00010000
00000000
00000000
00001000
00000000
00000000
00000010
00000000
,
00000000
00000001
00000000
00000000
00001000
00000000
00000100
00000000
,
00000010
00000001
00000000
00000100
,
00000010
00001000
00000001
00000200
,
00000000
00000300
00000020
00000000
,
00000030
00000002
00000023
00002030
,
00003200
00000302
00002003
00003020
,
00000032
00000203
00002300
00023000
,
00230000
20300000
32000000
03020000
,
20030000
30200000
00320000
02030000
,
23000000
30020000
00230000
20300000
,
32000000
03020000
00032000
00003020
,
00000032
00000203
00002300
00003002
,
00000023
00002030
00003200
00000302
,
00002003
00003020
00000032
00000203
,
00002300
00023000
00130000
01000000
,
01000000
00010000
00100000
00100000
,
00001000
00010000
00000100
00001000
,
00000000
00000000
00001000
00000010
,
00000010
00010000
00001000
00001000
,
00100000
00010000
00100000
01000000
,
00000000
00000000
01000000
00100000
,
00100000
00010000
01000000
01000000
,
00100000
00010000
00001000
00010000
,
00000000
00000000
00000100
00000010
,
00000001
00001000
00000010
00010000
,
00002000
00000000
00003000
00020000
,
00000000
00030000
02000000
00000000
,
00000000
03000000
00000000
00000000
,
20000000
00000000
00000000
30000000
,
00000000
00000000
00200000
00000000
,
00000000
00300000
00000000
00000000
,
00020000
00000000
00000000
00030000
,
00000000
00000000
00002000
00000000
,
00000000
00003000
00000000
00000000
,
00000200
00000000
00000000
00000300
,
00000000
00000000
00000010
00000010
,
00000010
00001000
00001000
00001000
,
00000001
00000010
00000001
00001001
,
00000000
00000000
00000001
00000100
,
00001000
00010000
00100000
10000000
,
10000000
01000000
00010000
00001000
,
00000010
00000001
00001000
00000010
,
00010000
00001000
00000100
00000010
,
00010000
00001000
00010000
00100000
,
01000000
00010000
10000000
01000000
,
00010000
00001000
00000010
00000001
,
00000001
00000100
00001000
00010000
,
00100000
10000000
01000000
00100000
,
00010000
01000000
00100000
00010000
,
00001000
00010000
00000100
00000010
,
00000001
00000100
00000110
00000000
,
00000000
00011000
00000000
00000000
,
01100000
00000000
00000000
10010000
,
00000000
00000000
00010000
10000000
,
01000000
00010000
00001000
00000010
,
00001000
00010000
00001000
00000100
,
00000001
00000010
00000100
00001000
,
00000001
00000100
00001000
00010000
,
00100000
00010000
00001000
00000100
,
00001000
00010000
01000000
10000000
,
00100000
00010000
00001000
00000100
,
00000010
00010000
00001000
00000100
,
00000001
00000010
00001000
00010000
,
00000100
00000010
00001000
00010000
,
01000000
10000000
00100000
10000000
,
00100000
00010000
00001000
00000100
,
00000001
00000010
00000001
00000010
,
00001000
00010000
01000000
10000000
,
00100000
00010000
00022000
00000000
,
00000000
00000000
00000000
00000000
,
00000000
00000000
00000000
00000000
,
00030000
00000000
00000000
00000000
,
00000000
00000000
00000000
00000000
,
00000000
00003000
00000000
00000000
,
00000000
00000000
00000000
00000000
;
#NOTES:
     dance-double:
     :
     Hard:
     14:
     :
00000000
00000000
00000000
00000000
,
00000000
00000000
00000000
00000000
,
00000000
00000000
00000000
00000000
,
00000000
00000000
00000000
00000000
,
00000000
00000000
00000000
00000000
,
00000000
00000000
00000000
00000000
,
00000000
00000000
00000000
00000000
,
00020000
00000000
00000000
00000000
,
00000000
00032000
00000000
00000000
,
00000000
00000000
00023000
00000000
,
00000000
00000000
00000000
00000000
00000000
00000000
00031000
00010000
,
00000000
00001000
00010000
00000000
00001000
00000000
01000000
00000000
,
00010000
00100000
01000000
00000000
10000000
00000000
01000000
00100000
,
00010000
00000000
00100000
00001000
00010000
00000000
00000100
00000000
,
00001000
00000100
00000010
00000000
00000001
00001000
00000010
00000000
,
00010000
00000000
00001000
01000000
00010000
00000000
00100000
00001000
,
00010000
00000100
00001000
00000000
00000010
00000100
00000001
00000000
,
00001000
00000100
00000010
00000000
00000001
00000000
00000010
00000100
,
00001000
00000000
00000100
00010000
00001000
00000000
00100000
00000000
,
00010000
00100000
01000000
00000000
10000000
00010000
01000000
00000000
,
00001000
00000000
00010000
00000010
00001000
00000000
00000100
00010000
,
00001000
01000000
00010000
00000000
00100000
00000000
00001000
00010000
,
00001000
00022000
00000000
00000000
,
00000000
00000000
00000000
00000000
00000000
00000000
00000000
00000000
00000000
00000000
00000000
00000000
00000000
00000000
00000000
00000000
00000000
00000000
00000000
00000000
00000000
00000000
00000000
00000000
00003000
00030000
00000000
00000000
00000000
00000000
00000000
00000000
,
00000000
00000000
00000000
00000000
,
00000000
00000000
00001000
00000000
00000000
00010000
00001000
00100000
,
00010000
00100000
01000000
10000000
01000000
10000000
00010000
00000000
,
00000000
10000000
00010000
01000000
00100000
00000000
00010000
00000000
,
00001000
00000000
00010000
00000000
00000000
00000100
00001000
00000100
,
00000010
00000001
00001000
00000001
00001000
00000010
00000100
00000000
,
00000000
00000001
00000100
00000010
00001000
00000000
00000010
00000000
,
00010000
00011000
00000000
00001000
,
00010000
01000000
10000000
00100000
,
00000000
00000000
01000000
00010000
10000000
00000000
01000000
00000000
,
00010000
00000000
00001000
00000000
00000000
00010000
00000000
00000100
,
00001000
00000000
00000010
00000000
00000100
00000001
00001000
00000000
,
00000001
00000000
00000100
00000010
00010000
00000000
00001000
00000000
,
00010000
00000000
00011000
00000000
00000000
00010000
00000100
00001000
,
00000100
00001000
00000100
00000010
00000001
00001000
00000010
00000000
,
00000000
00000100
00000010
00001000
00000001
00000000
00000010
00000000
,
00000100
00000000
00010000
00000000
00000000
00001000
00010000
00001000
,
00100000
00010000
10000000
00100000
01000000
00010000
00100000
00000000
,
00000000
00010000
10000000
00100000
01000000
00000000
00010000
00000000
,
00100000
00000000
00010000
00000000
10000000
01000000
00000000
01000000
,
00010000
00000000
00010000
00001000
00000000
00001000
00000010
00000000
,
00000010
00000001
00000000
00000001
00000100
00000000
00000010
00000000
,
00001000
00000000
00000001
00000000
00000000
00000000
00000010
00000100
,
00001000
00000010
00010000
00002000
,
00000000
00000000
00020000
00000000
,
00033000
00000000
00001000
00000000
00010000
00000100
00001000
00000001
,
00001000
00000010
00010000
00000000
00001000
00000000
00010000
00000100
,
00001000
00000001
00001000
00000010
00010000
00000000
00001000
00000000
,
00010000
00000100
00001000
00000001
00001000
00000010
00010000
00000000
,
00000100
00001000
00000010
00010000
00001000
01000000
00010000
00100000
,
00001000
00000000
00010000
00000000
00001000
01000000
00010000
10000000
,
00010000
00100000
00001000
00000000
00010000
00000000
00001000
01000000
,
00010000
10000000
00010000
00100000
00001000
00000000
00010000
00000000
,
00001000
01000000
00010000
10000000
00010000
00100000
00001000
00000000
,
01000000
00000000
00010000
00100000
00001000
00010000
00000100
00001000
,
00000010
00010000
00001000
00000000
00010000
00000000
00000100
00001000
,
00000100
00000000
00000010
00000000
00000001
00000100
00001000
00000000
,
00010000
00100000
01000000
10000000
,
01000000
00000000
00010000
00100000
01000000
00000000
00010000
00000000
,
00001000
00010000
00000010
00000000
00010000
00000000
00001000
00000000
,
00000100
00000001
00000010
00001000
,
00010000
00000000
00001000
00000000
00100000
00000000
00010000
01000000
,
00100000
00000000
00010000
00000000
00001000
00010000
00000100
00000000
,
00000010
00001000
00000010
00000001
,
00000100
00000000
00001000
00010000
00001000
00000000
00010000
00000000
,
01000000
00000000
10000000
00010000
10000000
00010000
01000000
00000000
,
00200000
00000000
00000000
02000000
,
00000000
03300000
00002000
00000000
,
00000000
00000000
00000000
00003000
,
00020000
00000000
00000000
00000000
,
00000000
00030000
02000000
00000000
,
00000000
00000000
00000000
03000000
,
20000000
00000000
00000000
00000000
,
00000000
30000000
00200000
00000000
,
00000000
00000000
00000000
00300000
,
00020000
00000000
00000000
00000000
,
00000000
00030000
00001000
00011000
,
00011000
00010000
00010100
00010100
,
00000100
00000000
00001100
00000000
00001100
00000000
00001000
00000100
,
00000010
00000001
00000010
00000100
00001000
00000000
00000001
00000000
,
00000100
00001000
00010000
00000000
00100000
00000000
00010000
00001000
,
00100000
01000000
10000000
00100000
,
00000000
00000000
00100000
01000000
00010000
00000000
10000000
00000000
,
00100000
00000000
00010000
00001000
00010000
00001000
00010000
00000100
,
00000010
00001000
00010000
01000000
,
10000000
01000000
00100000
00010000
10000000
00000000
01000000
00010000
,
00001000
00000000
00000010
00000000
00001000
00010000
00000010
00000000
,
00000100
00000001
00000010
00000100
,
00010000
00001000
00010000
00000000
00001000
00000000
00000010
00000000
,
00000001
00001000
00000001
00000000
00000100
00000000
00000010
00010000
,
00001000
00000000
01000000
00000000
00010000
00000000
00100000
00010000
,
00100000
01000000
10000000
00000000
22000000
00000000
33000000
00000000
,
00000000
00202000
00303000
00000000
,
00022000
00033000
00000000
00020200
,
00030300
00000000
00000100
00000010
00000001
00000000
00000000
00000000
,
00001000
00000001
00000100
00000010
,
00010000
00001000
00010000
01000000
,
10000000
00000000
00100000
00000000
10000000
00000000
00010000
00100000
,
00010000
00000000
01000000
00000000
00001000
00010000
00001000
00000000
,
00100000
00000000
00001000
00010000
00001000
00000000
00000010
00000000
,
00000001
00000000
00001000
00000000
00000001
00000010
00000001
00000010
,
00000100
00000000
00010000
00001000
00010000
00001000
00100000
00000000
,
00010000
00100000
01000000
10000000
00010000
00000000
01000000
00010000
,
01000000
00010000
00100000
00000000
00001000
00010000
00000100
00010000
,
00001000
00000000
00000010
00000100
00001000
00000100
00000010
00000000
,
00000001
00001000
00000001
00001000
00000010
00000000
00010000
00001000
,
01000000
00001000
00010000
00000000
00100000
01000000
00010000
01000000
,
00100000
00000000
10000000
00010000
10000000
01000000
00100000
00000000
,
00001000
00010000
00000100
00001000
00000010
00000100
00000001
00001000
,
00000100
00000010
00000001
00000000
00002002
00000000
00000000
00000000
,
00000000
00000000
00000000
00000000
,
00000000
00000000
00000000
00000000
,
00003000
00000000
00000000
00000000
,
00000000
00000000
00000000
00000000
,
00000000
00000003
00000000
00000000
,
00000000
00000000
00000000
00000000
;
