
//----- song ID: dopa2 -----//
#VERSION:0.83;
#TITLE:ドーパミン (STARDOM Remix);
#ARTIST:ARM (IOSYS);
#TITLETRANSLIT:Dopamine (STARDOM Remix);
#BANNER:Dopamine (STARDOM Remix).png;
#BACKGROUND:Dopamine (STARDOM Remix)-bg.png;
#CDTITLE:./CDTitles/DANCERUSH STARDOM.png;
#MUSIC:Dopamine (STARDOM Remix).ogg;
#SAMPLESTART:19.603;
#SAMPLELENGTH:15;
#BPMS:0=110;
#BGSTAGE:14;
#NOTEDATA:;
#STEPSTYPE:dance-single;
#DIFFICULTY:Beginner;
#METER:2;
#NOTES:
0000
0000
0000
0000
,
0000
0000
0000
0000
,
0000
0000
0000
0000
,
0000
0000
0000
0000
,
0000
0000
0000
0000
,
1000
0000
1000
0000
,
0001
0000
0001
0000
,
1000
0000
1000
0000
,
1001
0000
0000
0000
,
0001
0000
0000
0000
,
1000
0000
0000
0000
,
0010
0000
0000
0000
,
0100
0000
0100
0000
,
0100
0000
0000
0000
,
0001
0000
0000
0000
,
1000
0000
0000
0000
,
0010
0000
0000
0000
,
0010
0020
0000
0030
,
0100
0200
0000
0300
,
0001
0000
0001
0000
,
1000
0000
1000
0000
,
0010
0020
0000
0030
,
0100
0200
0000
0300
,
0001
0000
0001
0000
,
1000
0000
1000
0000
,
1001
0000
0000
0000
,
0000
0000
0000
0000
,
0000
0000
0000
0000
,
0000
0000
0000
0000
,
0001
0000
0000
0000
,
0010
0000
0000
0000
,
0100
0000
0000
0000
,
1000
0000
0000
0000
,
0010
0000
0010
0000
,
0010
0000
0010
0000
,
0010
0000
0010
0000
,
0020
0000
0030
0000
,
1000
0000
0001
0000
,
0100
0000
0000
0000
,
0001
0000
0001
0000
,
1000
0000
1000
0000
,
0010
0000
0000
0000
,
0100
0000
0000
0000
,
0001
0000
0000
0000
,
1000
0000
0000
0000
,
1001
0000
0001
0000
,
0100
0000
0010
0000
,
1000
0000
0001
0000
,
0010
0000
0100
0000
,
1000
0000
0010
0000
,
0100
0000
0001
0000
,
1000
0000
0100
0000
,
0010
0000
0001
0000
,
0200
0000
0000
0000
,
0300
0000
0000
0000
;
#NOTEDATA:;
#STEPSTYPE:dance-single;
#DIFFICULTY:Easy;
#METER:8;
#NOTES:
0000
0000
0000
0000
,
0000
0000
0000
0000
,
0000
0000
0000
0000
,
0000
0000
0000
0000
,
0000
0000
0000
0000
,
2000
0001
0001
3010
,
0020
1000
1000
0100
,
1000
0000
1030
0000
0001
0100
1000
0100
,
0220
0000
0000
0330
,
0002
0100
1003
0001
,
0100
0010
0200
0310
,
2000
0010
3001
1000
,
0001
1000
0010
1010
,
0020
0100
1000
0100
,
0001
0100
1030
0001
,
0100
0010
0100
0001
,
2000
3200
0320
0032
,
2003
0000
0010
0000
0001
0000
3100
0010
,
0002
0100
1003
1001
,
0201
0320
2000
3030
,
0001
0100
1000
0100
,
0002
0010
1003
1001
,
2000
0010
3001
1001
,
2000
3020
0230
0302
,
1003
0100
0001
0100
,
1000
0000
0000
0000
,
0002
0000
0003
0000
,
0200
0000
0300
0000
,
0020
0000
1030
1000
,
2000
0000
0100
0000
0001
3000
0010
0100
,
0002
0000
0010
0000
1000
0003
0100
0010
,
2000
0000
0010
0000
0001
3000
0100
0010
,
0002
0103
0010
0110
,
1001
0100
1001
0010
,
1001
0100
1001
0010
,
1000
0100
0001
0100
1000
0100
0001
0100
,
0000
0000
0000
1001
,
0001
0100
0001
0100
,
0001
0100
1001
0110
,
0100
0000
0100
0000
0100
0010
0100
0000
,
0001
0001
0002
1003
,
0020
0000
0130
0001
,
0020
0000
0130
1000
,
0020
0000
0130
0001
,
1000
0100
0001
0100
,
1002
0203
0010
0302
,
1000
0203
0010
0301
,
0002
0010
1000
0103
,
0001
1000
0010
0000
,
2001
3020
0100
2030
,
0001
3020
0100
1030
,
2000
0100
0001
3010
,
1000
0001
0100
0010
,
0220
0000
0000
0000
,
0330
0000
0000
0000
;
#NOTEDATA:;
#STEPSTYPE:dance-single;
#DIFFICULTY:Medium;
#METER:12;
#BPMS:0=220,64=55,66=110,130=220,218=110,276=220,292=55;
#STOPS:218=1.091;
#NOTES:
0000
0000
0000
0000
,
0000
0000
0000
0000
,
0000
0000
0000
0000
,
0000
0000
0000
0000
,
0000
0000
0000
0000
,
0000
0000
0000
0000
,
0000
0000
0000
0000
,
0000
0000
0000
0000
,
0000
0000
0000
0000
,
0000
0000
0000
0000
,
1000
1000
0001
0001
,
0010
0000
0010
0000
0001
1000
0001
0000
,
0100
0100
0010
0010
,
1000
0000
1000
0000
0001
0100
0001
0000
,
1000
0100
1000
0000
0001
0010
0001
0000
,
1000
0010
1000
0010
0100
0001
0010
0000
,
0200
0000
0000
0300
1001
0000
1000
0010
,
0100
0001
1000
0000
0010
0000
0000
0000
1000
0000
0100
0000
0010
0000
0001
1000
,
0020
0000
0130
0000
1001
0000
1000
0100
,
0010
0000
0001
1000
0020
0000
0000
0000
0130
0000
0000
0000
0001
0000
0000
0000
,
1000
0010
0000
0010
0000
0010
0100
0000
0001
0000
0000
0000
0010
0000
0100
0000
,
1000
0001
0100
0000
0010
0000
0000
0000
0100
0000
0001
0000
1000
0000
0100
0000
,
0010
0010
0001
0000
1001
0000
1000
0010
,
0100
0000
0001
0010
0200
0000
0000
0000
1300
0000
0000
0001
0100
0000
0000
0001
,
1000
0000
0000
0100
1000
0000
0010
0000
0110
0000
0000
0000
0002
0000
0023
0000
,
0230
2300
3020
0130
0200
0302
2003
3200
,
0320
0032
1003
0001
0110
0000
0002
0023
,
0230
1300
2000
3020
2030
3200
0320
0032
,
2003
3200
0320
0032
1003
0000
2000
3020
,
0230
0302
0023
0130
0200
2300
3002
0203
,
0320
2030
3001
1000
0110
0000
2000
3020
,
0230
0301
0002
0023
0032
0203
0320
2030
,
3002
0203
0320
2030
3001
0000
0000
0000
,
0000
0000
0010
0000
,
0000
0000
0100
0000
,
0000
0000
1000
0000
,
0000
0000
0001
0000
,
0100
0000
0010
0000
,
1000
0000
0100
0000
,
0010
0000
0001
0000
,
1000
0000
0001
0010
,
0100
0000
1000
0010
,
1000
0000
0001
0010
0100
0000
1000
0000
,
0010
0000
1000
0001
,
0010
0000
0100
1000
0100
0000
0010
0000
,
0001
1000
0010
0100
,
0001
0000
0010
0001
0010
0000
0100
0000
,
1000
0010
1100
0110
,
0011
0110
1000
0001
,
0100
0001
0010
0000
0001
0000
1000
0000
,
0100
1000
0010
0000
1000
0000
0001
0000
,
0100
0001
0010
0000
0001
0000
1000
0000
,
0100
1000
0010
0000
1000
0000
1000
0000
,
0001
0000
0001
0000
1000
0010
0100
0001
,
0010
0100
1000
0000
0020
0000
0030
0000
,
1000
0000
1000
0000
0001
0100
0000
0000
0010
0000
1000
0000
0001
1000
0000
0000
,
0001
0000
0000
0000
0000
0100
0000
0000
0002
0000
0000
0000
2003
0000
0000
0000
,
3100
1100
0010
0110
0001
0011
2000
3002
,
0013
0000
0011
0000
0100
0000
0110
0000
1000
0001
1000
0001
1000
0000
0000
0000
,
0001
0000
0000
0001
0100
0000
0000
0000
0010
1000
0010
0000
0010
0000
0000
0000
,
0100
0001
0100
0000
0100
0000
0000
0000
0001
0000
0000
0000
1000
0000
0000
0000
,
0100
1000
0100
0000
0100
0000
0000
0000
0010
0001
0010
0000
0010
0000
0000
0000
,
0001
0000
0000
1000
0010
0000
0000
1000
0001
0000
0000
0010
0001
0000
0100
0000
,
1001
0000
1000
0000
0100
0000
0010
0001
0000
0001
0000
0001
0100
0000
0010
0000
,
1000
0000
0001
0000
0010
0000
0100
1000
0000
1000
0000
1000
0010
0000
0100
0000
,
0001
0000
1000
0000
0100
0000
0010
0001
0000
1000
0000
0001
0100
0000
0010
0000
,
1000
0000
0001
0000
0010
0000
0100
1000
0000
0001
0000
1000
0010
0000
0000
0000
,
1001
0000
0001
0000
0010
0000
0100
1000
0000
0010
0000
0100
0001
0000
0010
0100
,
1000
0000
0001
0000
0100
0000
0010
1000
0000
0001
0000
0010
0100
0000
1000
0001
,
0200
0000
0310
1000
,
0001
0010
0100
1000
,
0001
0100
0001
0000
1000
0100
1000
0000
,
0001
0100
0010
1000
0100
0010
0001
0000
,
0200
0000
0300
0000
;
#NOTEDATA:;
#STEPSTYPE:dance-single;
#DIFFICULTY:Hard;
#METER:15;
#BPMS:0=220,64=55,66=110,130=220,218=110,276=220,292=55;
#STOPS:218=1.091;
#NOTES:
0000
0000
0000
0000
,
0000
0000
0000
0000
,
0000
0000
0000
0000
,
0000
0000
0000
0000
,
0000
0000
0000
0000
,
0000
0000
0000
0000
,
0000
0000
0000
0000
,
0000
0000
0000
0000
,
0000
0000
0000
0000
,
0000
0000
0000
0000
,
1000
0000
0000
0001
0000
0000
0100
0000
0010
0000
0000
0000
1000
0000
0000
0000
,
0001
0000
0000
0010
0000
0000
0100
0000
1000
0000
0100
0000
1000
0000
0000
0000
,
0001
0000
0000
0100
0000
0000
0010
0000
0100
0000
0000
0000
0001
0000
0000
0000
,
1000
0000
0000
0100
0000
0000
1000
0000
0001
0000
1000
0000
0001
0000
0000
0000
,
0100
0010
0100
0010
1000
0001
1000
0001
,
0010
0100
0010
0100
1000
0001
1000
0001
,
0200
0000
0000
0010
0000
0010
0000
0010
0300
0010
1000
0001
0010
0100
1000
0000
1001
0000
0000
0000
0000
0000
0000
0000
0001
0000
0000
0000
0100
0000
0000
0000
,
0001
1000
0100
0000
1000
0010
0001
0000
0010
0000
0100
0000
0001
0000
1000
1000
,
0020
0000
0000
0000
0130
0001
0000
0010
0011
0000
0000
0000
0001
1000
0000
0010
,
0000
0100
0001
0001
0020
0000
0000
0000
0031
0000
1000
0000
0000
0010
0000
0100
,
0000
0010
1000
0001
0000
0010
0000
0100
0110
0000
0000
0000
1000
0001
0100
0000
,
0010
1000
0001
0000
1000
0100
0001
0000
0100
0010
0001
1000
0001
0100
0010
0010
,
0100
0001
1000
0000
0100
0000
0010
0000
0011
0000
0000
0000
0001
1000
0000
0010
,
0100
0000
0001
0000
1000
0000
1000
0000
0200
0000
0000
0000
0000
0000
0000
0000
1300
0000
0000
0010
0000
0000
0100
0000
0001
0000
0000
0000
1000
0000
0100
0000
,
1000
0000
0000
0010
0000
0000
0100
0000
0001
0000
1000
0000
0100
0000
0010
0000
0001
0000
0000
0000
0001
0000
0000
0000
1000
0000
1000
0000
0100
0000
0010
0000
,
0001
0001
1000
0010
0100
0010
2000
0000
3001
0001
0010
0100
1000
1000
0010
0100
,
0001
0001
0010
0100
2000
3000
0002
0003
0110
0000
0000
0000
1000
0100
1000
0010
,
0100
0001
0020
0000
0031
0001
0010
0100
1000
0100
0010
0001
1000
0100
0010
0001
,
1000
0010
0100
0010
1000
0001
0010
0000
0110
0000
1001
0000
0001
0001
0100
0010
,
1000
1000
0001
0010
0100
0010
0002
0000
1003
1000
0010
0100
0001
0001
0010
0100
,
1000
1000
0010
0100
0002
0003
2000
3000
0110
0000
0000
0000
0001
0100
0001
0010
,
0100
1000
0020
0000
1030
1000
0010
0100
0001
0100
0010
1000
0001
0100
0010
1000
,
0001
0010
0100
0010
0001
1000
0010
0000
0200
0000
0000
0000
0000
0000
0000
0000
,
0000
0000
0302
0000
,
0000
0000
2003
0000
,
0000
0000
3020
0000
,
0000
0000
0000
0000
0130
0000
0000
0001
,
0000
0000
1000
0000
0000
0100
0000
0000
,
1000
0000
0001
0000
0100
0000
0000
0010
,
0000
0000
0100
0000
0000
0001
0000
0000
,
1000
0000
0100
0000
1000
0000
0001
0100
,
0110
0000
0000
0000
0100
0000
0000
0000
0001
0000
0000
1000
0000
0000
0010
0000
,
0100
0010
1000
0000
0100
0000
1000
0001
,
0011
0000
0000
0000
0010
0000
0000
0000
0100
0000
0000
1000
0000
0000
0010
0000
,
0100
0010
0100
0000
0001
0000
1000
0010
,
0110
0000
0000
0000
0100
0000
0000
0000
0001
0000
0000
0010
0000
0000
0001
0000
,
1000
0000
0001
0000
1000
0000
0000
0000
0010
0000
0000
0010
0000
0000
0010
0000
,
0100
0000
0000
0001
0000
0000
1000
0100
1000
0100
0010
0100
,
1000
0000
0100
0000
1000
0000
0100
0000
0010
0000
0000
0000
0001
0000
0000
0000
0000
0000
1000
0000
0000
0010
0000
0000
,
0001
0000
0110
0000
0100
0000
0001
0010
,
1000
0000
0110
0000
0010
0000
0001
0100
,
1000
0000
0110
0000
0010
0000
1000
0100
,
0001
0000
0110
0000
0100
1000
0100
1000
,
0001
0100
0001
0100
0001
0010
0100
1000
,
0001
0000
0000
0000
0000
0000
0000
0000
0000
0000
0000
0000
0000
0000
0000
0000
0000
0000
0000
0000
0000
0000
0000
0000
0100
0000
0000
0000
0000
0000
0000
0000
0000
0000
0000
0000
0000
0000
0000
0000
0000
0000
0000
0000
0000
0000
0000
0000
0010
0000
0000
0000
0000
0000
0000
0000
0000
0000
0000
0000
0000
0000
0000
0000
0000
0000
0000
0000
0000
0000
0000
0000
1000
0000
0000
0000
0000
0000
0000
0000
0000
0000
0000
0000
0000
0000
0000
0000
0000
0000
0000
0000
0000
0000
0000
0000
2002
3003
0000
0000
0000
0000
0000
0000
0000
0000
0000
0000
0000
0000
0000
0000
0000
0000
0000
0000
0000
0000
0000
0000
0000
0000
0000
0000
0000
0000
0000
0000
0000
0000
0000
0000
0000
0000
0000
0000
0000
0000
0000
0000
0000
0000
0000
0000
0000
0000
0000
0000
0000
0000
0000
0000
0000
0000
0000
0000
0001
0000
0000
0000
0000
0000
0000
0000
0000
0000
0000
0000
0000
0000
0000
0000
0000
0000
0000
0000
0000
0000
0000
0000
0000
0000
0000
0000
0000
0000
0000
0000
0000
0000
0000
0000
,
0100
0000
0001
0000
1000
0100
0000
0000
0011
0000
1100
0000
1000
0010
0100
0000
,
0001
0000
1000
0000
0001
0010
0000
0000
2100
0000
0000
0000
3020
0000
0000
0000
,
0130
0000
0001
0001
0001
0000
1000
1000
1000
0010
0010
0010
0020
0000
0000
0000
,
0130
0000
0001
0001
0001
0000
1000
1000
1000
0100
0010
0100
1000
1000
0001
0001
,
1000
0010
0000
0100
0001
0000
0000
0000
0010
0001
0100
0000
0010
1000
0000
0000
,
0000
0001
0001
0000
0100
0100
0000
0000
0010
1000
0100
0000
0010
0001
0000
0000
,
1000
0010
0000
0010
0100
0000
0000
0000
0001
0010
0100
0000
0010
0001
0000
0000
,
1000
0000
0000
1000
0000
0000
1000
0000
0001
0000
0100
0000
0010
0000
0000
0000
1000
0000
0000
1000
0000
0000
1000
0000
0001
0000
0010
0000
0001
0000
0000
0000
,
1001
0000
1000
0100
0010
0000
0001
0100
0000
1000
0000
0100
0001
0001
0010
0100
,
1000
0000
0010
1000
0100
0000
1000
0010
0000
0001
0000
0010
1000
0100
0010
0001
,
1000
0000
0001
0100
0010
0000
0001
0010
0000
1000
0000
0100
0001
0100
0010
0001
,
1000
0000
0010
0100
1000
0000
0100
0001
0000
0010
0000
1000
0010
0001
0100
0010
,
1000
0000
0001
0010
0100
0010
0001
1000
0010
0100
0010
1000
0001
0010
0100
1000
,
0010
0100
0001
1000
0100
0010
0001
0100
0001
0010
0001
0100
0010
1000
0100
0010
,
0002
0000
1003
0000
0001
0000
1000
0100
,
0010
0100
1000
0010
0100
0001
0010
0001
,
0100
0001
1000
0100
1000
0001
0100
0010
,
1000
0000
0001
0000
0010
0000
0001
0000
1000
0000
0010
0000
1000
0000
0001
1000
,
0002
0000
0003
0000
;
#NOTEDATA:;
#STEPSTYPE:dance-single;
#DIFFICULTY:Challenge;
#METER:17;
#BPMS:0=220,64=55,66=110,130=220,218=110,276=220,292=55;
#STOPS:218=1.091;
#NOTES:
0000
0000
0000
0000
,
0000
0000
0000
0000
,
0000
0000
0000
0000
,
0000
0000
0000
0000
,
0000
0000
0000
0000
,
0000
0000
0000
0000
,
0000
0000
0000
0000
,
0000
0000
0000
0000
,
0000
0000
0000
0000
,
0000
0000
0000
0000
,
0001
0000
0000
1000
0000
0000
0010
0000
0100
0000
0000
0000
0110
0000
0000
0000
,
0010
0000
0000
1000
0000
0000
0001
0000
0010
0000
0001
0000
1000
0000
0010
0000
,
0100
0000
0000
0001
0000
0000
1000
0000
0100
0000
0000
0000
0110
0000
0000
0000
,
0010
0000
0000
0001
0000
0000
1000
0000
0010
0000
0100
0000
0001
0000
0010
0000
,
0001
0100
0010
1000
0100
1000
0010
0100
,
0001
0000
0000
0010
0000
0000
0001
0000
1000
0001
1000
0001
1000
0000
0100
0000
,
0020
0000
0000
0000
0030
0000
0001
0100
0001
0000
0100
0000
0000
0000
0001
0000
1000
0000
0001
0000
1000
0100
1000
0000
0100
0000
0010
0000
0001
0000
1000
0000
2002
0000
0000
0000
0000
0000
0000
0000
3003
0000
0000
0000
0001
0000
0100
0000
0001
0000
0000
0000
0100
0000
0000
0000
0010
0000
0000
0000
1000
0000
0000
0000
,
0001
0001
0010
0100
1000
0010
0200
0000
0301
1000
0100
1000
0010
0010
0100
0100
,
0002
0000
0000
0013
0100
1000
0001
0100
0110
0000
0000
0010
0100
0001
0010
0001
,
0100
0001
0010
0010
0200
0000
0000
0000
1300
0000
0001
0000
0100
0010
0000
1000
,
0000
0000
0001
0000
0010
0000
0100
0000
1000
0100
1000
0000
0100
0000
0010
0000
0011
0000
0000
0000
0000
0000
1000
0000
0010
0000
0100
0000
0000
0000
0101
0000
,
0000
0000
0001
0000
0010
0000
0100
0000
1000
0000
0001
0100
0010
0000
0000
0000
1000
0000
0001
0000
0010
0000
0001
0000
1000
0000
0010
0000
0100
0000
0100
0000
,
0001
0000
0010
0100
1000
0100
0010
0100
0011
0000
0000
0001
1000
0010
0000
0100
,
0000
0000
0001
0000
0001
0000
0100
0000
0020
0000
0000
0000
0000
0000
0000
0000
0130
0000
0000
0100
0000
0000
0100
0000
0001
0000
1000
0000
0001
0000
1000
0000
,
0010
0000
0000
0010
0100
0000
0001
0000
1000
0000
1000
0000
0100
0000
0010
0000
0001
0000
0000
0000
2000
0000
0000
0000
0001
0000
0001
0000
0001
0000
0001
0000
,
0001
0001
0001
0001
0001
3001
0200
0000
0010
0010
0010
0010
0010
0010
0010
0010
,
0010
0010
0010
0310
2000
3000
0002
0003
0110
0000
1000
0000
0001
0001
0010
0010
,
0100
0100
2000
0000
3010
0010
0100
0010
1000
1000
0100
0100
0010
0010
0001
0001
,
1000
0100
1000
0000
0001
0000
0100
0000
0010
1000
0010
0000
0100
0000
0001
0000
1001
0000
0000
0000
0002
0000
0000
0000
1000
0000
1000
0000
1000
0000
1000
0000
,
1000
1000
1000
1000
1000
1003
0020
0000
0100
0100
0100
0100
0100
0100
0100
0100
,
0100
0100
0100
0130
0001
0000
1000
0000
1001
0000
0001
0000
1000
1000
0010
0010
,
0001
0001
2000
0000
3100
0100
0001
0010
0001
0001
0100
0100
0010
0010
1000
1000
,
0001
0010
0001
0000
1000
0000
0010
0000
0100
0001
0100
0000
0010
0000
1000
0000
1002
0000
0000
0000
0000
0000
0000
0000
0000
0000
0000
0000
0000
0000
0000
0000
,
0000
0000
0023
0000
,
0000
0000
0230
0000
,
0000
0000
2300
0000
,
0000
0000
0000
0000
0000
0000
0000
0000
3001
0000
0000
0100
0000
0000
0010
0000
,
1000
0000
0000
0000
0000
0000
0000
0000
1000
0000
0000
0100
0000
0000
0010
0000
,
0100
0000
1000
0000
0001
0000
0100
0000
0010
0000
0000
1000
0000
0000
0001
0000
,
0100
0000
0000
0000
0000
0000
0000
0000
0100
0000
0000
0001
0000
0000
1000
0000
,
0100
0000
0010
0000
0001
0000
1000
0000
0010
0000
0000
0100
0010
0000
1000
0000
,
1010
0000
0000
0000
0101
0000
0000
0000
0001
0000
0000
0010
0001
0000
0100
0000
,
0001
0000
0010
0000
0100
0000
1000
0000
0010
0000
0000
0100
0010
0000
1000
0000
,
1010
0000
0000
0000
0011
0000
0000
0000
1000
0000
0000
0100
1000
0000
0010
0000
,
0100
0000
0001
0000
1000
0000
0100
0000
1000
0000
0000
0010
1000
0000
0100
0000
,
0110
0000
0000
0000
1001
0000
0000
0000
1000
0000
0000
0010
0100
0000
0001
0000
,
0010
0001
0010
0000
0100
0000
1000
0000
0001
0000
0000
0100
0010
0000
0100
0000
,
0001
0000
0000
0000
0000
0000
1000
0000
0000
0001
0000
0000
0100
0000
0000
0000
0000
0000
0010
0000
0000
0000
0000
0000
1000
0000
0000
0000
0100
0000
0000
0000
1000
0000
0000
0000
0100
0000
0000
0000
0010
0000
0000
0000
0100
0000
0000
0000
,
1000
0000
0100
0000
1000
0000
0100
0000
0010
0000
0000
0000
0001
0000
0000
1000
0000
0000
0010
0000
0000
0010
0000
0000
,
0110
0000
0101
0000
0001
1000
0100
0100
,
0110
0000
0011
0000
1000
0001
0100
0100
,
0110
0000
1010
0000
1000
0001
0010
0010
,
0110
0000
1100
0000
1000
0001
0001
0100
,
0010
0010
1000
0001
0100
0100
0010
1000
,
0001
0000
0000
0000
0000
0000
0000
0000
0000
0000
0000
0000
0000
0000
0000
0000
0000
0000
0000
0000
0000
0000
0000
0000
0001
0000
0000
0000
0000
0000
0000
0000
0000
0000
0000
0000
0000
0000
0000
0000
0000
0000
0000
0000
0000
0000
0000
0000
0010
0000
0000
0000
0000
0000
0000
0000
0000
0000
0000
0000
0000
0000
0000
0000
0000
0000
0000
0000
0000
0000
0000
0000
0100
0000
0000
0000
0000
0000
0000
0000
0000
0000
0000
0000
0000
0000
0000
0000
0000
0000
0000
0000
0000
0000
0000
0000
2000
3000
0000
0000
0000
0000
0000
0000
0000
0000
0000
0000
0000
0000
0000
0000
0000
0000
0000
0000
0000
0000
0000
0000
0000
0000
0000
0000
0000
0000
0000
0000
0000
0000
0000
0000
0000
0000
0000
0000
0000
0000
0000
0000
0000
0000
0000
0000
0001
0000
0000
0000
0000
0000
0000
0000
0000
0000
0000
0000
0100
0000
0000
0000
0000
0000
0000
0000
0000
0000
0000
0000
0001
0000
0000
0000
0000
0000
0000
0000
0000
0000
0000
0000
0010
0000
0000
0000
0000
0000
0000
0000
0000
0000
0000
0000
,
0001
0000
1000
0000
0010
0100
0000
0001
1000
0000
1000
0000
0001
0100
0100
0010
,
1000
0000
0100
0000
1000
0010
0100
0100
0002
0000
0010
0000
2003
0000
0010
0000
,
3001
0000
0000
0000
1000
0100
1000
0000
1000
0000
0000
0000
0001
0100
0001
0000
0001
0000
1000
0100
1000
0100
1000
0000
0100
0000
0100
0000
0010
0000
0010
0000
,
0001
0000
0000
0000
1000
0010
1000
0000
1000
0000
0000
0000
0001
0010
0001
0000
0001
0000
1000
0000
0010
0000
0100
0000
0001
0000
0001
0000
0001
0000
1000
0000
,
0020
0100
0000
0100
0100
0000
0000
0000
0230
0010
0010
0000
0010
0010
0000
0000
,
0000
1000
1000
0000
0001
0001
0000
0000
0320
1000
1000
0000
0001
0001
0000
0000
,
0100
0100
0000
1000
1000
0000
0000
0000
0230
0010
0010
0000
1000
1000
0300
0000
,
0100
0000
0000
0010
0000
0000
1000
0000
0001
0000
0010
0000
0001
0000
0000
0000
1000
0000
0010
0100
0000
0010
1000
0000
0001
0000
0010
0000
0100
0000
1000
0000
,
1001
0000
1000
1000
0010
0010
0100
0010
0010
1000
1000
0001
0010
0010
0100
0100
,
1000
0001
1000
1000
0010
0010
0100
0001
0001
1000
1000
0010
0100
0001
1000
0100
,
0010
0010
0001
0001
1000
1000
0010
0100
0100
0010
0010
1000
1000
0001
0010
0100
,
1000
1000
0010
0010
0100
0100
0001
1000
1000
0100
0100
1000
0010
0100
0001
1000
,
1001
0000
0000
0000
0001
1000
0001
0000
0100
0000
0100
0000
0010
0000
0010
0000
0000
0000
1000
0001
1000
0000
1000
0000
0100
0000
0100
0000
0010
0000
0010
0000
,
0001
0000
0000
0000
0001
1000
0001
0000
0100
0000
0100
0000
0010
0000
1000
0000
1000
0000
0001
0000
0001
0000
0100
0010
0100
0000
0010
0000
1000
0000
0001
0000
,
0020
0000
0031
1000
0010
0010
0100
0001
,
0001
0000
0010
0000
0010
0000
0100
0000
1000
0100
1000
0000
0001
0000
0100
0000
,
0010
0010
0010
0010
1000
1000
1000
1000
,
0001
0001
0001
0001
0100
0100
0100
0100
,
0020
0000
0030
0000
;
#NOTEDATA:;
#STEPSTYPE:dance-double;
#DIFFICULTY:Easy;
#METER:8;
#NOTES:
00000000
00000000
00000000
00000000
,
00000000
00000000
00000000
00000000
,
00000000
00000000
00000000
00000000
,
00000000
00000000
00000000
00000000
,
00000000
00000000
00000000
00000000
,
00020000
00001000
00000010
00031000
,
00002000
00100000
00100000
00010000
,
00100000
00000000
00103000
00000000
00001000
00100000
00010000
01000000
,
02200000
00000000
00000000
03300000
,
00020000
01000000
10030000
00010000
,
00100000
00001000
00020000
00030200
,
00002300
00000010
00003001
00001000
,
00000100
00010000
00001000
00011000
,
00002000
00010000
00100000
00010000
,
00000100
00010000
00103000
00001000
,
01000000
00010000
00100000
01000000
,
20000000
32000000
03200000
00320000
,
20030000
00000000
00100000
00000000
00010000
30000000
01000000
00100000
,
00020000
01000000
00130000
00101000
,
00021000
00030200
00002000
00003300
,
00000001
00000100
00001000
00000100
,
00000002
00000010
00001003
00001010
,
00020000
00001000
00030100
00011000
,
00020000
00032000
00203000
02300000
,
13000000
00100000
00010000
00100000
,
10000000
00000000
00000000
00000000
,
02000000
00000000
03000000
00000000
,
00200000
00000000
00300000
00000000
,
00002000
00000000
00013000
00010000
,
00020000
00000000
00001000
00000000
00000100
00030000
00001000
00010000
,
00000020
00000000
00001000
00000000
00000100
00000030
00001000
00000010
,
00020000
00000000
00001000
00000000
00000100
00000000
00031000
00010000
,
00000020
00001030
00000100
00010000
,
00011000
00100000
00011000
00100000
,
00011000
00000010
00011000
00000010
,
00010000
00001000
00000010
00001000
00010000
00001000
00000010
00001000
,
00000000
00000000
00000000
00011000
,
00001000
00010000
01000000
10000000
,
00010000
01000000
01100000
10010000
,
10000000
00000000
10000000
00000000
10000000
00010000
10000000
00000000
,
00100000
00100000
00200000
01300000
,
00020000
00000000
00130000
00001000
,
00020000
00000000
00031000
00010000
,
00000200
00000000
00001300
00000010
,
00010000
00001000
00000010
00000001
,
00001002
00000203
00000010
00000302
,
00001000
00000203
00000010
00000301
,
00000001
00000100
00001000
00010000
,
01000000
10000000
00100000
00000000
,
20010000
30200000
01000000
20300000
,
00010000
30200000
01000000
10300000
,
10000000
01000000
00010000
00001000
,
00000100
00000001
00000010
00000100
,
00000220
00000000
00000000
00000000
,
00000330
00000000
00000000
00000000
;
#NOTEDATA:;
#STEPSTYPE:dance-double;
#DIFFICULTY:Medium;
#METER:12;
#BPMS:0=220,64=55,66=110,130=220,218=110,276=220,292=55;
#STOPS:218=1.091;
#NOTES:
00000000
00000000
00000000
00000000
,
00000000
00000000
00000000
00000000
,
00000000
00000000
00000000
00000000
,
00000000
00000000
00000000
00000000
,
00000000
00000000
00000000
00000000
,
00000000
00000000
00000000
00000000
,
00000000
00000000
00000000
00000000
,
00000000
00000000
00000000
00000000
,
00000000
00000000
00000000
00000000
,
00000000
00000000
00000000
00000000
,
00001000
00001000
00010000
00010000
,
00000100
00000100
00001000
00000010
,
00010000
00010000
00001000
00001000
,
01000000
01000000
00010000
00100000
,
00001000
00010000
00001000
00000000
00010000
00001000
00010000
00000000
,
00001000
00010000
00001000
00010000
00001000
00010000
00001000
00000000
,
00020000
00000000
00000000
00030000
00011000
00000000
00010000
00000010
,
00001000
00000100
00000010
00000000
00000001
00000000
00000000
00000000
00000001
00000000
00000100
00000000
00001000
00000000
00010000
00000000
,
00200000
00000000
01300000
00000000
10010000
00000000
10000000
00100000
,
01000000
00000000
00010000
00100000
02000000
00000000
00000000
00000000
03010000
00000000
00000000
00000000
00001000
00000000
00000000
00000000
,
00010000
00001000
00000000
00001000
00000000
00001000
00010000
00000000
00000100
00000000
00000000
00000000
00000010
00000000
00000001
00000000
,
00000100
00000010
00000100
00000000
00000001
00000000
00000000
00000000
00000010
00000000
00000100
00000000
00010000
00000000
00001000
00000000
,
00100000
00100000
00010000
00000000
10010000
00000000
10000000
01000000
,
00100000
00000000
00001000
00010000
00002000
00000000
00000000
00000000
00003010
00000000
00000000
00000001
00000010
00000000
00000000
00000100
,
00001000
00000000
00000000
00000010
00010000
00000000
00001000
00000000
00011000
00000000
00000000
00000000
00002000
00000000
00023000
00000000
,
02030000
03020000
00032000
00013000
00020000
00230000
20300000
32000000
,
03020000
00032000
00013000
00001000
00011000
00000000
00020000
00032000
,
00003200
00000310
00000020
00002030
00003200
00000320
00000032
00000203
,
00002300
00023000
00230000
02300000
03001000
00000000
00020000
00032000
,
00003200
00002300
00023000
00031000
00002000
00003020
00000230
00002300
,
00003020
00020030
00031000
00010000
00011000
00000000
00002000
00023000
,
02030000
03100000
00200000
00320000
20030000
32000000
03020000
00032000
,
00003020
00000032
00000203
00000320
00001030
00000000
00000000
00000000
,
00000000
00000000
00000010
00000000
,
00000000
00000000
00010000
00000000
,
00000000
00000000
00001000
00000000
,
00000000
00000000
00100000
00000000
,
00010000
00000000
00100000
00000000
,
01000000
00000000
10000000
00000000
,
01000000
00000000
00010000
00000000
,
00001000
00000000
00010000
00000100
,
00000010
00000000
00000001
00001000
,
00000001
00000100
00000010
00000000
00010000
00000000
00001000
00000000
,
00010000
00000000
00001000
01000000
,
00010000
00100000
01000000
00000000
10000000
00000000
00100000
00000000
,
00010000
00000000
00001000
00010000
,
00000100
00001000
00000010
00000000
00010000
00000000
00001000
00000000
,
01000000
00010000
00110000
01100000
,
10000000
11000000
10000000
00010000
,
00100000
00010000
00100000
00000000
00001000
00000000
00010000
00000000
,
00000010
00001000
00000010
00000000
00010000
00000000
00001000
00000000
,
01000000
00010000
01000000
00000000
00001000
00000000
00010000
00000000
,
00000100
00001000
00000100
00000000
00010000
00000000
00010000
00000000
,
00001000
00000000
00001000
00000000
00010000
00001000
00010000
00001000
,
00010000
00000000
00001000
00000000
00010000
00000000
00000000
00000000
00002000
00000000
00000000
00000000
00000000
00003000
00000000
00000000
,
00010000
00000000
00010000
00000000
00001000
00100000
00000000
00000000
00010000
00000000
00010000
00000000
01000000
00100000
00000000
00000000
,
10000000
00000000
00000000
00000000
00000000
01000000
00000000
00000000
00020000
00000000
00000000
00000000
00032000
00000000
00000000
00000000
,
00013000
00011000
00000100
00001100
00000010
00000110
00000002
00002003
,
00003010
00000000
00010000
00000000
00001000
00000000
00100000
00000000
00010000
10000000
00010000
10000000
00010000
00000000
01000000
00000000
,
00100000
00000000
00000000
10000000
00010000
00000000
00000000
00000000
00010000
00100000
00010000
00000000
00010000
00000000
00000000
00000000
,
10000000
01000000
10000000
00000000
10000000
00000000
00000000
00000000
00010000
00000000
00000000
00000000
00001000
00000000
00000000
00000000
,
00000001
00000010
00000001
00000000
00000001
00000000
00000000
00000000
00001000
00000100
00001000
00000000
00001000
00000000
00000000
00000000
,
00000001
00000000
00000000
00000100
00000010
00000000
00000000
00010000
00001000
00000000
00000000
01000000
00100000
00000000
00000000
00000000
,
10000000
00000000
01000000
00000000
00100000
00000000
00001000
00010000
00000000
00010000
00000000
00010000
00000010
00000000
00001000
00000000
,
00000100
00000000
00000010
00000000
00000001
00000000
00001000
00000010
00000000
00000010
00000000
00000010
00010000
00000000
00001000
00000000
,
00100000
00000000
01000000
00000000
10000000
00000000
00010000
01000000
00000000
01000000
00000000
01000000
00100000
00000000
00010000
00000000
,
00001000
00000000
00010000
00000000
00001000
00000000
00000010
00000001
00000000
00000001
00000000
00000001
00000100
00000000
00000000
00000000
,
00000110
00000000
00010000
00000000
00001000
00000000
01000000
00010000
00000000
00100000
00000000
01000000
10000000
00000000
00100000
00000000
,
00010000
00000000
00001000
00000000
00010000
00000000
00000100
00000010
00000000
00001000
00000000
00000010
00000001
00000000
00001000
00000000
,
00000020
00000000
00000130
00000001
,
00000010
00000100
00001000
00000010
,
00010000
00010000
00001000
00001000
,
00010000
00001000
00010000
00001000
00010000
00001000
00010000
00000000
,
00002000
00000000
00003000
00000000
;
#NOTEDATA:;
#STEPSTYPE:dance-double;
#DIFFICULTY:Hard;
#METER:15;
#BPMS:0=220,64=55,66=110,130=220,218=110,276=220,292=55;
#STOPS:218=1.091;
#NOTES:
00000000
00000000
00000000
00000000
,
00000000
00000000
00000000
00000000
,
00000000
00000000
00000000
00000000
,
00000000
00000000
00000000
00000000
,
00000000
00000000
00000000
00000000
,
00000000
00000000
00000000
00000000
,
00000000
00000000
00000000
00000000
,
00000000
00000000
00000000
00000000
,
00000000
00000000
00000000
00000000
,
00000000
00000000
00000000
00000000
,
00001000
00000000
00000000
00010000
00000000
00000000
00000100
00000000
00000010
00000000
00000000
00000000
00001000
00000000
00000000
00000000
,
00010000
00000000
00000000
00000100
00000000
00000000
00000010
00000000
00000001
00000000
00000010
00000000
00001000
00000000
00000000
00000000
,
00010000
00000000
00000000
00001000
00000000
00000000
01000000
00000000
00100000
00000000
00000000
00000000
00010000
00000000
00000000
00000000
,
00001000
00000000
00000000
01000000
00000000
00000000
00100000
00000000
10000000
00000000
00100000
00000000
00010000
00000000
00000000
00000000
,
00100000
01000000
00100000
01000000
00001000
01000000
00001000
01000000
,
00001000
00010000
00001000
00010000
00000100
00000010
00000100
00000010
,
00000002
00000000
00000003
00000010
00000000
00001000
00000000
00010000
00000000
00001000
01000000
00010000
01000000
00100000
10000000
00000000
10010000
00000000
00000000
00000000
00000000
00000000
00000000
00000000
10000000
00000000
00000000
00000000
00100000
00000000
00000000
00000000
,
00010000
00001000
00100000
00000000
00001000
00010000
01000000
00000000
00100000
00000000
00001000
00000000
00010000
00000000
00000100
00000100
,
00000020
00000000
00000000
00000000
00001030
00010000
00000000
00001000
00000100
00000000
00000000
00000000
00000010
00010000
00000000
00001000
,
00000000
01000000
00010000
00010000
00200000
00000000
00000000
00000000
00301000
00000000
00011000
00000000
00000000
01001000
00000000
01010000
,
00000000
01000000
00100000
00010000
00001000
00000100
00000010
00000000
00010010
00000000
00000000
00000000
00010000
00001000
00000000
00000010
,
00000000
00000001
00000010
00000000
00000100
00001000
00000010
00000000
00010000
00001000
00000000
00100000
00000000
10000000
00100000
00010000
,
00000000
01000000
00100000
00010000
00001000
00000000
00010000
00000000
00010100
00000000
00000000
00000000
00000100
00000010
00000000
00000100
,
00000000
00000000
00000001
00000000
00000100
00000000
00001000
00000000
00000020
00000000
00000000
00000000
00000000
00000000
00000000
00000000
00010030
00000000
00000000
00001000
00000000
00000000
00000100
00000000
00001000
00000000
00000000
00000000
00010000
00000000
01000000
00000000
,
00100000
00000000
00000000
00001000
00000000
00000000
00010000
00000000
00000100
00000000
00001000
00000000
00000010
00000000
00000000
00000000
00010000
00000000
00000000
00000000
00011000
00000000
00000000
00000000
00010000
00000000
00010000
00000000
00001000
00000000
00100000
00000000
,
00010000
00010000
00100000
00001000
00010000
00010000
00002000
00000000
00013000
00010000
00001000
00100000
00010000
00010000
00100000
00001000
,
00010000
00010000
00001000
00100000
00002000
00003000
00020000
00030000
00011000
00000000
00000000
00000000
00001000
00010000
00001000
00000100
,
00000010
00001000
00000002
00000000
00001003
00000100
00000010
00000100
00001000
00000001
00000100
00000010
00001000
00000100
00010000
00001000
,
00100000
00000000
00010000
10000000
01000000
00000000
00100000
00001000
00010000
00000000
00011000
00000000
00001000
00001000
00010000
00000010
,
00001000
00001000
00000010
00010000
00001000
00001000
00020000
00000000
00031000
00001000
00010000
00000010
00001000
00001000
00000010
00010000
,
00001000
00001000
00010000
00000010
00002000
00003000
00000002
00000003
00001001
00000000
00000000
00000000
00000001
00000010
00000001
00000010
,
00001000
00010000
00002000
00000000
00013000
01000000
00010000
01000000
10000000
00000000
00010000
10000000
00100000
01000000
00010000
10000000
,
01000000
00100000
00001000
00010000
00000100
00000010
00000001
00000000
00002000
00000000
00000000
00000000
00000000
00000000
00000000
00000000
,
00000000
00000000
00003020
00000000
,
00000000
00000000
00020030
00000000
,
00000000
00000000
00032000
00000000
,
00000000
00000000
00000000
00000000
00013000
00000000
00000000
00001000
,
00000000
00000000
00100000
00000000
00000000
00010000
00000000
00000000
,
01000000
00000000
00100000
00000000
10000000
00000000
00000000
01000000
,
00000000
00000000
00100000
00000000
00000000
00001000
00000000
00000000
,
00010000
00000000
00001000
00000000
00011000
00000000
00010000
00000100
,
00000010
00000000
00000000
00000000
00001000
00000000
00000000
00000000
00000010
00000000
00000000
00000100
00000000
00000000
00010000
00000000
,
00001000
00000000
00010000
00000000
00011000
00000000
00001000
01000000
,
00100000
00000000
00000000
00000000
00010000
00000000
00000000
00000000
00100000
00000000
00000000
01000000
00000000
00000000
00001000
00000000
,
00010000
00000000
00001000
00000000
00011000
00000000
00010000
00001000
,
00000010
00000000
00000000
00000000
00000001
00000000
00000000
00000000
00000010
00000000
00000000
00000100
00000000
00000000
00010000
00000000
,
00001000
00000000
00010000
00000000
00001000
00000000
00000000
00000000
00010000
00000000
00000000
00010000
00000000
00000000
00010000
00000000
,
00001000
00000000
00000000
00010000
00000000
00000000
00000010
00001000
00000100
00010000
00001000
00100000
,
00010000
00000000
10000000
00000000
01000000
00000000
00100000
00000000
00010000
00000000
00000000
00000000
10000000
00000000
00000000
00000000
00000000
00000000
10000000
00000000
00000000
01000000
00000000
00000000
,
00010000
00000000
00001000
00000000
00000100
00000000
00000010
00010000
,
00001000
00000000
00000010
00000000
00000001
00000000
00000001
00000100
,
00001000
00000000
00010000
00000000
01000000
00000000
00100000
00001000
,
00010000
00000000
00100000
00000000
10000000
00010000
10000000
00010000
,
01000000
00100000
01000000
00100000
00010000
00001000
00010000
00001000
,
00000010
00000000
00000000
00000000
00000000
00000000
00000000
00000000
00000000
00000000
00000000
00000000
00000000
00000000
00000000
00000000
00000000
00000000
00000000
00000000
00000000
00000000
00000000
00000000
00000100
00000000
00000000
00000000
00000000
00000000
00000000
00000000
00000000
00000000
00000000
00000000
00000000
00000000
00000000
00000000
00000000
00000000
00000000
00000000
00000000
00000000
00000000
00000000
00000010
00000000
00000000
00000000
00000000
00000000
00000000
00000000
00000000
00000000
00000000
00000000
00000000
00000000
00000000
00000000
00000000
00000000
00000000
00000000
00000000
00000000
00000000
00000000
00000100
00000000
00000000
00000000
00000000
00000000
00000000
00000000
00000000
00000000
00000000
00000000
00000000
00000000
00000000
00000000
00000000
00000000
00000000
00000000
00000000
00000000
00000000
00000000
00002000
00003000
00000000
00000000
00000000
00000000
00000000
00000000
00000000
00000000
00000000
00000000
00000000
00000000
00000000
00000000
00000000
00000000
00000000
00000000
00000000
00000000
00000000
00000000
00000000
00000000
00000000
00000000
00000000
00000000
00000000
00000000
00000000
00000000
00000000
00000000
00000000
00000000
00000000
00000000
00000000
00000000
00000000
00000000
00000000
00000000
00000000
00000000
00000000
00000000
00000000
00000000
00000000
00000000
00000000
00000000
00000000
00000000
00000000
00000000
00000010
00000000
00000000
00000000
00000000
00000000
00000000
00000000
00000000
00000000
00000000
00000000
00000000
00000000
00000000
00000000
00000000
00000000
00000000
00000000
00000000
00000000
00000000
00000000
00000000
00000000
00000000
00000000
00000000
00000000
00000000
00000000
00000000
00000000
00000000
00000000
,
00010000
00000000
00001000
00000000
01000000
00100000
00000000
00000000
10100000
00000000
01010000
00000000
00001000
00010000
00001000
00000000
,
00000100
00000000
00000001
00000000
00000010
00000100
00000000
00000000
00020000
00000000
00000000
00000000
00032000
00000000
00000000
00000000
,
00013000
00000000
00001000
00001000
00001000
00000000
00100000
00100000
00100000
01000000
00010000
00001000
00000200
00000000
00000000
00000000
,
00000310
00000000
00010000
00010000
00010000
00000000
00001000
00001000
00001000
00100000
00010000
01000000
00100000
10000000
01000000
10000000
,
00010000
01000000
00000000
00010000
01000000
00000000
00000000
00000000
00001000
00010000
01000000
00000000
00010000
01000000
00000000
00000000
,
00000000
10000000
01000000
00000000
00010000
00001000
00000000
00000000
00100000
00010000
01000000
00000000
00010000
01000000
00000000
00000000
,
00001000
00010000
00000000
00001000
00010000
00000000
00000000
00000000
00000100
00000010
00000001
00000000
00000010
00000001
00000000
00000000
,
00001000
00000000
00000000
00001000
00000000
00000000
00001000
00000000
00000010
00000000
00000000
00000000
00010000
00000000
00001000
00000000
00010000
00000000
00000000
01000000
00000000
00000000
10000000
00000000
00010000
00000000
01000000
00000000
00100000
00000000
00000000
00000000
,
10100000
00000000
10000000
01000000
00010000
00000000
00001000
00000100
00000000
00000010
00000000
00010000
00001000
00000010
00000001
00000000
,
00001000
00000000
00000001
00000100
00001000
00000000
00010000
01000000
00000000
00100000
00000000
00001000
00010000
00100000
10000000
00000000
,
00010000
00000000
10000000
01000000
00010000
00000000
00001000
00000010
00000000
00000100
00000000
00010000
00001000
00000100
00000010
00000000
,
00001000
00000000
00000001
00000100
00001000
00000000
00010000
00100000
00000000
01000000
00000000
00001000
00010000
01000000
10000000
00000000
,
10010000
00000000
00010000
01000000
00010000
01000000
00100000
00010000
00001000
00010000
00001000
00000100
00000010
00001000
00000001
00000010
,
00000100
00001000
00000010
00010000
00001000
00010000
00001000
00010000
01000000
10000000
01000000
00100000
00010000
10000000
00100000
01000000
,
00020000
00000000
00130000
00000000
01000000
00000000
10000000
01000000
,
00010000
00001000
00010000
00001000
00000100
00000001
00000010
00000100
,
00001000
00000001
00000100
00001000
00010000
00100000
01000000
00010000
,
10000000
01000000
00100000
00010000
01000000
00001000
00010000
00001000
,
00000200
00000000
00000300
00000000
;
#NOTEDATA:;
#STEPSTYPE:dance-double;
#DIFFICULTY:Challenge;
#METER:17;
#BPMS:0=220,64=55,66=110,130=220,218=110,276=220,292=55;
#STOPS:218=1.091;
#NOTES:
00000000
00000000
00000000
00000000
,
00000000
00000000
00000000
00000000
,
00000000
00000000
00000000
00000000
,
00000000
00000000
00000000
00000000
,
00000000
00000000
00000000
00000000
,
00000000
00000000
00000000
00000000
,
00000000
00000000
00000000
00000000
,
00000000
00000000
00000000
00000000
,
00000000
00000000
00000000
00000000
,
00000000
00000000
00000000
00000000
,
00010000
00000000
00000000
00001000
00000000
00000000
00100000
00000000
00010000
00000000
00000000
00000000
01000000
00000000
00000000
00000000
,
00100000
00000000
00000000
10000000
00000000
00000000
01000000
00000000
00010000
00000000
00001000
00000000
00000010
00000000
00000100
00000000
,
00010000
00000000
00000000
00001000
00000000
00000000
00000100
00000000
00000010
00000000
00000000
00000000
00001000
00000000
00000000
00000000
,
00000100
00000000
00000000
00001000
00000000
00000000
00000010
00000000
00000100
00000000
00000001
00000000
00000100
00000000
00001000
00000000
,
00010000
00010000
00001000
00001000
00100000
00100000
00010000
00010000
,
01000000
01000000
00001000
00001000
00010000
00010000
00001000
00001000
,
00020000
00000000
00000000
00000000
00030000
00000000
00001000
00010000
00001000
00000000
00010000
00000000
00000000
00000000
00001000
00000000
00000000
00000000
00010000
00000000
00010000
00000000
00001000
00000000
00000100
00000000
00000010
00000000
00001000
00000000
00000100
00000000
00000020
00000000
00000000
00000000
00000000
00000000
00000000
00000000
00000000
00000000
00000000
00000000
00000000
00000000
00000000
00000000
00001030
00000000
00000000
00000000
00000000
00000000
00000000
00000000
00010000
00000000
00000000
00000000
00000000
00000000
00000000
00000000
,
00001000
00100000
10000000
00000000
00010000
00000000
00001000
00000000
01000000
00010000
00000100
00000000
00001000
00000000
00010000
00000100
,
00000002
00000000
00000000
00001003
00000010
00000001
00001000
00000010
00000110
00000000
00000000
00000001
00000010
00000100
00010000
00001000
,
01000000
00010000
00100000
00001000
00002000
00000000
00000000
00000000
00013000
00000000
01000000
00000000
00100000
00001000
00000000
00000010
,
00000000
00000100
00010000
01000000
00000000
00100000
00000000
00001000
00011000
00000000
00000000
00000000
00010000
00000000
00001000
00000000
,
00010000
00000100
00000001
00000000
00001000
00000000
00010000
00000000
00000010
00001000
00100000
00000000
00010000
00000000
00001000
00100000
,
20000000
00000000
00000000
30010000
01000000
10000000
00010000
01000000
00100000
00000000
00000000
10000000
01000000
00100000
00001000
00010000
,
00000010
00000000
00001000
00000000
00000100
00000000
00000010
00000000
00000020
00000000
00000000
00000000
00000000
00000000
00000000
00000000
00000031
00000000
00000000
00000100
00000000
00000000
00010000
00000000
00001000
00000000
00000010
00000000
00010000
00000000
00001000
00000000
,
00100000
00000000
00000000
10000000
00000000
00000000
00010000
00000000
01000000
00000000
00010000
00000000
00001000
00000000
00000010
00000000
00000001
00000000
00000000
00000000
00001000
00000000
00000000
00000000
00000001
00000000
00000001
00000000
00000100
00000000
00000100
00000000
,
00000010
00000010
00010000
00010000
00001000
00001000
02000000
00000000
03001000
00001000
00100000
00100000
00010000
00010000
10000000
10000000
,
00100000
00100000
01000000
01000000
00020000
00030000
20000000
30000000
10010000
00000000
00000000
00000000
10000000
10000000
00100000
00100000
,
00010000
00010000
00002000
00000000
00003100
00000100
00000010
00001000
00000001
00000001
00000100
00000100
00001000
00001000
00010000
00010000
,
00100000
00100000
01000000
01000000
10000000
10000000
01000000
00010000
00110000
00000000
10010000
00000000
10000000
10000000
01000000
01000000
,
00100000
00100000
00001000
00001000
00010000
00010000
00000200
00000000
00000310
00000010
00000100
00000100
00001000
00001000
00000001
00000001
,
00000100
00000100
00000010
00000010
00010000
00000000
00001000
00000000
00010000
00000000
00000100
00000000
00000010
00000010
00001000
00001000
,
00010000
00010000
02000000
00000000
03100000
00100000
00010000
00010000
10000000
10000000
01000000
01000000
00010000
00010000
00001000
00001000
,
00000010
00000010
00000001
00000001
00001000
00001000
00000010
00000010
00000200
00000000
00000000
00000000
00000000
00000000
00000000
00000000
,
00000000
00000000
00000302
00000000
,
00000000
00000000
00002003
00000000
,
00000000
00000000
00003020
00000000
,
00000000
00000000
00000000
00000000
00000000
00000000
00000000
00000000
00010030
00000000
00000000
00001000
00000000
00000000
00010000
00000000
,
00001000
00000000
00000000
00000000
01000000
00000000
00000000
00000000
00010000
00000000
00000000
00100000
00000000
00000000
01000000
00000000
,
00100000
00000000
00001000
00000000
00010000
00000000
00000100
00000000
00001000
00000000
00000000
00000010
00000000
00000000
00000100
00000000
,
00000001
00000000
00000000
00000000
00001000
00000000
00000000
00000000
00000001
00000000
00000000
00000100
00000000
00000000
00001000
00000000
,
00010000
00000000
00001000
00000000
01000000
00000000
00100000
00000000
10000000
00000000
00000000
00010000
00000000
00000000
00100000
00000000
,
00101000
00000000
00000000
00000000
00011000
00000000
00000000
00000000
00001000
00000000
00000000
00010000
00000100
00000000
00001000
00000000
,
00000100
00000000
00000010
00000000
00000001
00000000
00001000
00000000
00000010
00000000
00000000
00010000
00000000
00000000
00001000
00000000
,
00011000
00000000
00000000
00000000
00010000
00000000
00000000
00000000
00001000
00000000
00000000
00100000
00010000
00000000
10000000
00000000
,
00100000
00000000
00010000
00000000
00100000
00000000
10000000
00000000
01000000
00000000
00000000
00100000
00000000
00000000
00001000
00000000
,
00011000
00000000
00000000
00000000
00010000
00000000
00000000
00000000
00000100
00000000
00000000
00000001
00000000
00000000
00001000
00000000
,
00000010
00000000
00000001
00000010
00000100
00000000
00001000
00000000
00000010
00000000
00000000
00010000
00000000
00000000
00001000
00000000
,
00000100
00000000
00000000
00000000
00000000
00000000
00000010
00000000
00000000
00000100
00000000
00000000
00000010
00000000
00000000
00000000
00000000
00000000
00000100
00000000
00000000
00000000
00000000
00000000
00000010
00000000
00000000
00000000
00001000
00000000
00000000
00000000
00000100
00000000
00000000
00000000
00010000
00000000
00000000
00000000
00001000
00000000
00000000
00000000
00100000
00000000
00000000
00000000
,
00010000
00000000
10000000
00000000
01000000
00000000
00100000
00000000
00010000
00000000
00000000
00000000
10000000
00000000
00000000
01000000
00000000
00000000
00100000
00000000
00000000
00001000
00000000
00000000
,
00011000
00000000
00010100
00000000
00010000
00000100
00000001
00000100
,
00000110
00000000
00001100
00000000
00000100
00010000
00001000
01000000
,
01100000
00000000
10100000
00000000
00100000
00010000
00001000
00000100
,
00000110
00000000
00010010
00000000
00010000
00001000
00000010
00000001
,
00001000
00000001
00000100
00001000
00010000
00100000
10000000
00010000
,
00100000
00000000
00000000
00000000
00000000
00000000
00000000
00000000
00000000
00000000
00000000
00000000
00000000
00000000
00000000
00000000
00000000
00000000
00000000
00000000
00000000
00000000
00000000
00000000
01000000
00000000
00000000
00000000
00000000
00000000
00000000
00000000
00000000
00000000
00000000
00000000
00000000
00000000
00000000
00000000
00000000
00000000
00000000
00000000
00000000
00000000
00000000
00000000
10000000
00000000
00000000
00000000
00000000
00000000
00000000
00000000
00000000
00000000
00000000
00000000
00000000
00000000
00000000
00000000
00000000
00000000
00000000
00000000
00000000
00000000
00000000
00000000
00100000
00000000
00000000
00000000
00000000
00000000
00000000
00000000
00000000
00000000
00000000
00000000
00000000
00000000
00000000
00000000
00000000
00000000
00000000
00000000
00000000
00000000
00000000
00000000
02000000
03000000
00000000
00000000
00000000
00000000
00000000
00000000
00000000
00000000
00000000
00000000
00000000
00000000
00000000
00000000
00000000
00000000
00000000
00000000
00000000
00000000
00000000
00000000
00000000
00000000
00000000
00000000
00000000
00000000
00000000
00000000
00000000
00000000
00000000
00000000
00000000
00000000
00000000
00000000
00000000
00000000
00000000
00000000
00000000
00000000
00000000
00000000
00000000
00000000
00000000
00000000
00000000
00000000
00000000
00000000
00000000
00000000
00000000
00000000
00100000
00000000
00000000
00000000
00000000
00000000
00000000
00000000
00000000
00000000
00000000
00000000
00000000
00000000
00000000
00000000
00000000
00000000
00000000
00000000
00000000
00000000
00000000
00000000
00000000
00000000
00000000
00000000
00000000
00000000
00000000
00000000
00000000
00000000
00000000
00000000
,
10000000
00000000
00010000
00000000
01000000
00100000
00000000
00010000
00001000
00000000
00000010
00000000
00000001
00000010
00000100
00000000
,
00010000
00000000
01000000
00000000
00001000
00010000
00000000
00100000
00001000
00000000
00010000
00000000
00100000
00000000
10000000
00000000
,
00010000
00000000
00000000
00000000
00100000
00010000
00100000
00000000
00100000
00000000
00000000
00000000
00001000
00010000
00001000
00000000
00001000
00000000
00010000
00001000
00010000
00001000
00010000
00000000
00000100
00000000
00000100
00000000
00001000
00000000
00001000
00000000
,
00000100
00000000
00000000
00000000
00000010
00000001
00000010
00000000
00000010
00000000
00000000
00000000
00000100
00001000
00000100
00000000
00010000
00000000
00000100
00000000
00000001
00000000
00000100
00000000
00010000
00000000
00000100
00000000
00000001
00000000
00000100
00000000
,
00020000
00001000
00000000
00000100
00000100
00000000
00000000
00000000
00032000
00010000
00010000
00000000
00000100
00000100
00000000
00000000
,
00000000
00100000
00100000
00000000
00010000
00010000
00000000
00000000
00023000
00100000
00100000
00000000
00001000
00001000
00000000
00000000
,
00000100
00000100
00000000
00000010
00000010
00000000
00000000
00000000
00032000
00100000
00100000
00000000
00010000
00010000
00003000
00000000
,
00010000
00000000
00000000
00010000
00000000
00000000
00001000
00000000
01000000
00000000
00010000
00000000
00100000
00000000
01000000
00000000
10000000
00000000
00000000
01000000
00000000
00000000
00010000
00000000
00001000
00000000
00000010
00000000
00000001
00000000
00001000
00000100
,
00000010
00000000
00000001
00000001
00000100
00000100
00000010
00001000
00001000
00000100
00000100
00010000
00010000
00001000
00100000
00010000
,
01000000
00100000
10000000
10000000
00010000
00010000
01000000
00001000
00001000
00010000
00010000
00000100
00000100
00000010
00000001
00000100
,
00000010
00000010
00001000
00001000
00000001
00000001
00000010
00000100
00000100
00010000
00010000
00001000
00001000
00010000
00100000
01000000
,
00010000
00010000
10000000
10000000
01000000
01000000
00010000
00001000
00001000
00000010
00000010
00000001
00000001
00000010
00000100
00001000
,
00000001
00000000
00000000
00000000
00001000
00000010
00001000
00000000
00000010
00000000
00000010
00000000
00010000
00000000
00010000
00000000
00000000
00000000
00001000
00010000
00001000
00000000
00001000
00000000
00100000
00000000
00100000
00000000
00010000
00000000
00010000
00000000
,
10000000
00000000
00000000
00000000
00100000
01000000
00100000
00000000
01000000
00000000
00100000
00000000
00010000
00000000
00001000
00000000
00000100
00000000
00000010
00000000
00001000
00000000
00000001
00000000
00000100
00000000
00000010
00000000
00000001
00000000
00000010
00000000
,
00002000
00000000
00003100
00000100
00000010
00000010
00000001
00000001
,
00001000
00000100
00001000
00000000
00000010
00000000
00010000
00000000
00001000
00010000
00001000
00000000
00010000
00000000
00100000
00000000
,
10000000
00100000
00010000
00001000
00000100
00000010
00001000
00000001
,
00000010
00001000
00010000
01000000
10000000
00100000
00010000
00001000
,
00000200
00000000
00000300
00000000
;
