
//----- song ID: dshc -----//
#TITLE:Don't Stop The HYPERCORE;
#ARTIST:Halv;
#BANNER:Don't Stop The HYPERCORE.png;
#BACKGROUND:Don't Stop The HYPERCORE-bg.png;
#CDTITLE:./CDTitles/DDR WORLD.png;
#MUSIC:Don't Stop The HYPERCORE.ogg;
#SAMPLESTART:24.27;
#SAMPLELENGTH:15;
#BPMS:0=178;
#BGSTAGE:28;
#NOTES:
     dance-single:
     :
     Beginner:
     3:
     :
0000
0000
0000
0000
,
0000
0000
0000
0000
,
0000
0000
0000
0000
,
0000
0000
0000
0000
,
0000
0000
0000
0000
,
0000
0000
0000
0000
,
0000
0000
0000
0000
,
0000
0000
0000
0000
,
0000
0000
0000
0000
,
0000
0000
0000
0000
,
0010
0000
0000
0000
,
0010
0000
0000
0000
,
0010
0000
0000
0000
,
0010
0000
0000
0000
,
0100
0000
0100
0000
,
0100
0000
0100
0000
,
0001
0001
0001
0000
,
0000
0000
0000
0000
,
1000
0000
1000
0000
,
0001
0000
0000
0000
,
0100
0000
0100
0000
,
0001
0000
0000
0000
,
0010
0000
0010
0000
,
0100
0000
0000
0000
,
1000
0000
1000
0000
,
0010
0000
0000
0000
,
2000
0000
3000
0000
,
0002
0000
0003
0000
,
0100
0000
0100
0000
,
0010
0000
0000
0000
,
0100
0000
0001
0000
,
0001
0000
0000
0000
,
0100
0000
0100
0000
,
0010
0000
0000
0000
,
1000
0000
1000
0000
,
0001
0000
0001
0000
,
1000
0000
1000
0000
,
0001
0000
0001
0000
,
0100
0000
0100
0000
,
0100
0000
0100
0000
,
0110
0000
0000
0000
,
0010
0000
0000
0000
,
1001
0000
0000
0000
,
0100
0000
0000
0000
,
0110
0000
0000
0000
,
0010
0000
0000
0000
,
1001
0000
0000
0000
,
0110
0000
0000
0000
,
2002
0000
0000
0000
,
0000
0000
0000
0000
,
0000
0000
0000
0000
,
0000
0000
0000
0000
0000
3003
0000
0000
,
0110
0000
0000
0000
,
0000
0000
0000
0000
,
2002
0000
0000
0000
,
0000
3003
0000
0000
0110
0000
0000
0000
,
0001
0000
0001
0000
,
1000
0000
1000
0000
,
0001
0000
0001
0000
,
0100
0000
0000
0000
,
0001
0000
0001
0000
,
1000
0000
1000
0000
,
0010
0010
0010
0000
,
0000
0000
0000
0000
,
1000
0000
0001
0000
,
0100
0000
0000
0000
,
0010
0000
1000
0000
,
0001
0000
0000
0000
,
1000
0000
0010
0000
,
0100
0000
0000
0000
,
1001
0000
0010
0000
,
1001
0000
0000
0000
,
0100
0000
0010
0000
,
0010
0000
0000
0000
,
1000
0000
0001
0000
,
0020
0000
0030
0000
,
0001
0000
1000
0000
,
0010
0000
0100
0000
,
0001
0000
0000
0000
,
1000
0000
0000
0000
,
0001
0000
1000
0000
,
0010
0000
0000
0000
,
2000
0000
3000
0000
,
0002
0000
0003
0000
,
1000
0000
0001
0000
,
1000
0000
0001
0000
,
0100
0000
0010
0000
,
0100
0000
0000
0000
,
0001
0000
1000
0000
,
0001
0000
0000
0000
,
1001
0000
0000
0000
,
0000
0000
0000
0000
;
#NOTES:
     dance-single:
     :
     Easy:
     7:
     :
0000
0000
0000
0000
,
0000
0000
0000
0000
,
0000
0000
0000
0000
,
0000
0000
0000
0000
,
0000
0000
0000
0000
,
0000
0000
0000
0000
,
0000
0000
0000
0000
,
0000
0000
0000
0000
,
0000
0000
0000
0000
,
0000
0000
0000
0000
,
0001
0001
0001
0000
,
1000
1000
1000
0000
,
0010
0010
0010
0000
,
0100
0100
0100
0000
,
1001
0000
0110
0000
,
1001
0000
0100
0000
,
0001
1000
0020
0200
,
0000
0030
0300
0000
,
0001
1000
0010
0100
,
0010
1000
0001
0010
,
0001
1000
0001
0100
,
0010
0100
0001
1000
,
1000
0100
0010
0001
,
0010
0100
1000
0010
,
1000
0001
0010
0001
,
1000
0000
0000
0010
0000
0010
0000
0000
,
1001
0100
0100
0100
,
0100
0100
0100
0000
,
1001
0001
0010
0100
,
1000
0010
1000
0200
,
0300
0010
0001
0100
,
0001
1000
0100
0010
,
0100
1000
0001
0100
,
0010
0000
0000
1000
0000
1000
0000
0000
,
1001
0000
0101
0000
,
0110
0000
1010
0000
,
1001
0000
0011
0000
,
0110
0000
1100
0000
,
1001
0100
1001
0100
,
1001
0100
0100
0010
,
2000
0000
0001
0001
,
0001
0001
0001
3000
,
0020
0000
0100
0100
,
0100
0100
0100
0030
,
2000
0000
0001
0001
,
0001
0001
0001
3000
,
0020
0000
0100
0130
,
0110
0000
0000
0001
0000
0001
0000
0000
,
2002
0000
0000
0000
,
0000
0000
0000
0000
,
0000
0000
0000
0000
,
0000
0000
3003
0000
0000
0110
0000
0000
,
2002
0000
0000
0000
,
0000
0000
3003
0000
,
0022
0000
0000
0033
,
0000
1100
0000
0000
1001
0000
0000
0000
,
1000
1000
0100
0010
,
0001
0001
0100
0010
,
1000
1000
0100
0010
,
0001
0000
0001
0000
0000
0100
0000
0000
,
0110
0000
1010
0000
,
2001
0000
0000
3000
,
0001
1000
0020
0200
,
0000
0030
0300
0000
,
0001
0010
0100
1000
,
0010
1000
0100
1000
,
0010
0100
0001
1000
,
1100
0001
0101
1000
,
0010
0010
0100
0100
,
0001
0001
1000
1000
,
1010
0000
0101
0000
,
2000
3020
0230
0300
,
0001
0010
0100
1000
,
0010
0100
0001
1000
,
0100
1000
0010
1000
,
0002
0000
0000
0003
,
1000
0100
0010
0100
,
1000
0010
0100
0001
,
1001
0000
0000
0010
0000
0000
0100
0000
,
0110
0000
0000
0001
0000
0000
1000
0000
,
1001
0000
0110
0000
,
2002
0000
0003
3000
,
1001
0010
0010
0010
,
0010
0010
0010
0000
,
1001
1000
0001
0100
,
0001
0010
0100
0000
,
2000
0000
0010
0010
,
0010
0010
0010
3000
,
0002
0000
0100
0103
,
1001
0000
0000
0010
0000
0100
0000
0000
,
1001
0000
0000
0000
,
0000
0000
0000
0000
;
#NOTES:
     dance-single:
     :
     Medium:
     11:
     :
0000
0000
0000
0000
,
0000
0000
0000
0000
,
0000
0000
0000
0000
,
0000
0000
0000
0000
,
0000
0000
0000
0000
,
0000
0000
0000
0000
,
0000
0000
0000
0000
,
0000
0000
0000
0000
,
0000
0000
0000
0000
,
0000
0000
0000
0000
,
1000
1000
0010
0010
,
0100
0100
0001
0001
,
0010
0010
0100
0100
,
1000
0000
1000
0000
0000
0010
0000
0000
,
1000
0000
0000
1000
0000
0000
0000
0000
0001
0000
0000
0001
0000
0000
0000
0000
,
0100
0000
0000
0100
0000
0000
0100
0000
0000
0100
0000
0000
0010
0000
0000
0000
,
1000
0001
1000
0010
0100
0002
2000
0000
,
0000
0003
3000
0000
,
0001
0000
1000
0000
0100
1000
0001
0000
,
0100
0010
1000
0000
0001
0000
0010
0000
,
0100
0000
1000
0000
0001
0100
0010
0000
,
1000
0001
1000
0000
0100
0000
0010
0000
,
0001
0000
0001
0000
0001
1000
0001
0000
,
0001
0100
0001
0000
0010
0000
0100
0000
,
1000
0000
1000
0000
1000
0100
1000
0000
,
1001
0000
0000
0010
0000
0100
0000
0000
,
1001
0001
0100
0010
,
0001
0000
0010
0000
1000
0000
0100
0010
,
0001
0000
1000
0000
0010
1000
0100
0000
,
0010
0001
1000
0000
0001
0000
0200
0000
,
0310
0000
1000
0000
0001
0010
0100
0000
,
1000
0100
0010
0000
0001
0000
1000
0000
,
0010
0000
0100
0000
0001
0010
0100
0000
,
1100
0000
0000
0010
0000
0100
0000
0000
,
1002
0023
0230
2300
,
3020
0032
0023
2030
,
3200
0302
0203
2300
,
3020
0230
0302
0013
,
1002
0103
2001
3100
,
1002
0103
2100
3001
,
1000
0000
0010
0000
0100
0100
0010
0100
,
0100
0010
0100
0100
0001
0000
0010
0000
,
0100
0000
1000
0000
0010
0010
0100
0010
,
0010
0100
0010
0010
1000
0000
0001
0000
,
1001
0000
1000
0000
0100
0100
0010
0100
,
0100
0010
0100
0100
1000
0000
0010
0000
,
0100
0000
0001
0000
0010
0010
0100
0010
,
0010
0000
0000
0001
0000
1000
0000
0000
,
1002
0000
0000
0000
,
0000
0000
0000
0000
,
0000
0000
0000
0000
,
0000
0000
0003
0000
0000
1100
0000
0000
,
2010
0000
0000
0000
,
0000
0000
3000
0000
,
0102
0000
0000
0003
,
0000
0011
0000
0000
1001
0000
0000
0000
,
1000
0100
1000
0000
0001
0010
0001
0000
,
1000
0100
1000
0000
0001
0100
0001
0000
,
1000
0010
1000
0000
0001
0100
0001
0000
,
1000
0100
0010
0000
0000
0011
0000
0000
,
0001
0000
0000
0001
0000
0000
0001
0000
1000
0000
0000
1000
0000
0000
1000
0000
,
0010
0000
0000
0010
0000
0000
0010
0000
0000
0020
0000
0000
0030
0000
0000
0000
,
1000
0001
1000
0100
0010
0002
2000
0000
,
0000
0003
3000
0000
,
0010
0000
0100
0000
0001
1000
0100
0000
,
0010
0001
0010
0001
1000
0010
0100
0000
,
0001
0000
0100
0000
0010
1000
0001
0000
,
1000
0100
0010
0001
0010
0100
1000
0000
,
0001
0000
0100
0000
0001
0010
0100
0000
,
1000
0000
0010
0000
1000
0100
0010
0000
,
0012
1003
2010
3001
,
0002
0023
0230
0300
,
1000
0001
0100
0000
0010
1000
0001
0000
,
1000
0100
0010
0001
1000
0010
0100
0000
,
0001
1000
0001
0000
0100
0010
0100
0000
,
0001
0000
0000
0001
0000
0000
0010
0000
0000
0100
0000
0000
1000
0000
0000
0000
,
0001
0100
0001
0100
0001
0100
0010
0000
,
1000
0001
1000
0001
1000
0100
0010
0000
,
0001
0000
0000
0001
0000
0000
0100
0000
0000
0010
0000
0000
0010
0000
0000
0000
,
1000
0000
0000
1000
0000
0000
0001
0000
0000
0100
0000
0000
0100
0000
0000
0000
,
0001
0011
1000
1100
,
0010
2002
0003
3000
,
0010
0100
1000
0100
,
0001
0000
0010
0000
1000
0000
0010
0100
,
1000
0000
0001
0000
1000
0010
0100
0000
,
0001
1000
0100
0000
0010
0000
0001
0000
,
0100
0000
0001
0000
1000
0010
0010
0100
,
0010
0010
1000
0010
0010
0000
0100
0000
,
0001
0000
1000
0000
0100
0100
0010
0001
,
0001
0000
0000
1100
0000
0101
0000
0000
,
1001
0000
0000
0000
,
0000
0000
0000
0000
;
#NOTES:
     dance-single:
     :
     Hard:
     14:
     :
0000
0000
0000
0000
,
0000
0000
0000
0000
,
0000
0000
0000
0000
,
0000
0000
0000
0000
,
0000
0000
0000
0000
,
0000
0000
0000
0000
,
0000
0000
0000
0000
,
0000
0000
0000
0000
,
0000
0000
0000
0000
,
0000
0000
0000
0000
,
1001
0001
1000
0100
,
1000
0000
0010
0000
0100
0000
0001
1000
,
0001
0010
0001
0100
,
0001
0000
1000
0000
0200
2000
3300
1100
,
0011
0000
0000
1000
0000
0000
0010
0000
0101
0000
0000
0001
0000
0000
0010
0000
,
1100
0000
0000
1000
0000
0000
0001
0000
0000
0101
0000
0000
0200
0300
0020
0030
,
0001
0010
1000
0001
1000
0100
0020
0200
,
0000
0030
0300
0110
,
1001
0000
0001
0100
0001
0010
0001
0100
,
0001
0010
0100
1000
0010
0100
1000
0100
,
0002
0000
0013
0100
1000
0010
1000
0100
,
1000
0010
0100
0001
0010
0100
0001
0100
,
2000
0000
3010
0100
0001
1000
0100
1000
,
0010
0100
0001
1000
0100
0001
0100
1000
,
0020
0000
0031
0010
1000
0001
1000
0100
,
1100
0000
0000
1001
0000
1010
0000
0100
,
1001
0000
0000
0001
0000
1000
0100
0000
1000
0001
0000
0100
,
0001
0000
0000
0000
1000
0000
0100
0000
0000
0000
0010
0000
0001
0000
0000
0000
1000
0000
0010
0000
0000
0100
0000
0000
,
0110
0000
0001
1000
0100
0001
1000
0010
,
0001
1000
0100
0001
1000
0010
0001
1000
,
0010
1000
0200
0000
0310
0100
1000
0010
,
0001
1000
0100
0001
1000
0010
0100
0001
,
0020
0000
1030
0010
0001
1000
0001
0100
,
0101
0000
0000
1001
0000
0011
0000
0100
,
1001
1000
0001
0100
,
0001
0000
0010
0000
0100
0000
1000
0001
,
1000
0010
1000
0100
,
0010
0000
0001
0000
1000
0000
0000
0011
,
1200
0300
0201
0300
,
1200
0300
0201
0310
,
1001
0000
0000
0000
2000
0000
0000
0000
3001
0000
0100
0000
0001
0100
0001
0100
,
0001
0100
0001
0000
1000
0100
1000
0100
1000
0100
1000
0000
0001
0000
0001
0000
,
0100
0000
0000
0000
0020
0000
0000
0000
1030
0001
1000
0001
1000
0001
1000
0001
,
1000
0000
0100
0000
0010
0000
0001
1000
0010
0000
0100
0000
0101
0000
0000
0000
,
1010
0000
0000
0000
0020
0000
0000
0000
1030
0000
0001
0000
1000
0100
1000
0100
,
0010
0000
0001
0000
1000
0010
1000
0010
0100
0000
0001
0000
1000
0000
0001
0000
,
0010
0000
0000
0000
0200
0000
0000
0000
1300
0001
1000
0001
1000
0001
1000
0001
,
0010
0000
0000
0011
0000
1100
0000
0010
,
1001
0000
0000
0000
,
0000
0000
0000
0000
,
0000
0000
0000
0000
,
0000
0000
0000
0000
0000
0110
0000
0000
,
1001
0000
0000
0000
,
0000
0000
0000
0000
,
0001
0000
1000
0000
0001
0000
1000
0000
0100
0000
0000
1000
0000
0000
0010
0100
,
0001
0000
1000
0000
0001
0000
1000
0000
0100
0000
0000
0010
0002
0000
0000
0000
,
0103
0001
0100
0001
1000
0100
1000
0100
,
0010
0001
0010
0001
1000
0010
0100
0100
,
0001
1000
0001
0010
0100
1000
0001
1000
,
0010
0100
0001
0010
0200
1000
0000
0310
,
1001
0000
0000
0001
0000
0000
0010
0000
1100
0000
0000
1000
0000
0000
0010
0000
,
0101
0000
0000
0001
0000
0000
1000
0000
0000
1100
0000
0000
0200
0300
0020
0030
,
1000
0010
0001
1000
0001
0100
0020
0200
,
0000
0030
0300
0110
,
1000
0001
0010
0001
0100
0010
0001
0010
,
1000
0001
0010
0001
0100
1000
0100
0010
,
1000
0100
1000
0001
0100
0010
0001
0010
,
1000
0000
0001
1000
0100
0000
0010
0000
0100
1000
0001
0000
1000
0000
0010
0100
,
0010
1000
0001
1000
0100
0010
1000
0010
,
0001
1000
0010
1000
0100
0001
0100
1000
,
1010
0000
0100
0001
0011
0000
1000
0001
,
1001
0000
0000
0000
0001
1000
0010
0000
1000
0001
0010
0000
0100
0000
0100
0000
,
1000
0010
0100
0001
0010
1000
0010
0001
,
1000
0100
0001
1000
0010
0001
0100
0001
,
1000
0000
0010
0000
0001
0000
1000
0000
0100
0000
0001
0000
1000
0000
0010
1000
,
0001
0000
0000
1100
0000
0000
0001
0000
0000
1010
0000
0000
1001
0000
0000
0000
,
0001
0100
1000
0001
0010
1000
0100
1000
,
0001
0000
0010
0000
1000
0000
0001
0000
0100
0000
1000
0000
0001
0000
0010
0001
,
1000
0000
0000
0101
0000
0000
1000
0000
0000
0011
0000
0000
1002
0000
0003
0000
,
0100
0000
0000
0011
0000
0000
0100
0000
0000
1010
0000
0000
1001
0000
0000
0000
,
0012
0000
0003
0100
0010
0000
1000
0000
2010
0000
3000
0100
0010
0000
0001
0000
,
1001
0000
0000
0000
1000
0010
0100
0001
2000
0000
3000
0000
0002
0000
0003
0000
,
1000
0000
0001
0100
0000
0001
1000
0000
0100
1000
0000
0001
,
0100
0000
0000
0000
0010
0000
1000
0000
0000
0000
0001
0000
0010
0000
0000
0000
0100
0000
0010
0000
0000
0010
0000
0000
,
0110
0000
1000
0001
0100
1000
0001
0010
,
1000
0001
0100
1000
0001
0010
0100
0001
,
1000
0000
0000
0000
0002
0000
0000
0000
1003
0000
0100
0000
1000
0100
1000
0100
,
1000
0100
1000
0000
0001
0100
0001
0100
0001
0100
0001
0000
1000
0000
1000
0000
,
0100
0000
0000
0000
0020
0000
0000
0000
0031
1000
0001
1000
0001
1000
0001
1000
,
0010
0000
0100
1010
0000
0101
0000
0010
,
1001
0000
0000
0000
,
0000
0000
0000
0000
;
#NOTES:
     dance-double:
     :
     Easy:
     7:
     :
00000000
00000000
00000000
00000000
,
00000000
00000000
00000000
00000000
,
00000000
00000000
00000000
00000000
,
00000000
00000000
00000000
00000000
,
00000000
00000000
00000000
00000000
,
00000000
00000000
00000000
00000000
,
00000000
00000000
00000000
00000000
,
00000000
00000000
00000000
00000000
,
00000000
00000000
00000000
00000000
,
00000000
00000000
00000000
00000000
,
00010000
00010000
00010000
00000000
,
00001000
00001000
00001000
00000000
,
00010000
00010000
00010000
00000000
,
00001000
00001000
00001000
00000000
,
00011000
00000000
00100000
00000000
,
00011000
00000000
00000010
00000000
,
00010000
00001000
00020000
00002000
,
00000000
00030000
00003000
00000000
,
00001000
00010000
00000100
00001000
,
00000100
00000010
00000001
00001000
,
00000001
00000100
00000010
00001000
,
00000100
00010000
00001000
00010000
,
00010000
00001000
01000000
00010000
,
01000000
00100000
10000000
00010000
,
10000000
01000000
00100000
00010000
,
01000000
00000000
00000000
00100000
00000000
00100000
00000000
00000000
,
10010000
01000000
01000000
01000000
,
01000000
01000000
01000000
00000000
,
10010000
00010000
00100000
00001000
,
00010000
00001000
00010000
00000200
,
00000300
00001000
00000010
00000100
,
00000010
00001000
00000001
00000010
,
00000100
00001000
00000010
00010000
,
00001000
00000000
00000000
00010000
00000000
00010000
00000000
00000000
,
00001000
00000000
00101000
00000000
,
00010000
00000000
00010010
00000000
,
00001000
00000000
00101000
00000000
,
00010000
00000000
00010010
00000000
,
00011000
01000000
00011000
01000000
,
00011000
00000100
00000100
00010000
,
00002000
00000000
00100000
00100000
,
00100000
00100000
00100000
00003000
,
00200000
00000000
00010000
00010000
,
00010000
00010000
00010000
00300000
,
00020000
00000000
10000000
10000000
,
10000000
10000000
10000000
00030000
,
02000000
00000000
00100000
03100000
,
01100000
00000000
00000000
10000000
00000000
10000000
00000000
00000000
,
10020000
00000000
00000000
00000000
,
00000000
00000000
00000000
00000000
,
00000000
00000000
00000000
00000000
,
00000000
00000000
00030000
00000000
00000000
00100000
00000000
00000000
,
00102000
00000000
00000000
00000000
,
00000000
00000000
00003000
00000000
,
00022000
00000000
00000000
00033000
,
00000000
00000010
00000000
00000000
00000110
00000000
00000000
00000000
,
00000001
00000001
00000010
00000100
,
00001000
00001000
00000010
00010000
,
00001000
00001000
01000000
00010000
,
10000000
00000000
10000000
00000000
00000000
00100000
00000000
00000000
,
01100000
00000000
00110000
00000000
,
00012000
00000000
00000000
00003000
,
00010000
00001000
00020000
00002000
,
00000000
00030000
00003000
00000000
,
00010000
00000100
00000010
00000001
,
00001000
00000001
00000100
00000010
,
00001000
00000100
00010000
00001000
,
01000000
00100000
10000000
00010000
,
10000000
01000000
00100000
00010000
,
01000000
00001000
00010000
00000100
,
00000110
00000000
00001001
00000000
,
00000002
00000023
00000230
00000300
,
00001000
00000001
00000100
00001000
,
00010000
00001000
00010000
01000000
,
10000000
00100000
10000000
01000000
,
00200000
00000000
00000000
00300000
,
01000000
10000000
00100000
00010000
,
00001000
00100000
00001000
00010000
,
00011000
00000000
00000000
00000010
00000000
00000000
00010000
00000000
,
00011000
00000000
00000000
00100000
00000000
00000000
00001000
00000000
,
00011000
00000000
00011000
00000000
,
00022000
00000000
00030000
00003000
,
00011000
00000100
00000100
00000100
,
00000100
00000100
00000100
00000000
,
00001001
00001000
00000010
00010000
,
00001000
01000000
00010000
00100000
,
00002000
00000000
00100000
00100000
,
00100000
00100000
00100000
00003000
,
00020000
00000000
00000010
00030010
,
00011000
00000000
00000000
00001000
00000000
00010000
00000000
00000000
,
00011000
00000000
00000000
00000000
,
00000000
00000000
00000000
00000000
;
#NOTES:
     dance-double:
     :
     Medium:
     11:
     :
00000000
00000000
00000000
00000000
,
00000000
00000000
00000000
00000000
,
00000000
00000000
00000000
00000000
,
00000000
00000000
00000000
00000000
,
00000000
00000000
00000000
00000000
,
00000000
00000000
00000000
00000000
,
00000000
00000000
00000000
00000000
,
00000000
00000000
00000000
00000000
,
00000000
00000000
00000000
00000000
,
00000000
00000000
00000000
00000000
,
00001000
00001000
00010000
00010000
,
00001000
00001000
00100000
00100000
,
00010000
10000000
00100000
01000000
,
00010000
00000000
00100000
00000000
00000000
00001000
00000000
00000000
,
00010000
00000000
00000000
00010000
00000000
00000000
00000000
00000000
00000010
00000000
00000000
00000010
00000000
00000000
00000000
00000000
,
00010000
00000000
00000000
00010000
00000000
00000000
00001000
00000000
00000000
00001000
00000000
00000000
00100000
00000000
00000000
00000000
,
00001000
00010000
00001000
00010000
00000010
00002000
00000002
00000000
,
00000000
00003000
00000003
00000000
,
00000100
00000000
00000010
00000000
00001000
00000001
00001000
00000000
,
00000001
00000010
00000100
00000000
00010000
00000000
00001000
00000000
,
01000000
00000000
00010000
00000000
00100000
01000000
10000000
00000000
,
00010000
10000000
00100000
00000000
01000000
00000000
00001000
00000000
,
00010000
00000000
00000010
00000000
00001000
00000001
00000100
00000000
,
00000001
00000010
00000100
00000000
00010000
00000000
00001000
00000000
,
00100000
00000000
01000000
00000000
10000000
00010000
01000000
00000000
,
01100000
00000000
00000000
00001000
00000000
00010000
00000000
00000000
,
00011000
00001000
00000010
00000001
,
00000001
00000100
00001000
00010000
,
00011000
00000000
00001000
00000000
00100000
00010000
01000000
00000000
,
00100000
10000000
00010000
00000000
00100000
00000000
02000000
00000000
,
03000000
00000000
10000000
00000000
00100000
01000000
00010000
00000000
,
00100000
00001000
00010000
00000000
00000100
00000000
00000010
00000000
,
00000001
00000000
00001000
00000000
00000001
00000100
00000010
00000000
,
00000110
00000000
00000000
00010000
00000000
00001000
00000000
00000000
,
00021000
00230000
02300000
03002000
,
00023000
02030000
23000000
30200000
,
00320000
00032000
00023000
00030200
,
00000320
00002030
00003020
00000031
,
00001200
00010300
00001200
00000301
,
00001200
00010300
00001100
00000011
,
00001001
00000000
00002000
00000000
00003010
00000010
00000100
00000010
,
00000010
00000100
00000010
00000010
00000100
00000000
00000010
00000000
,
00010000
00000000
00002000
00000000
00013000
00010000
00001000
00010000
,
00010000
00001000
00010000
00010000
00100000
00000000
01000000
00000000
,
00010000
00000000
20000000
00000000
31000000
01000000
00100000
01000000
,
01000000
00100000
01000000
01000000
00100000
00000000
00001000
00000000
,
00011000
00000000
00020000
00000000
00031000
00001000
00010000
00001000
,
00001000
00000000
00000000
00000100
00000000
00000010
00000000
00000000
,
00001010
00000000
00000000
00000000
,
00000000
00000000
00000000
00000000
,
00000000
00000000
00000000
00000000
,
00000000
00000000
00000000
00000000
00000000
00010000
00000000
00000000
,
00011000
00000000
00000000
00000000
,
00000000
00000000
00000000
00000000
,
10010000
00000000
00000000
00000000
,
00000000
01000000
00000000
00000000
01100000
00000000
00000000
00000000
,
00010000
10000000
01000000
00010000
,
00001000
00000000
00000100
00000000
00000001
00000000
00000010
00000001
,
00000010
00000001
00000100
00001000
,
00010000
00000000
01000000
00000000
00000000
10000000
00000000
00000000
,
00100000
00000000
00000000
00100000
00000000
00000000
00100000
00000000
01000000
00000000
00000000
01000000
00000000
00000000
01000000
00000000
,
00001000
00000000
00000000
00010000
00000000
00000000
00010000
00000000
00000000
00020000
00000000
00000000
00030000
00000000
00000000
00000000
,
00001000
00010000
00000100
00001000
00000010
00002000
00000002
00000000
,
00000000
00003000
00000003
00000000
,
00000100
00000000
00000010
00000000
00001000
00000001
00000010
00000000
,
00000100
00010000
00001000
01000000
00010000
00100000
01000000
00000000
,
10000000
00000000
00010000
00000000
10000000
01000000
00010000
00000000
,
00001000
00010000
00000010
00001000
00000001
00000010
00000100
00000000
,
00001000
00000000
00000100
00000000
00000010
00001000
00010000
00000000
,
00001000
00000000
01000000
00000000
00100000
10000000
00010000
00000000
,
01020000
10030000
02010000
03001000
,
00002000
00023000
02030000
03000000
,
10000000
01000000
00100000
00000000
00001000
00010000
00000100
00000000
,
00010000
00001000
00000010
00000001
00001000
00000010
00000100
00000000
,
00000100
00000010
00001000
00000000
00000001
00000100
00001000
00000000
,
00010000
00000000
00000000
00100000
00000000
00000000
10000000
00000000
00000000
01000000
00000000
00000000
00010000
00000000
00000000
00000000
,
00001000
00010000
00001000
00100000
00010000
00100000
00001000
00000000
,
00010000
00001000
00010000
00000010
00001000
00000010
00010000
00000000
,
00001000
00000000
00000000
00010000
00000000
00000000
01000000
00000000
00000000
00010000
00000000
00000000
00001000
00000000
00000000
00000000
,
00010000
00000000
00000000
00001000
00000000
00000000
00000100
00000000
00000000
00001000
00000000
00000000
00010000
00000000
00000000
00000000
,
00000100
00001100
00000001
00000011
,
00000100
00002002
00003000
00000003
,
00000100
00000001
00000010
00001000
,
00010000
00000000
00010000
00000000
00001000
00000000
00000100
00000010
,
00000010
00000000
00001000
00000000
00000001
00000010
00000100
00000000
,
00001000
00000010
00010000
00000000
00001000
00000000
00011000
00000000
,
00010000
00000000
00002000
00000000
01003000
01000000
00100000
01000000
,
01000000
00100000
01000000
01000000
00100000
00000000
00010000
00000000
,
00001000
00000000
00020000
00000000
00030010
00000010
00000100
00000010
,
00000010
00000000
00000000
00000101
00000000
00001100
00000000
00000000
,
00001001
00000000
00000000
00000000
,
00000000
00000000
00000000
00000000
;
#NOTES:
     dance-double:
     :
     Hard:
     14:
     :
00000000
00000000
00000000
00000000
,
00000000
00000000
00000000
00000000
,
00000000
00000000
00000000
00000000
,
00000000
00000000
00000000
00000000
,
00000000
00000000
00000000
00000000
,
00000000
00000000
00000000
00000000
,
00000000
00000000
00000000
00000000
,
00000000
00000000
00000000
00000000
,
00000000
00000000
00000000
00000000
,
00000000
00000000
00000000
00000000
,
00011000
00010000
00001000
00000100
,
00000010
00000000
00000010
00000000
00000100
00000000
00000001
00001000
,
00000001
00000010
00000100
00001000
,
00001000
00000000
00000010
00000000
00000000
00011000
00000000
00000000
,
00101000
00000000
00000000
00010000
00000000
00000000
00001000
00000000
00010010
00000000
00000000
00001000
00000000
00000000
00010000
00000000
,
00101000
00000000
00000000
00001000
00000000
00000000
00010010
00000000
00000000
00001000
00000000
00000000
00010000
00000000
00000000
00000000
,
00000100
00010000
00001000
00100000
00010000
01000000
00200000
00020000
,
00000000
00300000
00030000
00000010
,
00000110
00000000
00000001
00000010
00000100
00001000
00000010
00000100
,
00001000
00010000
00001000
00010000
01000000
10000000
00100000
01000000
,
00010000
00000000
00010000
00100000
01000000
10000000
00100000
00010000
,
00001000
00000100
00000010
00001000
00000001
00000010
00000100
00001000
,
00000010
00000000
00000010
00000100
00000010
00001000
00000010
00010000
,
00001000
00010000
00000100
00001000
00000100
00000010
00001000
00010000
,
00000100
00000000
00000100
00010000
00001000
00010000
00100000
01000000
,
01010000
00000000
00000000
00110000
00000000
11000000
00000000
00000000
,
10010000
00000000
00000000
10000000
00000000
01000000
10000000
00000000
00100000
01000000
00000000
00010000
,
00100000
00000000
00000000
00000000
00001000
00000000
00010000
00000000
00000000
00000000
00000100
00000000
00000010
00000000
00000000
00000000
00000001
00000000
00001000
00000000
00000000
00000010
00000000
00000000
,
00000100
00000000
00000001
00000100
00001000
00010000
00100000
01000000
,
00010000
10000000
00100000
10000000
01000000
00010000
00001000
00000200
,
00000300
00000000
00000110
00000000
00000001
00000010
00000100
00001000
,
00000010
00010000
00001000
00010000
00100000
00010000
00001000
00000100
,
00000010
00000000
00010000
00001000
00000010
00000001
00000001
00000100
,
00000010
00000000
00000000
00001010
00000000
00001001
00000000
00000000
,
00000001
00000000
00000000
00000001
00000010
00000000
00000100
00000000
00001000
00000000
00000000
00001000
00000001
00000000
00000010
00000000
,
00000001
00000000
00000000
00000100
00000010
00000000
00010000
00000000
00001000
00000000
00000000
00100000
00010000
00000000
10000000
00000000
,
00010000
00000000
00000000
10000000
01000000
00000000
00100000
00000000
00001000
00000000
00000000
00010000
00001000
00000000
00000010
00000000
,
00000001
00000000
00000000
00001000
00000001
00000000
00000100
00000000
00001000
00000000
00000000
00010000
00100000
00000000
01000000
00000000
,
02010000
03000000
12000000
03000000
,
02010000
00000000
03001000
00010000
00011000
00000000
00010000
00000000
,
00011000
00000000
00000000
00000000
00002000
00000000
00000000
00000000
00013000
00000000
00000100
00000000
00001000
00000100
00001000
00000100
,
00001000
00000100
00001000
00000000
00000100
00001000
00000100
00001000
00000100
00000000
00000010
00000000
00001000
00000000
00010000
00000000
,
00011000
00000000
00000000
00000000
00002000
00000000
00000000
00000000
01003000
00000000
00010000
00000000
01000000
00010000
01000000
00010000
,
01000000
00000000
00010000
00000000
01000000
00000000
00010000
01000000
00010000
00000000
00100000
00000000
00001000
00000000
00010000
00000000
,
00011000
00000000
00000000
00000000
00002000
00000000
00000000
00000000
00013000
00000000
00000010
00000000
00001000
00000010
00001000
00000010
,
00001000
00000010
00001000
00000000
00000010
00001000
00000010
00001000
00000010
00000000
00000100
00000000
00001000
00000000
00010000
00000000
,
00011000
00000000
00000000
00000000
00002000
00000000
00000000
00000000
00013000
00000000
01000000
00000000
10000000
01000000
10000000
01000000
,
00100000
00000000
00000000
00110000
00000000
00101000
00000000
00000000
,
00021000
00000000
00000000
00000000
,
00000000
00000000
00000000
00000000
,
00000000
00000000
00000000
00000000
,
00000000
00000000
00000000
00000000
00000000
00100000
00000000
00000000
,
00030020
00000000
00000000
00000000
,
00000000
00000000
00000000
00000000
,
00002030
00000000
00000000
00000000
,
00000000
00000100
00000000
00000000
00003010
00000000
00000000
00000000
,
00010000
00010000
00001000
00001000
,
00010000
00010000
01000000
01000000
,
10000000
00100000
00010000
00001000
,
01000000
00010000
00100000
01000000
00010000
00011000
00000000
00000000
,
00001000
00000000
00000000
00110000
00000000
00000000
00001000
00000000
00010000
00000000
00000000
00001010
00000000
00000000
00010000
00000000
,
00001000
00000000
00000000
00110000
00000000
00000000
00101000
00000000
00000000
00002010
00000000
00000000
00103000
00000000
00000000
00000000
,
00011000
00001000
00010000
00000010
00010000
00001000
00000200
00000020
,
00000000
00000300
00000030
00011000
,
00010000
00000000
00001000
00000000
00010000
00000000
01000000
00000000
00100000
00000000
00010000
00000000
10000000
00000000
00010000
01000000
,
00100000
00000000
10000000
00000000
01000000
00000000
00010000
00000000
00001000
00000000
00010000
00000000
00000010
00000000
00001000
00000010
,
00000100
00000000
00000001
00000000
00000010
00000000
00000100
00000000
00001000
00000000
00000001
00000000
00000100
00000000
00000010
00010000
,
00001000
00000000
00010000
00000000
00000010
00000000
00000100
00000000
00001000
00000000
00010000
00000000
00100000
00000000
01000000
00010000
,
10000000
00000000
01000000
00000000
00100000
00000000
00010000
00000000
10000000
00000000
01000000
00000000
00010000
00000000
00001000
00010000
,
00000010
00000000
00000100
00000000
00000001
00000000
00000010
00000000
00001000
00000000
00010000
00000000
00001000
00000000
01000000
00100000
,
20000000
32000000
03020000
00032000
,
00003020
00000032
00000203
00000301
,
00000001
00000000
00000100
00000000
00000010
00000000
00010000
00000000
00001000
00000000
00000010
00000000
00000001
00000000
00000100
00000010
,
00010000
00000000
00001000
00000000
01000000
00000000
00100000
00000000
10000000
00000000
01000000
00000000
00100000
00000000
00001000
00010000
,
00000100
00000000
00000010
00000000
00000001
00000000
00001000
00000000
00000100
00000000
00001000
00000000
00000010
00000000
00000100
00000001
,
00000010
00000000
00000000
00001000
00000000
00000000
00010000
00000000
00000000
00100000
00000000
00000000
10000000
00000000
01000000
00100000
,
01000000
00000000
10000000
00000000
00010000
00000000
01000000
00000000
00100000
00000000
10000000
00000000
01000000
00000000
00010000
00001000
,
00000010
00000000
00000100
00000000
00001000
00000000
00000001
00000000
00000010
00000000
00000001
00000000
00000100
00000000
00001000
00010000
,
00100000
00000000
00000000
10000000
00000000
00000000
10000000
00000000
00000000
10000000
00000000
00000000
01000000
00000000
00100000
00000000
,
00001000
00000000
00000000
00010010
00000000
00000000
00001000
00000000
00000000
00101000
00000000
00000000
00010000
00000000
00001000
00000000
,
00000010
00000000
00000000
00000100
00010000
00000000
00001000
00000000
00010000
00000000
00000000
00100000
01000000
00000000
00001000
00000000
,
00010000
00000000
00000000
00000000
00010000
00001000
00010000
00001000
00010000
00000000
00000000
00000000
00011000
00000000
00000000
00000000
,
00001000
00000000
00100000
00010000
00000000
01000000
00100000
00000000
10000000
01000000
00000000
00010000
,
00001000
00000000
00000000
00000000
00000010
00000000
00000001
00000000
00000000
00000000
00000001
00000000
00000100
00000000
00000000
00000000
00000010
00000000
00001000
00000000
00000000
00000001
00000000
00000000
,
00001001
00000000
00001000
00000010
00000100
00001000
00010000
00100000
,
01000000
10000000
01000000
00010000
00100000
00001000
00010000
00010000
,
00011000
00000000
00000000
00000000
00001000
00000000
00000000
00000000
00010000
00000000
00001000
00000000
00010000
00001000
00010000
00001000
,
00010000
00000000
00001000
00000000
00010000
00001000
00010000
00001000
00010000
00000000
00001000
00000000
00000100
00000000
00000010
00000000
,
00010000
00000000
00000000
00000000
00001000
00000000
00000000
00000000
00010000
00000000
00001000
00010000
00001000
00010000
00001000
00010000
,
00001000
00000000
00000000
00110000
00000000
11000000
00000000
00000000
,
10100000
00000000
00000000
00000000
,
00000000
00000000
00000000
00000000
;
