
//----- song ID: dind2 -----//
#TITLE:Din Don Dan (にじさんじダンス部 ver.);
#ARTIST:レイン・パターソン & 山神カルタ & 東堂コハク;
#TITLETRANSLIT:Din Don Dan (NIJISANJI Dance-bu ver.);
#ARTISTTRANSLIT:Rain Patterson & Karuta Sanjin & Kohaku Toudou;
#BANNER:Din Don Dan (NIJISANJI Dance-bu ver).png;
#BACKGROUND:Din Don Dan (NIJISANJI Dance-bu ver)-bg.png;
#CDTITLE:./CDTitles/DDR WORLD.png;
#MUSIC:Din Don Dan (NIJISANJI Dance-bu ver).ogg;
#SAMPLESTART:73.251;
#SAMPLELENGTH:15;
#BPMS:0=140;
#BGSTAGE:2;
#NOTES:
     dance-single:
     :
     Beginner:
     1:
     :
0000
0000
0000
0000
,
0000
0000
0000
0000
,
0000
0000
0000
0000
,
0000
0000
0000
0000
,
0000
0000
0000
0000
,
1000
0000
0000
0000
,
0000
0000
0000
0000
,
0001
0000
0000
0000
,
0000
0000
0000
0000
,
0000
0000
0000
0000
,
1000
0000
0000
0000
,
0001
0000
0000
0000
,
0001
0000
0000
0000
,
1000
0000
0000
0000
,
1000
0000
0000
0000
,
0001
0000
0000
0000
,
0001
0000
0000
0000
,
1000
0000
0000
0000
,
1000
0000
0000
0000
,
0001
0000
0000
0000
,
1000
0000
0000
0000
,
0010
0000
0000
0000
,
1000
0000
0000
0000
,
0001
0000
0000
0000
,
1000
0000
0000
0000
,
0100
0000
0000
0000
,
1000
0000
0000
0000
,
0000
0000
0000
0000
,
1000
0000
0000
0000
,
0000
0000
0000
0000
,
0001
0000
0000
0000
,
0000
0000
0000
0000
,
0001
0000
0000
0000
,
0000
0000
0000
0000
,
2000
0000
0000
0000
,
3000
0000
0000
0000
,
0020
0000
0000
0000
,
0030
0000
0000
0000
,
2000
0000
0000
0000
,
3000
0000
0000
0000
,
0002
0000
0000
0000
,
0003
0000
0000
0000
,
0000
0000
0000
0000
,
1000
0000
0000
0000
,
0001
0000
0000
0000
,
0001
0000
0000
0000
,
1000
0000
0000
0000
,
1000
0000
0000
0000
,
0001
0000
0000
0000
,
0001
0000
0000
0000
,
1000
0000
0000
0000
,
2000
0000
0000
3000
,
0000
0000
0000
0000
,
0002
0000
0000
0003
,
0000
0000
0000
0000
,
2000
0000
0000
3000
,
0000
0000
0000
0000
,
0002
0000
0000
0003
,
0000
0000
0000
0000
,
1001
0000
0000
0000
,
0000
0000
0000
0000
;
#NOTES:
     dance-single:
     :
     Easy:
     3:
     :
0000
0000
0000
0000
,
0000
0000
0000
0000
,
0000
0000
0000
0000
,
0000
0000
0000
0000
,
0000
0000
0000
0000
,
1000
0000
0000
0000
,
0001
0000
0000
0000
,
0010
0000
0000
0000
,
0100
0000
0000
0000
,
2000
0000
0000
3000
,
0001
0000
0001
0000
,
1000
0000
0000
0000
,
1000
0000
1000
0000
,
0001
0000
0000
0000
,
0001
0000
0001
0000
,
1000
0000
0000
0000
,
1000
0000
1000
0000
,
0001
0000
0000
0000
,
1000
0000
0010
0000
,
1000
0000
0000
0000
,
0001
0000
0010
0000
,
0001
0000
0000
0000
,
1000
0000
0100
0000
,
1000
0000
0000
0000
,
0001
0000
0100
0000
,
0001
0000
0000
0000
,
2000
0000
0000
0000
,
3001
0000
0001
0000
,
0002
0000
0003
0000
,
0000
0000
0000
0000
,
0020
0000
0000
0000
,
0130
0000
0100
0000
,
0200
0000
0300
0000
,
0020
0000
0030
0000
,
0110
0000
0000
0000
,
0110
0000
0000
0000
,
1001
0000
0000
0000
,
1001
0000
0000
0000
,
0110
0000
0000
0000
,
0110
0000
0000
0000
,
1001
0000
0000
0000
,
1001
0000
0000
0000
,
0002
0000
0000
0003
,
1000
0000
0001
0000
,
1000
0001
1000
0000
,
0001
0000
1000
0000
,
0001
1000
0001
0000
,
1000
0000
0100
0000
,
1000
0100
1000
0000
,
0001
0000
0100
0000
,
0001
0100
0001
0000
,
1000
0000
0010
0000
,
1000
0010
1000
0000
,
0001
0000
0010
0000
,
0001
0010
0001
0000
,
1000
0000
0100
0000
,
0010
0001
0010
0000
,
0001
0000
0100
0000
,
0010
1000
0010
0000
,
0110
0000
0000
0000
,
0000
0000
0000
0000
;
#NOTES:
     dance-single:
     :
     Medium:
     9:
     :
0000
0000
0000
0000
,
0000
0000
0000
0000
,
0000
0000
0000
0000
,
0000
0000
0000
0000
,
0000
0000
0000
0000
,
0001
0000
0010
0000
,
0100
0000
1000
0000
,
1000
0010
0100
0001
,
0001
0010
0100
1000
,
1001
0000
0000
0000
0000
0000
1000
0001
,
1000
0000
0001
0000
0010
0100
0010
0000
,
0001
1000
0001
1000
0001
0000
1000
0000
,
0010
0000
0100
0000
0010
0100
0010
0000
,
1000
0001
0000
0001
1000
0000
0001
0100
,
0001
0000
1000
0000
0010
0100
0010
0000
,
1000
0001
2000
0000
3002
0000
0003
0000
,
0010
0000
0100
0000
0010
0100
0010
0000
,
0001
1000
0000
1000
0001
0000
1000
0100
,
0010
0000
0011
0000
0010
0100
1000
0000
,
0001
1000
0001
1000
0001
0000
1000
0000
,
0010
0000
1010
0000
0010
0100
0001
0000
,
0001
1000
0000
1000
0010
0000
0010
0100
,
0001
0000
1000
0001
1000
0001
1000
0000
,
0001
0100
0001
0000
1000
0010
1000
0000
,
1010
0000
1001
0000
0001
0010
0100
0000
,
1000
0001
0001
0001
0020
0000
0030
0000
,
0001
1000
0010
0100
0010
2000
0000
0000
,
3001
0000
0000
0001
0010
0001
1000
0001
,
2000
0000
0000
0000
3000
0001
0010
0100
,
0010
0100
0100
1001
,
1000
0001
0010
0100
0010
0002
0000
0000
,
1003
0000
0001
1000
0020
0000
0230
0000
,
0302
0000
0013
0010
,
0020
0000
0030
1001
,
0002
0000
2003
0000
3010
0100
0010
0100
,
0002
0000
0000
2003
0000
0000
3001
0000
,
2000
0000
3002
0000
0013
0100
0010
0100
,
2000
0000
0000
3002
0000
0000
1003
0000
,
0002
0000
0203
0000
0310
1000
0010
1000
,
0002
0000
0000
0203
0000
0000
0301
0000
,
2000
0000
3200
0000
0310
0001
0010
0001
,
2000
0000
0000
0200
0000
0000
3300
0000
,
0110
0000
0000
0000
0000
0000
1000
0001
,
0010
0000
0100
0000
0010
0100
1000
0000
,
0010
0100
0010
0100
0010
0000
1000
0000
,
0001
0000
0010
0000
0010
0100
1000
0000
,
1000
0001
0000
0001
0100
0000
0010
1000
,
0001
0000
0010
0000
0010
0100
1000
0000
,
0001
0100
0001
0100
0020
0000
1030
0000
,
0010
0000
0100
0000
0010
0100
0001
0000
,
0001
1000
0000
1000
0100
0000
0010
0100
,
1000
0000
0100
0000
0010
0100
1000
0000
,
0010
0100
0010
0100
0010
0000
0110
0000
,
0100
0000
0010
0000
0100
0010
1000
0000
,
1000
0001
0000
0001
0010
0000
0010
0100
,
1000
0000
0010
0000
0010
0100
0001
0000
,
1000
0001
1000
0001
0020
0000
0130
0000
,
0010
0000
0100
0000
0010
0100
1000
0000
,
1000
0001
0000
0001
0100
0000
0010
0100
,
0010
0000
0000
0000
,
0000
0000
0000
0000
;
#NOTES:
     dance-single:
     :
     Hard:
     12:
     :
0000
0000
0000
0000
,
0000
0000
0000
0000
,
0000
0000
0000
0000
,
0000
0000
0000
0000
,
0000
0000
0000
0000
,
0001
0000
0000
0001
0000
0000
0001
0000
0000
0000
0100
0000
0100
0000
0010
0000
,
1000
0000
0000
1000
0000
0000
1000
0000
0000
0000
0100
0000
0010
0100
0010
0000
,
0100
1000
0100
1000
0001
0100
0001
0100
,
0010
1000
0010
1000
0001
0010
0001
0010
,
0200
0000
0000
0000
0000
0000
1300
1000
,
0100
0000
0000
0000
0010
0000
0000
0000
0100
0000
0010
0000
0001
0000
1000
0001
,
1000
0100
0010
0001
2000
0000
3010
0000
,
0100
0000
0010
0000
0100
0010
1000
0000
,
0000
0000
0010
0000
0000
0000
0001
0000
0010
0000
0000
0000
0100
0010
0100
0000
,
0001
0000
0010
0000
0100
1000
0001
0000
,
0010
0001
0100
0001
0010
0100
1000
0000
,
0001
0000
0000
0000
0010
0000
0000
0000
0100
0000
0010
0000
0001
0000
1000
0001
,
1000
0010
0000
0100
0001
0000
0010
0100
,
0110
0000
1001
0000
0001
0010
1000
0000
,
0001
0100
1000
0010
0002
0000
0013
0000
,
0110
0000
0000
0000
1001
0000
0000
0000
1000
0000
0010
0000
0100
0000
0010
0100
,
0010
0000
1000
0000
0000
0000
0100
0000
0010
0000
0000
0000
0001
1000
0001
0000
,
1000
0000
0010
0010
0001
0010
1000
0000
,
0001
0010
0001
0100
0010
1000
0100
1000
,
0001
0000
0000
0000
0010
0000
0000
0000
0100
0000
0010
0000
0001
0000
1000
0100
,
1000
0100
0100
0100
0010
0000
1001
0000
,
0000
1000
0010
0100
0010
0002
0000
0000
,
0013
0000
0000
0100
0010
0001
0010
1000
,
0002
0000
0000
0000
0003
1000
0010
0100
,
0001
0000
0010
0000
0010
0100
1000
0010
,
0100
0001
0010
0100
0010
2000
0000
0000
,
3010
0000
0000
1000
0020
0000
0230
0000
,
2300
0000
3000
0000
,
0020
0000
0030
0000
,
2000
0000
3002
0000
0013
0100
1000
0100
,
0020
0000
0000
0032
0000
0000
2003
0000
0000
0000
0000
0000
3001
0000
0000
0000
,
0002
0000
2003
0000
3010
0100
0001
0100
,
0020
0000
0000
2030
0000
0000
3002
0000
0000
0000
0000
0000
0103
0000
0000
0000
,
0020
0000
2030
0000
3010
0001
0010
1000
,
0002
0000
0000
0023
0000
0000
2030
0000
0000
0000
0000
0000
3010
0000
0000
0000
,
0002
0000
0203
0000
0310
0001
0010
1000
,
0020
0000
0000
0200
0000
0000
0330
0000
,
2002
0000
0000
0000
0000
3003
1000
1000
,
0010
0000
0000
0000
0100
0000
0000
0000
0010
0000
0100
0000
0001
0000
1000
0001
,
1000
0010
0100
0001
2000
0000
3100
0000
,
0010
0000
0100
0000
0010
0100
1000
0000
,
0000
0000
0100
0000
0000
0000
0001
0000
0100
0000
0000
0000
0010
0100
0010
0000
,
0001
0000
0010
0000
0100
1000
0001
0000
,
0100
0001
0010
0001
0100
0010
1000
0000
,
0001
0000
0000
0000
0100
0000
0000
0000
0010
0000
0100
0000
0001
0000
1000
0001
,
1000
0100
0000
0010
0001
0000
0010
0100
,
1000
0000
0010
0000
0100
0010
1000
0000
,
0100
0001
0100
1000
0010
0000
0110
0000
,
0100
0000
0010
0000
1000
0100
0010
0000
,
0000
0001
0000
0100
1000
0000
0001
0010
,
1000
0000
0100
0000
0001
0100
1000
0000
,
0010
0001
0010
1000
0100
0001
0100
1000
,
0010
0000
0000
0000
0100
0000
0000
0000
0001
0000
0010
0000
0100
0000
0010
0100
,
0010
0001
0000
0100
1000
0000
0100
0010
,
0110
0000
0000
0000
,
0000
0000
0000
0000
;
#NOTES:
     dance-single:
     :
     Challenge:
     16:
     :
0000
0000
0000
0000
,
0000
0000
0000
0000
,
0000
0000
0000
0000
,
0000
0000
0000
0000
,
0000
0000
0000
0000
,
1001
0000
0000
1001
0000
0000
1001
0000
0000
0000
1000
0000
0100
0000
0010
0000
,
0110
0000
0000
0110
0000
0000
0110
0000
0000
0000
0001
0000
0010
0100
0010
0100
,
1000
0100
1000
0100
0010
0001
0010
0001
1000
0010
1000
0010
0100
0001
0100
0001
,
1000
0100
0010
0001
1000
0010
0100
0001
0010
0100
1000
0001
0100
0010
1000
0001
,
0020
0000
0000
0000
0000
0000
0031
0001
,
1000
0000
0001
0100
0001
0000
1000
0100
1000
0000
0001
0010
0001
0000
1000
0010
,
1000
0000
0010
0100
0010
0000
1000
0001
1000
0000
0010
0100
0001
0000
0001
0000
,
1000
0000
0001
0010
0100
0000
1000
0010
0100
0000
0001
1000
0100
0000
1000
0001
,
0100
0000
0010
1000
0100
0000
0010
0001
0100
0000
0010
0100
0001
0000
0001
0000
,
1000
0000
0001
0100
0010
0000
1000
0100
0010
0000
0001
1000
0010
0000
1000
0001
,
0010
0000
0100
1000
0010
0000
0100
0001
0010
0000
0100
0010
0001
0000
0001
0000
,
1000
0000
0010
0001
0010
0000
1000
0010
1000
0000
0100
0001
0100
0000
1000
0100
,
1000
0001
1000
0001
0010
0100
0010
0100
1000
0010
0100
0001
1000
0000
1000
0000
,
1100
0000
0011
0000
1010
0001
0101
0000
,
0011
0000
0100
0000
1010
0000
0100
0000
1001
0000
1000
0100
0010
0000
0001
0000
,
0101
0000
0000
0000
1010
0000
0000
0000
0011
0000
1000
0000
1100
0000
0001
0010
,
0100
0000
0110
0000
0000
0000
0011
0000
1001
0000
1000
0010
0100
0000
0001
0000
,
1100
0000
0011
0011
0110
1000
0101
0000
,
1001
0100
1001
0100
0011
0100
1010
0100
,
0101
0000
0000
0000
1010
0000
0000
0000
0011
0000
1000
0000
1100
0000
0100
0010
,
0100
0110
0110
0110
1001
0000
0000
0000
,
0001
0000
1000
0100
1000
0000
0001
0100
0001
0000
1000
0010
1000
0001
0010
0001
,
0010
0000
0100
1000
0100
0000
0010
0001
0010
0000
0100
0010
0100
0000
1000
0001
,
1000
0000
0010
1000
0001
0000
0010
0001
1000
0000
0100
1000
0001
0000
0100
0001
,
1000
0000
0001
0010
0100
0000
1000
0010
0100
0000
0001
0000
1100
0000
0101
0000
,
1000
0000
0001
0010
0001
0000
1000
0010
1000
0000
0001
0100
0001
1000
0100
1000
,
0100
0000
0010
0001
0010
0000
0100
1000
0100
0000
0010
0100
0010
0000
0001
1000
,
0010
0100
0010
0100
0001
1000
0001
1000
0100
0010
0100
0010
0001
0100
0010
1000
,
0002
0000
0000
0000
1000
0000
1003
0000
0001
0010
0100
1000
0001
0100
0010
1000
,
0001
0000
1000
0100
0010
0001
0010
0001
1000
0000
0001
0100
0010
1000
0010
1000
,
0001
0000
0010
0100
1000
0001
1000
0001
0100
0010
0100
0010
1000
0001
1000
0001
,
0010
0000
0001
0010
0100
1000
0100
1000
0001
0000
1000
0010
0100
0001
0100
0001
,
1000
0000
0100
0010
0001
1000
0001
1000
0010
0100
0010
0100
0001
1000
0001
1000
,
0100
0000
0010
0100
1000
0010
0100
0001
0010
0000
0100
0010
0001
0100
0010
1000
,
0100
0000
0010
0100
1000
0001
0010
0100
1000
0010
0100
0001
1000
0010
0100
0001
,
1000
0000
0100
0010
1000
0010
0100
0010
0001
0000
0100
0010
0001
0010
0100
0010
,
1000
0000
0100
0010
0001
0100
0010
1000
0100
0010
0001
0100
0010
1000
0100
0010
,
0002
0000
0000
0000
0000
0000
1003
1000
,
0001
0000
1000
0100
1000
0000
0001
0100
0001
0000
1000
0010
1000
0000
0001
0010
,
0001
0000
0010
0100
0010
0000
0001
1000
0001
0000
0010
0100
1000
0000
1000
0000
,
0001
0000
1000
0010
0100
0000
0001
0010
0100
0000
1000
0001
0100
0000
0001
1000
,
0100
0000
0010
0001
0100
0000
0010
1000
0100
0000
0010
0100
1000
0000
1000
0000
,
0001
0000
1000
0100
0010
0000
0001
0100
0010
0000
1000
0001
0010
0000
0001
1000
,
0010
0000
0100
0001
0010
0000
0100
1000
0010
0000
0100
0010
1000
0000
1000
0000
,
0001
0000
0010
1000
0010
0000
0001
0010
0001
0000
0100
1000
0100
0000
0001
0100
,
0001
1000
0001
1000
0010
0100
0010
0100
0001
0010
0100
1000
0001
0000
1000
0000
,
0100
0000
0010
0100
0001
0000
0100
0010
0001
0000
0100
0010
0001
0000
0010
0100
,
0001
0000
0010
0100
0001
0000
0100
0010
0001
0000
0000
0000
0101
0000
0000
0000
,
0100
0000
0010
0100
1000
0000
0100
0010
1000
0000
0100
0010
1000
0000
0010
0100
,
1000
0000
0010
0100
1000
0000
0100
0010
1000
0000
0001
1000
0001
0000
0001
0000
,
1000
0000
0001
0010
1000
0000
0001
0100
1000
0000
0001
0100
1000
0000
0001
0010
,
1000
0000
0001
0010
1000
0000
0001
0100
1000
0000
0001
1000
0001
0000
0001
0000
,
1000
0000
0001
0100
1000
0000
0001
0010
1000
0000
0001
0010
1000
0000
0001
0100
,
1000
0000
0001
0100
1000
0000
0001
0010
1000
0000
0100
0000
0010
0000
1000
0000
,
1001
0000
0000
0000
,
0000
0000
0000
0000
;
#NOTES:
     dance-double:
     :
     Easy:
     3:
     :
00000000
00000000
00000000
00000000
,
00000000
00000000
00000000
00000000
,
00000000
00000000
00000000
00000000
,
00000000
00000000
00000000
00000000
,
00000000
00000000
00000000
00000000
,
00010000
00000000
00000000
00000000
,
00001000
00000000
00000000
00000000
,
00010000
00000000
00001000
00000000
,
00010000
00000000
00001000
00000000
,
00020000
00000000
00000000
00030000
,
00001000
00000000
00000000
00000000
,
01000000
00000000
00000000
00000000
,
00010000
00000000
00000000
00000000
,
10000000
00000000
00000000
00000000
,
00010000
00000000
00000000
00000000
,
01000000
00000000
00000000
00000000
,
00001000
00000000
00000000
00000000
,
00010000
00000000
00000000
00000000
,
00000010
00000000
00001000
00000000
,
00000010
00000000
00000000
00000000
,
00001000
00000000
00000001
00000000
,
00001000
00000000
00000000
00000000
,
00000100
00000000
00001000
00000000
,
00000100
00000000
00000000
00000000
,
00010000
00000000
00001000
00000000
,
00010000
00000000
00000000
00000000
,
00002000
00000000
00000000
00000000
,
00013000
00000000
00000000
00000000
,
00020000
00000000
00000000
00000000
,
00030100
00000000
00000000
00000000
,
00000200
00000000
00000000
00000000
,
00001300
00000000
00000000
00000000
,
00002000
00000000
00000000
00000000
,
00003001
00000000
00000000
00000000
,
00000001
00000000
00000001
00000000
,
00001000
00000000
00000000
00000000
,
00000100
00000000
00000100
00000000
,
00010000
00000000
00000000
00000000
,
00001000
00000000
00001000
00000000
,
00100000
00000000
00000000
00000000
,
00010000
00000000
00010000
00000000
,
10000000
00000000
00000000
00000000
,
10010000
00000000
00000000
00000000
,
10000000
00000000
01000000
00000000
,
00100000
00000000
00001000
00000000
,
00010000
00000000
00000100
00000000
,
00001000
00000000
00000000
00000000
,
00000001
00000000
00000100
00000000
,
00000010
00000000
00010000
00000000
,
00001000
00000000
01000000
00000000
,
00010000
00000000
00000000
00000000
,
10000000
00000000
00100000
00000000
,
01000000
00000000
00001000
00000000
,
00010000
00000000
00000010
00000000
,
00001000
00000000
00000000
00000000
,
00000001
00000000
00000010
00000000
,
00000100
00000000
00010000
00000000
,
00001000
00000000
00100000
00000000
,
00010000
00000000
00000000
00000000
,
10010000
00000000
00000000
00000000
,
00000000
00000000
00000000
00000000
;
#NOTES:
     dance-double:
     :
     Medium:
     9:
     :
00000000
00000000
00000000
00000000
,
00000000
00000000
00000000
00000000
,
00000000
00000000
00000000
00000000
,
00000000
00000000
00000000
00000000
,
00000000
00000000
00000000
00000000
,
10000000
00000000
01000000
00000000
,
00010000
00000000
00001000
00000000
,
00000100
00000001
00001000
00000010
,
00010000
00001000
01000000
00010000
,
10000000
00000000
00000000
00000000
00000000
00000000
00010000
10000000
,
00010000
00000000
10000000
00000000
00100000
01000000
00100000
00000000
,
01000000
00001000
00010000
00000100
,
00000010
00000000
00000001
00000000
00000010
00000100
00000010
00000000
,
00000001
00001000
00000000
00001000
00000001
00000000
00001000
00000001
,
00001000
00000000
00000100
00000000
00000010
00000100
00000010
00000000
,
00000200
00020300
00032000
01003000
,
00100000
00000000
10000000
00000000
01000000
00100000
01000000
00000000
,
10000000
00010000
00000000
00010000
10000000
00000000
10000000
01000000
,
10000000
00000000
01000000
00000000
00100000
00010000
00100000
00000000
,
00001000
00010000
00001000
00010000
00001000
00000000
00011000
00000000
,
00010000
00000000
00000010
00000000
00001000
00000010
00001000
00000000
,
00001000
00000001
00000000
00000001
00000010
00000000
00000100
00001000
,
00000100
00000000
00010000
00001000
00010000
00001000
00010000
00000000
,
00001000
01000000
00001000
00000000
01000000
00010000
01000000
00000000
,
00010000
00000000
00100000
00000000
01000000
10000000
01000000
00000000
,
10000000
00100000
00100000
00100000
02000000
00000000
03010000
00000000
,
10000000
00010000
00100000
01000000
10000000
02000000
00000000
00000000
,
03100000
00000000
00000000
00010000
00100000
00001000
00010000
00000010
,
00002000
00000000
00000000
00000000
00003000
00000001
00000010
00000100
,
00000010
00001000
00010000
01000000
,
10000000
00010000
01000000
00100000
10000000
02000000
00000000
00000000
,
03100000
00000000
00000000
00010000
00200000
00000000
00302000
00000000
,
00023000
00000000
00030000
00000100
,
00000020
00000000
00000030
00001001
,
00000002
00000000
00002003
00000000
00003010
00000100
00000010
00000100
,
00002000
00000000
00000000
00023000
00000000
00000000
00130000
00000000
,
20000000
00000000
30020000
00000000
00130000
01000000
00100000
01000000
,
00020000
00000000
00000000
00032000
00000000
00000000
00003010
00000000
,
00000002
00000000
00002003
00000000
00003100
00000010
00000100
00000010
,
00002000
00000000
00000000
00023000
00000000
00000000
01030000
00000000
,
20000000
00000000
30020000
00000000
01030000
00100000
01000000
00100000
,
00020000
00000000
00000000
00002000
00000000
00000000
00033000
00000000
,
00011000
00000000
00000000
00000000
00000000
00000000
00010000
00000010
,
00001000
00000000
00000001
00000000
00001000
00000100
00000010
00000000
,
00001000
00010000
00001000
00000000
00100000
00000000
00000000
00000000
,
00010000
00000000
10000000
00000000
00100000
01000000
00010000
00000000
,
01000000
00001000
00000000
00001000
00010000
00000000
00001000
00010000
,
00100000
00000000
01000000
00000000
00010000
01000000
00100000
00000000
,
00010000
00001000
00010000
00001000
00020000
00000000
00030100
00000000
,
00001000
00000000
00000001
00000000
00001000
00000100
00001000
00000000
,
00000100
00010000
00000000
00010000
00001000
00000000
00010000
00000010
,
00001000
00000000
00000001
00000000
00001000
00000100
00000010
00000000
,
00001000
00010000
00001000
00010000
00001000
00000000
01000000
00000000
,
00010000
00000000
10000000
00000000
00010000
00100000
00010000
00000000
,
00100000
00001000
00000000
00001000
00010000
00000000
00001000
00010000
,
00100000
00000000
01000000
00000000
00010000
01000000
00100000
00000000
,
00010000
00001000
00010000
00000000
00000010
00001000
00000010
00000000
,
00000100
00000000
00000001
00000000
00001000
00000010
00001000
00000000
,
00000010
00010000
00000000
00010000
00001000
00000000
00100000
00010000
,
10000000
00000000
00000000
00000000
,
00000000
00000000
00000000
00000000
;
#NOTES:
     dance-double:
     :
     Hard:
     12:
     :
00000000
00000000
00000000
00000000
,
00000000
00000000
00000000
00000000
,
00000000
00000000
00000000
00000000
,
00000000
00000000
00000000
00000000
,
00000000
00000000
00000000
00000000
,
10000000
00000000
00000000
00100000
00000000
00000000
00010000
00000000
00000000
00000000
00001000
00000000
00010000
00000000
00001000
00000000
,
00010000
00000000
00000000
01000000
00000000
00000000
10000000
00000000
00000000
00000000
00010000
00000000
00100000
01000000
00100000
00000000
,
00010000
00100000
00010000
00100000
00001000
00010000
00001000
00010000
,
00000010
00001000
00000010
00001000
00000001
00000010
00000001
00000010
,
00000200
00000000
00000000
00000000
00000000
00000000
00001300
00000001
,
00001000
00000000
00000010
00000000
00000100
00000010
00001000
00000000
,
00000100
00000010
00001000
00010000
00200000
00000000
01300000
00000000
,
00010000
00000000
00100000
00000000
01000000
00100000
00010000
00000000
,
10000000
00100000
00000000
01000000
00010000
00000000
00001000
00000010
,
00000100
00000000
00000001
00000000
00000010
00000100
00001000
00000000
,
00000010
00000100
00001000
00010000
01000000
00100000
00010000
01000000
,
00100000
00000000
10000000
00000000
00100000
01000000
00010000
00000000
,
10000000
01000000
00000000
00100000
00010000
00000000
00001000
00000100
,
00000010
00000000
00000001
00000000
00000010
00000001
00000100
00000000
,
00000010
00000100
00001000
00010000
02000000
00000000
03100000
00000000
,
00010000
00000000
00100000
00000000
01000000
00100000
00010000
00000000
,
01000000
00010000
00000000
00001000
00000010
00000000
00000100
00000001
,
00000010
00000000
00001000
00001000
00010000
00010000
01000000
00000000
,
10000000
00100000
00010000
00001000
00010000
01000000
10000000
00100000
,
00010000
00000000
00000000
00000000
00001000
00000000
00000000
00000000
00000100
00000000
00000010
00000000
00001000
00000000
00000100
00000010
,
00000100
00000010
00000010
00000010
00000100
00000000
00001001
00000000
,
00001000
00000001
00000010
00000100
00000010
00000002
00000000
00000000
,
00000013
00000000
00000000
00000100
00000010
00001000
00010000
01000000
,
20000000
00000000
00000000
00000000
30000000
01000000
00100000
01000000
,
10000000
00000000
00100000
00000000
00100000
01000000
00010000
00100000
,
01000000
10000000
00100000
01000000
00100000
00020000
00000000
00000000
,
00031000
00000000
00000000
00001000
00020000
00000000
02030000
00000000
,
23000000
00000000
30000000
00000000
,
00200000
00000000
00300000
01100000
,
20000000
00000000
30020000
00000000
00130000
01000000
00100000
01000000
,
10000000
00000000
00000000
00010000
00000000
00000000
00002000
00000000
00000000
00000000
00000000
00000000
00003001
00000000
00000000
00000000
,
00000002
00000000
00002003
00000000
00003010
00000100
00000010
00000100
,
00000001
00000000
00000000
00001000
00000000
00000000
00020000
00000000
00000000
00000000
00000000
00000000
10030000
00000000
00000000
00000000
,
00020000
00000000
02030000
00000000
03100000
00010000
00100000
10000000
,
00100000
00000000
00000000
00010000
00000000
00000000
00002000
00000000
00000000
00000000
00000000
00000000
00003010
00000000
00000000
00000000
,
00000002
00000000
00000023
00000000
00000130
00001000
00000100
00000001
,
00000200
00000000
00000000
00000020
00000000
00000000
00000330
00000000
,
00002002
00000000
00000000
00000000
00000000
00003003
00000001
00000001
,
00001000
00000000
00000100
00000000
00000010
00000100
00001000
00000000
,
00000010
00000100
00001000
00010000
02000000
00000000
03100000
00000000
,
00010000
00000000
01000000
00000000
00100000
01000000
00010000
00000000
,
10000000
01000000
00000000
01000000
00010000
00000000
00010000
00001000
,
00010000
00000000
00000100
00000000
00000010
00000001
00000100
00000000
,
00000010
00000100
00001000
00010000
01000000
00100000
00010000
10000000
,
00010000
00000000
00100000
00000000
01000000
00100000
00010000
00000000
,
10000000
00100000
00000000
00100000
00010000
00000000
00010000
00001000
,
00010000
00000000
00000010
00000000
00000100
00000010
00001000
00000000
,
00000100
00000010
00001000
00010000
00100000
00000000
01100000
00000000
,
10000000
00000000
00100000
00000000
01000000
00100000
10000000
00000000
,
01000000
00010000
00000000
00001000
00000100
00000000
00000001
00000010
,
00001000
00000000
00010000
00000000
00100000
10000000
01000000
00000000
,
00010000
00001000
00000100
00000010
00010000
00001000
00100000
01000000
,
10000000
00000000
00100000
00000000
00010000
00001000
00000010
00000000
,
00000010
00001000
00000000
00010000
00100000
00000000
10000000
01000000
,
01100000
00000000
00000000
00000000
,
00000000
00000000
00000000
00000000
;
#NOTES:
     dance-double:
     :
     Challenge:
     16:
     :
00000000
00000000
00000000
00000000
,
00000000
00000000
00000000
00000000
,
00000000
00000000
00000000
00000000
,
00000000
00000000
00000000
00000000
,
00000000
00000000
00000000
00000000
,
00011000
00000000
00000000
00011000
00000000
00000000
00011000
00000000
00000000
00000000
00001000
00000000
01000000
00000000
00100000
00000000
,
01100000
00000000
00000000
01100000
00000000
00000000
01100000
00000000
00000000
00000000
10000000
00000000
00100000
10000000
00100000
10000000
,
00010000
01000000
00010000
01000000
00001000
00010000
00001000
00010000
00000100
00001000
00000100
00001000
00000001
00000010
00000001
00000010
,
00000100
00001000
00000100
00010000
00001000
01000000
00010000
10000000
00100000
01000000
00010000
01000000
00001000
00010000
00000100
00001000
,
00000002
00000000
00000000
00000000
00000000
00000000
00001003
00001000
,
00000001
00000000
00001000
00000100
00001000
00000000
00000100
00010000
00000100
00000000
00010000
00001000
00010000
00000000
00001000
01000000
,
00001000
00000000
01000000
00010000
01000000
00000000
00010000
10000000
00010000
00000000
10000000
01000000
10000000
00000000
00010000
00000000
,
10000000
00000000
00010000
01000000
00010000
00000000
01000000
00001000
01000000
00000000
00001000
00010000
00001000
00000000
00010000
00000100
,
00010000
00000000
00000100
00001000
00000100
00000000
00001000
00000001
00001000
00000000
00000001
00000100
00000001
00000000
00001000
00000000
,
00000001
00000000
00001000
00000010
00001000
00000000
00000010
00010000
00000010
00000000
00010000
00001000
00010000
00000000
00001000
00100000
,
00001000
00000000
00100000
00010000
00100000
00000000
00010000
10000000
00010000
00000000
10000000
00100000
10000000
00000000
00010000
00000000
,
10000000
00000000
00010000
00100000
00010000
00000000
00100000
00001000
00100000
00000000
00001000
00010000
00001000
00000000
00010000
00000000
,
00000010
00001000
00000010
00001000
00000001
00000010
00000001
00000010
00000100
00001000
00000100
00001000
00000001
00000000
00000100
00000000
,
00000110
00000000
00001001
00000000
00000011
00000001
00001100
00000000
,
00010010
00000000
00010000
00000000
01001000
00000000
01000000
00000000
10010000
00000000
10000000
01000000
00100000
00000000
00001000
00000000
,
00101000
00000000
00000000
00000000
00010010
00000000
00000000
00000000
00001100
00000000
00000001
00000000
00000101
00000000
00000001
00000100
,
00001000
00000000
00010000
00000000
00000000
00000000
01000000
00000000
10000000
00000000
10000000
01000000
00010000
00000000
00001000
00000000
,
00000200
00000000
00001300
00001000
00010000
01000000
10000000
00000000
,
11000000
01000000
00110000
00001000
00010100
00001000
00001010
00000100
,
00000110
00000000
00001001
00000000
00000011
00000001
00001100
00001000
,
00001010
00000100
00000100
00000100
00000010
00000000
00001001
00000000
,
00000001
00000000
00001000
00000010
00000100
00000000
00000001
00001000
00000100
00000000
00010000
00001000
01000000
00000000
00010000
10000000
,
01000000
00000000
00100000
00010000
10000000
00000000
00100000
01000000
00001000
00000000
00010000
00000100
00001000
00000000
00000001
00000100
,
00000010
00000000
00001000
00000001
00000010
00000000
00000100
00010000
00001000
00000000
01000000
00010000
10000000
00000000
01000000
00100000
,
00001000
00000000
00010000
00000010
00001000
00000000
00000001
00000010
00000100
00000000
00010000
00000000
00001000
00000000
01000000
00000000
,
00010000
00000000
10000000
01000000
00010000
00000000
00001000
00000010
00000001
00000000
00001000
00000001
00001000
00000000
00000010
00000100
,
00000010
00000000
00000100
00001000
00010000
00000000
00001000
00010000
00100000
00000000
10000000
00010000
10000000
00000000
01000000
00000000
,
00100000
00010000
00100000
00010000
01000000
00001000
01000000
00001000
00010000
00000100
00010000
00000100
00001000
00000010
00001000
00000010
,
00000200
00000000
00000000
00000000
00000010
00000000
00000310
00000000
00010000
00001000
00100000
00010000
10000000
00000000
00000000
00000000
,
00010000
00000000
10000000
01000000
00010000
00000000
01000000
00010000
00001000
00000000
00010000
00001000
00000100
00000000
00000001
00000000
,
00000100
00000001
00000100
00000001
00000100
00001000
00000100
00001000
00010000
00001000
00010000
00001000
00010000
01000000
00010000
01000000
,
10000000
00000000
01000000
00010000
01000000
00000000
00010000
00001000
00010000
00000000
00001000
00000100
00001000
00000000
00000100
00000000
,
00000001
00000100
00000001
00000100
00001000
00000100
00001000
00000100
00001000
00010000
00001000
00010000
01000000
00010000
01000000
00010000
,
01000000
00000000
10000000
00100000
00010000
00000000
00100000
00010000
00001000
00000000
00010000
00001000
00000010
00000000
00000001
00000000
,
00000010
00000001
00000010
00000001
00000010
00001000
00000010
00001000
00010000
00001000
00010000
00001000
00010000
00100000
00010000
00100000
,
10000000
00000000
00100000
00010000
00100000
00000000
00010000
00001000
00010000
00000000
00001000
00000010
00001000
00000000
00000010
00000000
,
00000001
00000010
00000001
00001000
00000100
00001000
00000100
00010000
00001000
00010000
00001000
01000000
00010000
01000000
00010000
10000000
,
00200000
00000000
00000000
00000000
00000000
00000000
01300000
01000000
,
00100000
00000000
01000000
00100000
01000000
00000000
00010000
10000000
00010000
00000000
00100000
01000000
00100000
00000000
00001000
00010000
,
00001000
00000000
00000100
00000010
00000100
00000000
00000001
00001000
00000001
00000000
00000000
00000000
00001001
00000000
00000000
00000000
,
00001000
00000000
00000100
00000010
00000100
00000000
00001000
00000001
00001000
00000000
00000010
00000100
00000010
00000000
00010000
00001000
,
00010000
00000000
01000000
00100000
01000000
00000000
10000000
00010000
10000000
00000000
00000000
00000000
00100000
00000000
01000000
00000000
,
00010000
00000000
00100000
01000000
00010000
00000000
00001000
00000010
00000100
00000000
00001000
00000010
00000100
00000000
00000010
00000100
,
00001000
00000000
00010000
00100000
01000000
00000000
00010000
00100000
01000000
00000000
00010000
00000000
00001000
00000000
00000010
00000000
,
00000001
00000000
00000100
00000010
00001000
00000000
00000100
00000010
00001000
00000000
00010000
01000000
00100000
00000000
00010000
01000000
,
00100000
00000000
00010000
00001000
00010000
00000000
00001000
00000010
00001000
00000000
00010000
00001000
00010000
00000000
00100000
00000000
,
10000000
00000000
00100000
00010000
00001000
00000000
00010000
00001000
00010000
00000000
00001000
00000010
00000001
00000000
00000010
00001000
,
00010000
00000000
00001000
00010000
00001000
00000000
00010000
00100000
20000000
00000000
00000000
00000000
30010000
00000000
00000000
00000000
,
10000000
00000000
01000000
00010000
00001000
00000000
00010000
00001000
00010000
00000000
00001000
00000100
00000001
00000000
00000100
00001000
,
00010000
00000000
00001000
00010000
00001000
00000000
00010000
01000000
20000000
00000000
00000000
00000000
30010000
00000000
00010000
00000000
,
10000000
00000000
00010000
01000000
00100000
00000000
00010000
00001000
00010000
00000000
00001000
00000010
00000100
00000000
00001000
00000000
,
00000001
00000000
00001000
00000010
00000100
00000000
00001000
00010000
00001000
00000000
00010000
01000000
00100000
00000000
00010000
00000000
,
10000000
00000000
00100000
01000000
00010000
00000000
00001000
00000010
00000100
00000000
00000001
00001000
00000001
00000000
00000010
00000000
,
00000100
00000000
00000010
00000100
00001000
00000000
00010000
00100000
01000000
00000000
10000000
00000000
00100000
00000000
00010000
00000000
,
00011000
00000000
00000000
00000000
,
00000000
00000000
00000000
00000000
;
