
//----- song ID: defl -----//
#TITLE:Dense Flyer;
#ARTIST:seatrus;
#BANNER:Dense Flyer.png;
#BACKGROUND:Dense Flyer-bg.png;
#CDTITLE:./CDTitles/DDR WORLD.png;
#MUSIC:Dense Flyer.ogg;
#SAMPLESTART:88.194;
#SAMPLELENGTH:15;
#BPMS:0=166;
#NOTES:
     dance-single:
     :
     Beginner:
     3:
     :
0000
0000
0000
0000
,
0000
0000
0000
0000
,
0000
0000
0000
0000
,
0000
0000
0000
0000
,
0000
0000
0000
0000
,
1000
0000
0000
0000
,
1000
0000
0000
0000
,
0001
0000
0000
0000
,
0001
0000
0000
0000
,
1000
0000
1000
0000
,
1000
0000
0000
0000
,
0001
0000
0001
0000
,
0001
0000
0000
0000
,
1001
0000
0000
0000
,
0010
0000
0010
0000
,
0010
0000
0000
0000
,
0100
0000
0000
0000
,
0010
0000
0000
0000
,
0100
0000
0100
0000
,
0100
0000
0000
0000
,
0010
0000
0000
0000
,
1001
0000
0000
0000
,
0001
0000
0001
0000
,
0001
0000
0000
0000
,
1000
0000
0000
0000
,
0001
0000
0001
0000
,
1000
0000
1000
0000
,
0020
0000
0000
0000
,
0030
0000
0000
0000
,
0000
0000
1000
0000
,
0000
0000
0001
0000
,
0000
0000
1000
0000
,
0000
0000
0001
0000
,
2000
0000
3000
0000
,
1000
0000
0001
0000
,
0010
0000
0010
0000
,
0100
0000
0001
0000
,
2000
0000
0000
0000
,
3000
0000
1000
0000
,
0002
0000
0000
0000
,
0003
0000
0001
0000
,
1001
0000
0000
0000
,
1001
0000
0000
0000
,
1000
0000
0001
0000
,
1000
0000
0001
0000
,
2000
0000
0000
0000
,
0000
0000
0000
0000
,
3000
0000
0000
0000
,
0000
0000
0000
0000
,
0001
0000
0000
0000
,
0001
0000
0000
0000
,
1000
0000
0000
0000
,
1000
0000
0000
0000
,
0002
0000
0000
0000
,
0003
0000
0000
0000
,
2000
0000
0000
0000
,
3000
0000
0000
0000
,
0001
0000
0001
0000
,
1000
0000
1000
0000
,
0010
0000
0010
0000
,
0100
0000
0000
0000
,
1001
0000
0000
0000
,
1000
0000
0001
0000
,
1000
0000
1000
0000
,
0001
0000
0001
0000
,
1001
0000
0000
0000
,
0001
0000
1000
0000
,
0001
0000
0001
0000
,
1000
0000
1000
0000
,
1001
0000
0000
0000
,
1000
0000
0001
0000
,
1000
0000
1000
0000
,
0001
0000
0001
0000
,
0010
0000
0010
0000
,
0010
0000
0010
0000
,
0100
0000
0100
0000
,
0100
0000
0000
0000
,
1001
0000
0000
0000
,
1000
0000
0001
0000
,
1000
0000
0001
0000
,
1000
0000
1000
0000
,
2000
0000
3000
0000
,
0000
0000
0000
0000
;
#NOTES:
     dance-single:
     :
     Easy:
     6:
     :
0000
0000
0000
0000
,
0000
0000
0000
0000
,
0000
0000
0000
0000
,
0000
0000
0000
0000
,
0000
0000
0000
0000
,
1000
0100
1000
0001
,
1000
0010
1000
0000
,
0001
0100
0001
1000
,
0001
0010
0001
0000
,
2000
3100
0002
0103
,
2000
3010
0002
0013
,
1000
0001
1000
0001
,
1000
0000
0000
0001
,
1001
0000
1000
0000
,
0001
1000
0001
0000
,
1000
0010
1000
0000
,
0001
0100
0001
0000
,
0200
0001
0000
0001
,
0000
0001
0302
1000
,
2003
0100
0000
0100
,
0000
0100
3000
0000
,
1001
1001
2002
3003
,
0110
0110
0220
0330
,
1001
1001
2002
3003
,
0110
0110
0220
0330
,
1001
0010
0100
0000
,
1001
1000
0001
0000
,
1000
1000
0001
0001
,
2000
0000
0000
0000
,
3001
0000
0101
0000
,
1000
0000
1010
0000
,
0010
1000
0001
0000
,
0010
0001
1000
0000
,
0001
1000
0001
2000
,
0000
3000
0001
0000
,
1000
0100
0010
0100
,
1000
0001
0100
0001
,
2000
0100
0100
0100
,
0100
0100
0100
3000
,
0002
0010
0010
0010
,
0010
0010
0010
0003
,
0110
0000
0000
0000
,
1001
1000
0001
0000
,
1000
0010
1000
0010
,
0100
0001
0100
0001
,
2000
0000
0100
0000
,
3200
0000
0010
0000
,
0320
0000
0001
0000
,
0032
0000
1003
0000
,
0001
0000
0001
0000
,
1000
0000
1000
0000
,
0001
0100
0001
1000
,
0002
0000
0000
0003
,
1000
0010
1000
0100
,
1000
0001
1000
0000
,
0001
0010
0001
0100
,
0001
1000
0001
0000
,
2000
3100
0002
0103
,
2000
3010
0002
0013
,
1000
0001
1000
0001
,
1000
0000
0000
0001
,
1001
0000
0001
0010
,
0100
1000
0010
0100
,
0010
0000
1000
0010
,
0100
0001
0010
0100
,
0010
0000
0001
1000
,
0001
0010
0100
1000
,
0001
0000
1000
0001
,
1000
0010
0100
0001
,
1001
0000
1000
0010
,
0001
0010
1000
0001
,
1000
0000
0001
0010
,
1000
0010
0001
1000
,
0001
0000
1000
0100
,
0010
0100
1000
0001
,
1000
0000
0001
0100
,
0010
0100
0001
1000
,
1001
0000
1000
0000
,
0010
0100
0010
1000
,
0001
0000
0010
0000
,
0100
1000
0001
1000
,
0002
0000
0003
0000
,
0000
0000
0000
0000
;
#NOTES:
     dance-single:
     :
     Medium:
     10:
     :
0000
0000
0000
0000
,
0000
0000
0000
0000
,
0000
0000
0000
0000
,
0000
0000
0000
0000
,
0000
0000
0000
0000
,
1000
0000
0000
0010
0000
0000
1000
0000
,
0001
0000
0000
0100
0000
0000
0001
0000
,
1000
0000
0000
0001
0000
0000
0100
0000
,
0001
0000
0000
1000
0000
0000
0100
0000
,
1000
0100
1000
0000
0100
0010
0100
0000
,
0010
0001
0010
0000
0001
1000
0001
0000
,
1001
1001
0110
1001
,
0001
0010
0100
1000
0001
0000
1000
0000
,
1001
0000
0001
0000
0100
0000
0010
1000
,
0010
0000
1000
0000
0100
0000
0010
0001
,
0010
0000
0100
0000
1000
0000
0001
1000
,
0001
0100
0010
0100
,
0020
1000
0100
0001
,
0100
1000
2030
3100
,
0020
0001
0100
1000
,
0100
0001
0130
0000
,
1100
1001
1010
1100
,
2000
0000
3020
0000
0230
0000
0301
0100
,
0101
1001
0011
0101
,
0200
0000
0302
0000
2003
0000
3010
0100
,
0110
0000
0110
0000
0110
0000
1000
0001
,
1001
0000
1001
0000
1001
0000
0002
0003
,
1000
0010
0100
0000
0001
0010
0100
1000
,
0002
0000
0000
1003
,
2001
0000
3002
0000
,
0203
0000
0320
0030
,
1000
0000
0100
0000
0000
0000
0000
0000
1000
0000
0000
0001
0000
0000
0000
0000
,
0010
0000
0010
0000
0010
0000
0000
0000
0001
0000
0000
1000
0000
0000
0001
0000
,
0020
0030
0020
0030
0200
0300
1000
0001
,
0000
1000
0010
0000
0100
0000
0010
0100
,
0001
1000
0010
0000
1000
0000
0010
1000
,
0001
0000
1000
0000
0010
0100
0001
0000
,
1100
0000
1001
0000
1010
0000
1000
0010
,
2000
0000
3001
0010
0002
0000
0103
0001
,
1000
0001
1000
0001
1000
0000
0001
0000
,
0020
0000
0230
0000
2300
0000
3010
0100
,
0110
0000
0110
0000
0110
0000
1000
0001
,
1001
0000
1001
0000
1001
0000
2000
3000
,
0001
0010
0100
0000
1000
0010
0100
0001
,
2000
0000
0000
3001
,
2000
0000
0200
3000
,
0020
0300
0002
0030
,
0200
0003
0020
0300
,
2000
0030
0002
3000
,
0103
0000
0000
0001
0000
0000
0010
0000
0100
0000
0000
1000
0000
0000
0100
0000
,
0010
0000
0000
0001
0000
0000
1000
0000
0001
0000
0000
0010
0000
0000
0001
0000
,
0100
0000
0000
0001
0000
0000
0100
0000
0010
0000
0000
1000
0000
0000
0010
0000
,
0200
0000
0000
0020
0000
0000
0330
0000
0000
0000
0000
0000
1001
0000
0000
0000
,
0001
0000
1000
0000
0001
0100
0001
0000
,
1000
0000
0001
0000
1000
0010
1000
0000
,
0001
0000
1000
0000
0001
0010
0001
0000
,
1000
0000
0001
1000
0001
1000
0001
0000
,
1000
0100
1000
0000
0100
0010
0100
0000
,
0010
0001
0010
0000
0001
1000
0001
0000
,
1000
0100
1000
0000
0001
0010
0001
0000
,
1000
0000
0000
0100
0000
0000
0010
0000
0000
0000
0001
0000
1000
0000
0000
0000
,
1001
0000
0001
0000
1000
0100
0001
0000
,
0110
0000
1000
0000
0001
0100
1000
0000
,
0110
0000
0001
0000
1000
0010
0001
0000
,
0110
0000
1000
0000
0001
0010
1000
0000
,
0110
0000
0001
0000
1000
0010
0100
0000
,
0001
0000
1000
0000
0001
0010
0100
0000
,
1000
0000
0100
0000
0010
0001
0010
0000
,
0001
0000
1000
0001
0100
0001
1000
0000
,
1001
0000
0001
0010
0100
1000
0100
0000
,
1000
0000
0000
0000
0000
0000
0000
0000
0001
0000
0000
0000
0001
0000
0000
0000
2000
3000
0000
0000
0200
0300
0000
0000
0020
0030
0000
0000
0002
0003
0000
0000
,
1000
0000
0010
0000
1000
0010
0100
0001
,
0100
0000
0010
0000
0100
0001
0010
0001
,
1000
0000
0100
0000
0010
0001
1000
0100
,
1000
0000
0001
0000
1000
0001
1000
0001
,
1000
0011
1001
1100
,
0220
0000
0000
0000
0000
0000
0000
0000
0000
0330
0000
0000
0010
0000
0000
0000
,
1100
1001
1010
1100
,
1000
0000
0010
0000
0100
0000
0001
0001
,
0000
1000
1000
0000
0010
0000
0100
0001
,
0100
0010
1000
0001
0000
1000
0001
1000
,
0002
0000
0003
0000
,
0000
0000
0000
0000
;
#NOTES:
     dance-single:
     :
     Hard:
     14:
     :
0000
0000
0000
0000
,
0000
0000
0000
0000
,
0000
0000
0000
0000
,
0000
0000
0000
0000
,
0000
0000
0000
0000
,
1000
0000
0010
0000
1000
0100
0010
0000
,
0001
0000
1000
0000
0001
0010
0100
0000
,
1000
0000
0001
0000
1000
0010
0100
0000
,
0001
0000
1000
0000
0001
0100
0010
0000
,
1000
0100
1000
0000
0100
0010
0100
0000
,
0010
0001
0010
0000
0001
1000
0001
0000
,
1000
0010
1000
0000
0001
0100
0001
0000
1000
0010
1000
0000
0001
0100
0001
0000
,
1000
0000
0000
0001
0000
0000
1000
0000
0001
0100
0010
0000
1010
0000
0000
0000
,
1100
0000
0000
0000
0100
1000
0000
0001
0000
1000
0000
0001
1000
0000
0100
0000
,
0010
0000
0000
0000
0010
0001
0000
1000
0000
0001
0000
1000
0001
0000
0100
0000
,
0010
0000
0000
0000
0010
1000
0000
0001
0000
1000
0000
0001
1000
0000
0100
0000
,
0010
0000
0000
0000
0010
0001
0000
1000
0000
0001
0000
1000
0001
0000
0100
0000
,
0020
0000
0000
0000
0001
0000
0000
0100
0000
0100
0000
0000
1000
0000
1000
0000
,
1000
0000
0001
0000
2030
0000
3010
0100
,
0210
0000
0000
0000
1000
0000
0000
0010
0000
0010
0000
0000
0001
0000
0001
0000
,
0001
0000
0000
0000
0000
0000
0000
0000
0000
0000
0000
0000
0000
0000
0000
0000
1000
0000
0000
0000
0000
0000
0000
0000
0000
0000
0000
0000
0010
0000
0000
0000
0000
0000
0000
0000
0010
0000
0000
0000
0000
0000
0000
0000
0000
0000
0000
0000
0301
0000
0000
0000
0000
0000
0000
0000
2000
3000
0000
0000
0000
0000
0000
0000
,
1002
0003
0000
0000
2001
3000
0000
0000
0102
0003
0000
0000
0021
0030
0000
0000
,
1001
0000
1100
0000
0101
0000
0011
0001
,
1002
0003
0000
0000
2001
3000
0000
0000
0102
0003
0000
0000
0021
0030
0000
0000
,
1001
0000
1100
0000
0101
0000
1010
0010
,
0110
0000
1001
0000
0110
0000
1000
0001
,
1001
0000
0110
0000
1001
0000
2000
3000
,
0001
0010
1000
0010
0001
0100
1000
0100
,
0001
0000
0000
0100
0010
0000
1000
0001
1000
0001
1000
0000
0001
0000
0000
0000
,
1001
0000
0000
0000
0000
0000
0000
0000
0000
0000
0000
0000
0000
0000
0000
0000
0001
0000
0000
0000
0000
0000
0000
0010
0000
0000
0000
0000
0100
0000
0000
0000
,
1000
0000
0000
0000
0000
0000
0000
0100
0000
0000
0000
0000
0010
0000
0000
0000
0001
0000
0000
0000
0000
0000
0000
0010
0000
0000
0000
0000
0100
0000
0000
0000
,
1000
0000
0001
0100
0001
0100
0001
0100
0001
0000
0000
1000
0000
0000
0000
0000
,
0001
0000
0001
0000
0001
0000
0000
0000
1100
0000
0000
0110
0000
0000
1100
0000
,
0220
0000
0330
0000
0220
0000
0330
0000
2002
0000
3003
0000
0001
0010
0001
0000
,
0100
0010
0100
0000
0001
0000
0110
0000
,
1000
0000
0001
0000
1000
0100
1000
0100
1000
0000
0100
0000
0010
0000
0001
0000
,
1000
0000
0001
0000
0010
0001
0010
0001
0010
0000
0100
0000
1000
0000
0001
0000
,
2000
0000
0010
0000
0001
0000
0100
0100
,
3100
0000
0000
0000
1000
0000
0000
0000
0001
0000
0100
0001
1000
0000
0001
0000
,
0100
0000
0100
0000
0100
0000
0100
0000
0210
0000
0300
0000
0102
0000
0003
1000
,
0001
0000
0000
0000
2100
0000
3000
0001
1000
0000
0020
0000
0130
0000
0010
0000
,
0110
0000
1001
0000
0110
0000
1000
0001
,
1001
0000
0110
0000
1001
0000
2000
3000
,
0001
0010
1000
0010
0001
0100
1000
0100
,
0001
0000
0000
0100
0010
0000
1000
0001
1000
0001
1000
0000
0001
0000
0000
0000
,
0010
0000
0000
0001
0000
0000
0100
0000
0010
0000
0000
1000
0000
0000
0100
0000
,
0010
0000
0000
0001
0000
0000
0100
0000
0010
0000
0000
1000
0000
0000
0100
0000
,
0010
0000
0000
0001
0000
0000
0100
0000
0010
0000
0000
1000
0000
0000
0100
0000
,
0010
0000
0000
0001
0000
0000
1000
0000
0002
0000
0003
0000
1000
0010
1000
0000
,
0001
0000
0000
0100
0000
0000
1000
0000
0001
0000
0000
0010
0000
0000
1000
0000
,
0001
0000
0000
0010
0000
0000
1000
0000
0001
0000
0000
0100
0000
0000
1000
0000
,
0010
0000
0000
0001
0000
0000
1000
0000
0100
0000
0000
0001
0000
0000
0010
0000
,
0002
0000
0000
2000
0000
0000
3003
0000
0000
0000
0000
0000
1001
0000
0000
0000
,
1000
0000
0010
1000
0010
0100
0001
0000
,
1000
0100
1000
0100
0010
0001
1000
0000
,
0001
0000
0000
0000
1000
0000
0000
0100
1000
0000
0100
0000
1000
0000
0000
0000
,
0001
0000
0000
0000
1000
0000
0000
0100
1000
0000
0001
0000
1000
0000
0000
0000
,
0001
0100
0001
0000
0100
0010
0100
0000
,
0010
1000
0010
0000
1000
0001
1000
0000
,
0001
0010
0001
0000
1000
0100
1000
0000
0001
0010
0001
0000
1000
0100
1000
0000
,
0001
0000
0000
1000
0000
0000
0001
0000
1000
0100
0010
0000
0011
0000
0000
0000
,
0101
0000
0000
0000
1000
0000
0010
1000
0010
0000
0100
0000
0001
0000
1000
0000
,
1100
0000
0000
0000
0001
0000
0010
0001
0010
0000
0100
0000
1000
0000
0001
0000
,
0011
0000
0000
0000
1000
0000
0100
1000
0100
0000
1000
0000
0001
0000
0100
0000
,
0101
0000
0000
0000
0001
0000
0100
0001
0100
0000
0001
0000
1000
0000
0100
0000
,
1100
0000
0000
0000
1000
0000
0100
0010
0100
0000
0010
0000
0001
0000
1000
0000
,
1001
0000
0000
0000
0001
0000
0100
0010
0100
0000
0010
0000
1000
0000
0001
0000
,
1001
0000
0000
0000
1000
0000
0010
0100
0001
0000
0100
0000
1000
0000
0100
0000
,
0001
0000
0000
0000
0010
0000
0100
0010
0001
0000
0010
0000
0011
0000
0000
0000
,
0101
0000
0000
0000
0001
0100
0001
0100
0001
0000
1000
0000
0100
0000
1000
0000
,
0001
0000
0000
0000
0000
0000
0000
0000
0100
0000
0000
0000
0000
0000
0000
0000
2000
3000
0000
0000
0200
0300
0000
0000
0002
0003
0000
0000
0020
0030
0000
0000
,
0001
0000
0000
0000
1000
0100
1000
0000
0001
0000
0100
0000
0001
0000
1000
0000
,
0100
0000
0010
0000
0001
0100
0001
0000
1000
0000
0100
0000
1000
0000
0001
0000
,
0100
0000
0010
0000
1000
0010
1000
0000
0001
0000
0010
0000
0001
0000
1000
0000
,
0010
0000
0100
0000
0001
0010
0001
0000
0010
0000
1000
0000
0010
0000
0001
0000
,
0100
0000
0001
0000
0010
1000
0010
0000
0100
0000
1000
0000
0010
0000
0001
0000
,
0010
0000
0100
0000
0010
0001
0010
0000
0100
0000
0001
0000
0100
0000
0010
0000
,
2000
0000
0010
0000
0001
0000
0100
0100
,
3100
0000
0000
0000
1000
0000
0000
0000
0001
0000
0100
0001
1000
0000
1000
0000
,
0000
0001
0001
0000
1100
0000
0100
1000
,
0100
0010
0001
1000
0000
0001
1000
0001
,
2000
0000
3000
0000
,
0000
0000
0000
0000
;
#NOTES:
     dance-double:
     :
     Easy:
     6:
     :
00000000
00000000
00000000
00000000
,
00000000
00000000
00000000
00000000
,
00000000
00000000
00000000
00000000
,
00000000
00000000
00000000
00000000
,
00000000
00000000
00000000
00000000
,
10000000
00000000
10000000
00000000
,
00100000
01000000
00010000
00000000
,
00100000
00000000
00100000
00000000
,
00001000
00010000
00001000
00000000
,
00010000
00000010
00001000
00000000
,
00000001
00001000
00000001
00000000
,
00000010
00000100
00010000
00000000
,
00001000
00000000
00000000
00010000
,
00011000
00000000
00001000
00000000
,
00100000
01000000
00100000
00000000
,
00010000
00100000
00010000
00000000
,
10000000
01000000
10000000
00000000
,
02000000
00100000
00000000
00100000
,
00000000
03010000
00020000
00001000
,
00032000
00010000
00000000
00100000
,
00000000
00010000
00003000
00000000
,
00011000
00001000
00010000
00000010
,
00001000
00001001
00002002
00003003
,
00000101
00000100
00000001
00000100
,
00000010
00000110
00000220
00000330
,
00000100
00001000
00010000
00000000
,
00010000
00100000
01000000
00000000
,
00010000
00010000
10000000
10000000
,
20000000
00000000
00000000
00000000
,
30020000
00000000
02030000
00000000
,
03002000
00000000
00023000
00000000
,
00030010
00001000
00000100
00000000
,
00001000
00000001
00001000
00000000
,
00000010
00000100
00001000
00020000
,
00000000
00030000
00100000
00000000
,
01000000
00100000
01000000
00100000
,
10000000
01000000
00100000
00010000
,
00200000
00000000
00010000
00000000
00010000
00000000
00001000
00300000
,
00002000
00010000
00010000
00003000
,
00020000
00000000
00001000
00000000
00001000
00000000
00000100
00030000
,
00000200
00000010
00000010
00000300
,
00000011
00000010
00000100
00000000
,
00001100
00000100
00010000
00000000
,
00001000
00100000
00010000
01000000
,
00010000
00000000
10000000
00010000
,
00200000
00000000
01000000
00000000
,
00302000
00000000
00010000
00000000
,
00003020
00000000
00000100
00000000
,
00000032
00000000
00000103
00000000
,
00000110
00000000
00000010
00000000
,
00010000
00000000
00001000
00000000
,
00100000
00001000
00010000
00000100
,
00000020
00000000
00000000
00000030
,
00000001
00000010
00000001
00000100
,
00001000
00010000
00001000
00000000
,
00010000
00100000
01000000
00010000
,
01000000
00100000
10000000
00000000
,
01000000
10000000
01000000
00000000
,
00100000
00010000
00100000
00000000
,
00001000
00010000
00000100
00001000
,
00000100
00000000
00000000
00001000
,
00001010
00000000
00000010
00000000
,
00000100
00000010
00001000
00000001
,
00000100
00000000
00000001
00000000
,
00000010
00000100
00010000
00001000
,
00100000
00000000
00010000
00000000
,
00100000
01000000
10000000
00010000
,
10000000
00000000
00100000
00000000
,
00010000
00000000
00001000
00010000
,
00011000
00000000
00001000
00010000
,
00000100
00001000
00000001
00000100
,
00000001
00000000
00000100
00000010
,
00010000
00001000
01000000
00010000
,
10000000
00000000
01000000
00100000
,
01000000
10000000
01000000
00010000
,
00001000
00000000
00000010
00000001
,
00000010
00000001
00001000
00000100
,
00001100
00000000
00000100
00000000
,
00010000
00001000
00010000
00001000
,
00100000
00000000
00010000
00000000
,
01000000
00100000
10000000
01000000
,
20000000
00000000
30000000
00000000
,
00000000
00000000
00000000
00000000
;
#NOTES:
     dance-double:
     :
     Medium:
     10:
     :
00000000
00000000
00000000
00000000
,
00000000
00000000
00000000
00000000
,
00000000
00000000
00000000
00000000
,
00000000
00000000
00000000
00000000
,
00000000
00000000
00000000
00000000
,
10000000
00000000
00000000
00100000
00000000
00000000
01000000
00000000
,
00001000
00000000
00000000
00010000
00000000
00000000
00001000
00000000
,
00000100
00000000
00000000
00000001
00000000
00000000
00000010
00000000
,
00000100
00000000
00000000
00001000
00000000
00000000
00000100
00000000
,
00010000
00010000
00001000
00001000
,
00100000
00100000
00010000
00010000
,
00110000
00110000
01100000
00110000
,
00100000
00000000
01000000
10000000
00010000
00000000
10000000
00000000
,
11000000
00000000
01000000
00000000
00010000
00000000
00001000
00010000
,
00001000
00000000
00000100
00000000
00000010
00000000
00000100
00000001
,
00000100
00000000
00000010
00000000
00001000
00000000
00000100
00010000
,
00000100
00010000
00001000
00010000
,
00002000
00100000
00010000
01000000
,
00010000
00100000
00203000
00310000
,
20000000
00100000
00010000
01000000
,
00010000
00100000
30010000
00000000
,
10010000
01010000
00110000
00101000
,
00011000
00000000
00001000
00000000
00000100
00000000
00000010
00001000
,
00001001
00001010
00001100
00010100
,
00011000
00000000
00010000
00000000
00100000
00000000
01000000
00100000
,
01100000
00000000
00110000
00000000
00011000
00000000
00001000
00000100
,
00000110
00000000
00001100
00000000
00011000
00000000
00002000
00003000
,
00010000
00000000
00100000
00000000
01000000
00100000
01000000
00010000
,
20000000
00000000
00000000
31000000
,
12000000
00000000
23000000
00000000
,
30200000
00000000
00320000
00030000
,
00001000
00000000
00010000
00000000
00000000
00000000
00000000
00000000
00001000
00000000
00000000
00000100
00000000
00000000
00000000
00000000
,
00000010
00000000
00000010
00000000
00000010
00000000
00000000
00000000
00000100
00000000
00000000
00000001
00000000
00000000
00000010
00000000
,
00000200
00000300
00000200
00000300
00002000
00003000
00000200
00000000
,
00000000
00001000
00001000
00000000
00010300
00000000
00001000
00010000
,
00100000
00000000
01000000
00000000
10000000
00000000
01000000
00100000
,
10000000
00000000
01000000
00000000
00100000
00001000
00010000
00000000
,
00021000
00000010
00001000
00000100
,
00001000
00000010
00030020
00001030
,
00000002
00000010
00001000
00000100
,
00002000
00000000
00000000
00000000
00003003
00000000
00000001
00001000
,
00001001
00000000
00001000
00000000
00000100
00000000
00010000
00001000
,
00011000
00000000
00010000
00000000
00001000
00000000
00200000
00300000
,
00010000
00100000
01000000
00000000
00100000
01000000
10000000
00010000
,
20000000
00000000
00000000
31000000
,
20000000
00000000
02000000
30000000
,
00200000
03000000
00002000
00300000
,
00020000
00003000
00000200
00030000
,
00000020
00000000
00000300
00000000
00000002
00000000
00000030
00000003
,
00000001
00000000
00000000
00000010
00000000
00000000
00000100
00000000
00000010
00000000
00000000
00000001
00000000
00000000
00000100
00000000
,
00000010
00000000
00000000
00001000
00000000
00000000
00000100
00000000
00010000
00000000
00000000
00001000
00000000
00000000
00100000
00000000
,
00010000
00000000
00000000
01000000
00000000
00000000
00100000
00000000
10000000
00000000
00000000
01000000
00000000
00000000
10000000
00000000
,
00200000
00000000
00000000
02000000
00000000
00000000
03300000
00000000
00000000
00000000
00000000
00000000
01100000
00000000
00000000
00000000
,
00100000
00000000
00010000
00000000
00001000
00010000
00001000
00000000
,
00000010
00000000
00000100
00000000
00001000
00000001
00001000
00000000
,
00000010
00000000
00000100
00000000
00001000
00000100
00000010
00000000
,
00001000
00000000
00000100
00010000
00001000
00100000
00010000
00000000
,
00100000
00100000
01000000
01000000
,
00010000
00010000
00001000
00001000
,
00000100
00000010
00001000
00000001
,
00001000
00000000
00000000
00000001
00000000
00000000
00000100
00000000
00000000
00000000
00000100
00000000
00000010
00000000
00000000
00000000
,
00000110
00000000
00000100
00000000
00001000
00010000
00100000
00000000
,
10000000
00000000
00100000
00000000
00010000
00100000
10000000
00000000
,
01000000
00000000
00100000
00000000
10000000
00100000
00010000
00000000
,
00001000
00000000
00000100
00000000
00000010
00000100
00001000
00000000
,
00000001
00000000
00000100
00000000
00000001
00000100
00001000
00000000
,
00010000
00000000
00100000
00000000
10000000
01000000
00010000
00000000
,
00001000
00000000
00000010
00000000
00000001
00000100
00001000
00000000
,
00010000
00000000
00000010
00010000
00000010
00010000
00001000
00000000
,
00011000
00000000
00010000
00000000
00100000
01000000
00010000
00000000
,
10000000
00000000
00000000
00000000
00000000
00000000
00000000
00000000
00010000
00000000
00000000
00000000
00010000
00000000
00000000
00000000
20000000
30000000
00000000
00000000
02000000
03000000
00000000
00000000
00200000
00300000
00000000
00000000
00020000
00030000
00000000
00000000
,
01000000
00000000
00010000
00000000
00100000
00001000
00010000
00000100
,
00001000
00000000
00000100
00000000
00000010
00000001
00000100
00000001
,
00000010
00000000
00001000
00000000
00000010
00001000
00010000
00001000
,
00100000
00000000
00010000
00000000
01000000
00100000
10000000
01000000
,
10000000
11000000
01100000
00101000
,
00022000
00000000
00000000
00000000
00000000
00000000
00000000
00000000
00000000
00033000
00000000
00000000
00010000
00000000
00000000
00000000
,
00011000
00001100
00000110
00001001
,
00000001
00000000
00000010
00000000
00000100
00000000
00001000
00001000
,
00000000
00000100
00000100
00000000
00010000
00000000
00100000
01000000
,
00010000
00100000
10000000
00100000
00000000
00010000
10000000
00010000
,
20000000
00000000
30000000
00000000
,
00000000
00000000
00000000
00000000
;
#NOTES:
     dance-double:
     :
     Hard:
     14:
     :
00000000
00000000
00000000
00000000
,
00000000
00000000
00000000
00000000
,
00000000
00000000
00000000
00000000
,
00000000
00000000
00000000
00000000
,
00000000
00000000
00000000
00000000
,
10000000
00000000
00100000
00000000
01000000
00010000
00100000
00000000
,
00010000
00000000
01000000
00000000
00001000
00010000
00001000
00000000
,
00010000
00000000
00000100
00000000
00001000
00000001
00000010
00000000
,
00000001
00000000
00000100
00000000
00000001
00000010
00000100
00000000
,
00001000
00000100
00010000
00000000
00001000
01000000
00010000
00000000
,
01000000
00100000
00010000
00000000
00100000
00010000
00001000
00000000
,
00010000
00001000
00000010
00000001
00000100
00001000
00010000
00100000
,
10000000
00000000
00000000
00100000
00000000
00000000
10000000
00000000
00010000
00000000
10000000
00000000
10100000
00000000
00000000
00000000
,
11000000
00000000
00000000
00000000
01000000
10000000
00000000
00010000
00000000
00100000
00000000
00001000
00010000
00000000
00000100
00000000
,
00001000
00000000
00000000
00000000
00000100
00001000
00000000
00000100
00000000
00010000
00000000
00001000
00100000
00000000
00010000
00000000
,
00100000
00000000
00000000
00000000
00010000
00100000
00000000
00001000
00000000
00010000
00000000
00000100
00001000
00000000
00000100
00000000
,
00001000
00000000
00000000
00000000
00000100
00001000
00000000
00000100
00000000
00010000
00000000
00001000
00010000
00000000
00001000
00000000
,
00200000
00000000
00000000
00000000
00010000
00000000
00000000
00001000
00000000
00001000
00000000
00000000
00010000
00000000
00000000
00000000
,
01000000
00010000
00320000
00031000
,
00002000
00000000
00000000
00000000
00010000
00000000
00000000
00000100
00000000
00000100
00000000
00000000
00000001
00000000
00000000
00000000
,
00000010
00000000
00000000
00000000
00000000
00000000
00000000
00000000
00000000
00000000
00000000
00000000
00000000
00000000
00000000
00000000
00000001
00000000
00000000
00000000
00000000
00000000
00000000
00000000
00000000
00000000
00000000
00000000
00000100
00000000
00000000
00000000
00000000
00000000
00000000
00000000
00000100
00000000
00000000
00000000
00000000
00000000
00000000
00000000
00000000
00000000
00000000
00000000
00003001
00000000
00000000
00000000
00000000
00000000
00000000
00000000
00002000
00003000
00000000
00000000
00000000
00000000
00000000
00000000
,
00001002
00000003
00000000
00000000
00002100
00003000
00000000
00000000
00001020
00000030
00000000
00000000
00020010
00030000
00000000
00000000
,
00011000
00000000
00010000
00000000
00001000
00000000
00101000
00100000
,
00210000
00300000
00000000
00000000
10020000
00030000
00000000
00000000
02010000
03000000
00000000
00000000
00102000
00003000
00000000
00000000
,
00011000
00000000
00001000
00000000
00010000
00000000
00010100
00000100
,
00000110
00000000
00001001
00000000
00001010
00000000
00000001
00001000
,
00001001
00000000
00001100
00000000
00010100
00000000
00020000
00030000
,
00001000
00010000
01000000
00010000
00001000
00000100
00001000
00010000
,
01000000
00000000
00000000
00100000
01000000
00000000
10000000
00010000
10000000
00010000
10000000
00000000
00010000
00000000
00000000
00000000
,
10010000
00000000
00000000
00000000
00000000
00000000
00000000
00000000
00000000
00000000
00000000
00000000
00000000
00000000
00000000
00000000
00010000
00000000
00000000
00000000
00000000
00000000
00000000
00100000
00000000
00000000
00000000
00000000
01000000
00000000
00000000
00000000
,
10000000
00000000
00000000
00000000
00000000
00000000
00000000
01000000
00000000
00000000
00000000
00000000
00100000
00000000
00000000
00000000
00010000
00000000
00000000
00000000
00000000
00000000
00000000
00001000
00000000
00000000
00000000
00000000
00000100
00000000
00000000
00000000
,
00001000
00000000
00000100
00010000
00000100
00010000
00000100
00010000
00000100
00000000
00000000
00001000
00000000
00000000
00000000
00000000
,
00000001
00000000
00000001
00000000
00000001
00000000
00000000
00000000
00000101
00000000
00000000
00000110
00000000
00000000
00001010
00000000
,
00002000
00003000
00002000
00003000
00020000
00030000
00200000
00000000
,
00300000
00010000
10000000
00000000
01000000
00000000
11000000
00000000
,
10000000
00000000
01000000
00000000
00100000
00010000
00100000
00000000
00010000
00000000
00001000
00000000
00000100
00000000
00000010
00000000
,
00000001
00000000
00000100
00000000
00000010
00001000
00000010
00000000
00001000
00000000
00010000
00000000
01000000
00000000
00100000
00000000
,
20000000
00000000
00100000
00000000
00010000
00000000
01000000
01000000
,
31000000
00000000
00000000
00000000
10000000
00000000
00000000
00000000
00100000
00000000
01000000
00100000
01000000
00000000
00001000
00000000
,
00010000
00000000
00010000
00000000
00010000
00000000
00010000
00000000
00020000
00000000
00030000
00000000
00002000
00000000
00003000
00000010
,
00000001
00000000
00000000
00000000
00000200
00000000
00000300
00001000
00010000
00000000
00000000
00000000
00001000
00000000
00010000
00000000
,
00011000
00000000
00101000
00000000
01100000
00000000
10000000
00010000
,
10010000
00000000
01010000
00000000
00101000
00000000
00002000
00003000
,
00010000
00001000
00000100
00000001
00000100
00001000
00010000
01000000
,
10000000
00000000
00000000
01000000
00100000
00000000
00010000
10000000
00010000
10000000
00010000
00000000
10000000
00000000
00000000
00000000
,
01000000
00000000
00000000
00010000
00000000
00000000
00001000
00000000
00100000
00000000
00000000
00010000
00000000
00000000
00001000
00000000
,
00000100
00000000
00000000
00001000
00000000
00000000
00010000
00000000
00000010
00000000
00000000
00001000
00000000
00000000
00010000
00000000
,
00100000
00000000
00000000
00010000
00000000
00000000
00001000
00000000
01000000
00000000
00000000
00010000
00000000
00000000
00001000
00000000
,
00000010
00000000
00000000
00001000
00000000
00000000
00010000
00000000
02000000
00000000
03000000
00000000
00001000
00010000
00001000
00000000
,
00010000
00000000
00000000
00001000
00000000
00000000
00000010
00000000
00001000
00000000
00000000
00010000
00000000
00000000
00100000
00000000
,
00010000
00000000
00000000
00001000
00000000
00000000
00000100
00000000
00001000
00000000
00000000
00010000
00000000
00000000
01000000
00000000
,
00010000
00000000
00000000
00001000
00000000
00000000
00000100
00000000
00000001
00000000
00000000
00001000
00000000
00000000
00000010
00000000
,
00002000
00000000
00000000
00000002
00000000
00000000
00003003
00000000
00000000
00000000
00000000
00000000
00001001
00000000
00000000
00000000
,
00000001
00000000
00000010
00000100
00010000
00001000
00100000
00000000
,
00001000
01000000
00010000
00100000
01000000
00010000
00001000
00000000
,
00010000
00000000
00000000
00000000
00000100
00000000
00000000
00000010
00000100
00000000
00001000
00000000
00010000
00000000
00000000
00000000
,
00100000
00000000
00000000
00000000
01000000
00000000
00000000
00100000
01000000
00000000
00010000
00000000
00001000
00000000
00000000
00000000
,
00010000
00000010
00010000
00000000
00001000
00100000
00001000
00000000
,
00010000
00000100
00010000
00000000
00001000
01000000
00001000
00000000
,
00010000
00001000
00000010
00000001
00000100
00001000
00010000
00100000
,
10000000
00000000
00000000
10000000
00000000
00000000
00010000
00000000
10000000
00010000
00100000
00000000
00101000
00000000
00000000
00000000
,
00011000
00000000
00000000
00000000
00010000
00000000
00001000
00010000
00000100
00000000
00001000
00000000
00000010
00000000
00010000
00000000
,
00001000
00000000
00000000
00000000
00000010
00000000
00000100
00000010
00000100
00000000
00000001
00000000
00000100
00000000
00001000
00000000
,
00000010
00000000
00000000
00000000
00001000
00000000
00000100
00001000
00000100
00000000
00010000
00000000
00001000
00000000
00100000
00000000
,
00010000
00000000
00000000
00000000
00100000
00000000
01000000
00100000
00010000
00000000
01000000
00000000
10000000
00000000
01000000
00000000
,
00010000
00000000
00000000
00000000
00100000
00000000
00010000
00100000
00001000
00000000
00010000
00000000
00100000
00000000
00010000
00000000
,
00001000
00000000
00000000
00000000
00000010
00000000
00000100
00000010
00001000
00000000
00000010
00000000
00000001
00000000
00000010
00000000
,
00001000
00000000
00000000
00000000
00010000
00000000
00001000
00010000
00001000
00000000
00100000
00000000
01000000
00000000
00010000
00000000
,
00001000
00000000
00010000
00100000
10000000
00100000
01100000
00000000
,
10010000
00000000
00000000
00000000
00010000
01000000
00010000
01000000
00010000
00000000
00100000
00000000
00010000
00000000
00001000
00000000
,
00000100
00000000
00000000
00000000
00000000
00000000
00000000
00000000
00000010
00000000
00000000
00000000
00000000
00000000
00000000
00000000
00000200
00000300
00000000
00000000
00002000
00003000
00000000
00000000
00020000
00030000
00000000
00000000
00200000
00300000
00000000
00000000
,
01000000
00000000
00000000
00000000
10000000
01000000
10000000
00000000
01000000
00000000
00100000
00000000
00001000
00000000
00010000
00000000
,
00000100
00000000
00000010
00000000
00000001
00000100
00000001
00000000
00000100
00000000
00000010
00000000
00010000
00000000
00001000
00000000
,
01000000
00000000
00100000
00000000
00010000
00001000
00010000
00000000
00000100
00000000
00000010
00000000
00000001
00000000
00000100
00000000
,
00000010
00000000
00000100
00000000
00001000
00010000
00001000
00000000
01000000
00000000
00100000
00000000
10000000
00000000
01000000
00000000
,
00100000
00000000
00010000
00000000
00001000
00000100
00000010
00000000
00000001
00000000
00000100
00000000
00001000
00000000
00010000
00000000
,
00100000
00000000
10000000
00000000
00100000
00010000
00100000
00000000
01000000
00000000
00001000
00000000
00010000
00000000
00001000
00000000
,
00020000
00000000
00000010
00000000
00000100
00000000
00001000
00001000
,
00031000
00000000
00000000
00000000
00001000
00000000
00000000
00000000
00000010
00000000
00000100
00001000
00000100
00000000
00000100
00000000
,
00000000
00010000
00010000
00000000
00011000
00000000
00001000
00010000
,
01000000
10000000
00100000
00010000
00000000
00001000
00000100
00000001
,
00000200
00000000
00000300
00000000
,
00000000
00000000
00000000
00000000
;
